#TITLE:NO ONE YES MAN;
#SUBTITLE:;
#ARTIST:MYUKKE.;
#TITLETRANSLIT:;
#SUBTITLETRANSLIT:;
#ARTISTTRANSLIT:;
#GENRE:;
#CREDIT:;
#BANNER:NO ONE YES MAN banner.png;
#BACKGROUND:NO ONE YES MAN bg.png;
#LYRICSPATH:;
#CDTITLE:;
#MUSIC:NO ONE YES MAN.ogg;
#OFFSET:0.000000;
#SAMPLESTART:40.941177;
#SAMPLELENGTH:15.000000;
#SELECTABLE:YES;
#BPMS:0.000000=170.000000
,180.000000=85.000000
,196.000000=170.000000
,224.000000=85.000000
,226.000000=170.000000
;
#STOPS:
;
#BGCHANGES:;
#KEYSOUNDS:;
#ATTACKS:;

//---------------dance-single - XO DS JA XMOD BU- JU----------------
#NOTES:
     dance-single:
     :
     Hard:
     16:
     0.759497,0.943417,0.437734,0.764045,0.469570,668.000000,613.000000,55.000000,96.000000,0.000000,0.000000,0.759497,0.943417,0.437734,0.764045,0.469570,668.000000,613.000000,55.000000,96.000000,0.000000,0.000000:
// measure 0
0000
0000
0000
0000
,  // measure 1
0000
0000
0000
0000
,  // measure 2
0000
0000
0000
0000
,  // measure 3
0000
0000
0000
0000
,  // measure 4
0000
0000
0000
0000
,  // measure 5
1100
1000
0001
0200
0000
0310
1000
0200
,  // measure 6
0000
0310
0100
0001
0100
0010
0001
0100
,  // measure 7
0001
0001
1000
0200
0000
0310
0001
0200
,  // measure 8
0000
0000
0310
0000
0100
0000
1000
0000
0100
0000
0010
0000
1000
0000
0100
0010
,  // measure 9
0001
0001
1000
0020
0000
0130
0001
0020
,  // measure 10
0000
0000
0130
0000
0010
0000
1000
0000
0010
0000
0100
0000
1000
0000
0010
1000
,  // measure 11
0001
0010
0001
0010
0100
0010
0100
1000
0001
0100
0001
0100
0010
0000
0200
0000
,  // measure 12
0000
0310
0001
0020
0000
1030
0110
0000
,  // measure 13
2001
0000
0000
0000
3100
0000
1000
0100
0010
0000
0001
0000
0100
0000
2000
0000
,  // measure 14
0000
0000
3100
0000
0010
0000
1000
0001
1000
0000
0100
0000
0020
0000
0000
0000
,  // measure 15
0032
0000
0000
0000
0103
0000
0001
0100
0010
0000
1000
0000
0100
0000
0002
0000
,  // measure 16
0000
0000
0103
0000
0010
0000
0001
0010
0001
0010
0100
1000
0001
0000
0001
0000
,  // measure 17
2000
0000
0000
0000
3010
0000
1000
0010
0100
0000
0001
0000
0010
0000
2000
0000
,  // measure 18
0000
0000
3010
0000
0100
0000
1000
0001
1000
0000
0010
0000
0200
0000
0000
0000
,  // measure 19
0302
0000
0000
0000
0013
0000
0001
0010
0100
0000
1000
0000
0010
0000
0002
0000
,  // measure 20
0000
0000
0013
0000
0110
0000
0100
0000
1001
0000
1000
0000
1010
0000
0010
0100
,  // measure 21
2000
0000
3100
2000
0000
3100
0001
2000
,  // measure 22
0000
0000
3010
1000
0001
1000
0001
0100
0010
1000
0001
0100
0002
0000
0013
0000
,  // measure 23
2000
0000
3010
2000
0000
3010
0001
2000
,  // measure 24
0000
0000
3100
1000
0001
1000
0001
0010
0100
1000
0001
0100
0020
0000
0000
0000
,  // measure 25
0032
0000
0013
0002
0000
0013
1000
0002
,  // measure 26
0000
0000
0103
0001
1000
0001
1000
0010
0100
0001
1000
0010
2000
0000
3100
0000
,  // measure 27
0002
0000
0103
0002
0000
0103
1000
0002
,  // measure 28
0000
0000
0000
0013
0001
0010
0001
0000
0000
1000
0000
0000
0100
0000
0000
0010
0000
0000
0011
0000
0000
0000
0000
0000
,  // measure 29
1100
1000
0010
0200
0000
0310
1000
0200
,  // measure 30
0000
0310
0100
0020
0000
0031
1001
0000
,  // measure 31
0101
0001
0010
0100
0010
0002
0000
0203
,  // measure 32
0000
0310
0100
0020
0000
1030
1100
0000
,  // measure 33
1010
1000
0100
0020
0000
0130
1000
0020
,  // measure 34
0000
0130
0010
0200
0000
0301
1001
0000
,  // measure 35
0011
0001
0100
0020
0000
0130
0001
0020
,  // measure 36
0000
0000
0130
0000
0010
0000
0001
0000
0100
0000
0010
0000
0010
0000
1000
0001
,  // measure 37
1000
0001
0010
0200
0000
0310
1000
0020
,  // measure 38
0000
0130
0010
0001
1000
0010
0100
0020
,  // measure 39
0000
0000
0130
0010
0001
0000
0010
0000
0100
0000
0001
0000
1000
0000
2100
0000
,  // measure 40
0000
3001
0100
0010
0110
0000
1001
0000
,  // measure 41
0101
0001
0001
0000
1010
1000
1000
2100
,  // measure 42
0000
0100
3100
0100
0010
0001
0010
0000
,  // measure 43
1100
1000
1000
0000
0011
0001
0001
0102
,  // measure 44
0000
0100
0203
0310
0010
0000
0110
0000
,  // measure 45
2001
0000
0000
0010
0000
0100
0000
0010
0000
0000
0010
0000
0001
0000
0010
0000
,  // measure 46
3002
0000
0000
1000
0000
0010
0000
0100
0000
0000
1000
0000
0010
0000
0100
0000
,  // measure 47
1003
0000
0100
0010
0000
0100
0000
1000
0000
0001
1000
0001
0001
1000
0100
0000
,  // measure 48
0010
0001
0010
0001
0000
0001
0000
0010
0000
0000
0100
0000
1000
0010
0110
0000
,  // measure 49
1000
0000
0100
0000
1000
0000
0100
0010
,  // measure 50
0000
0001
0001
0000
0100
0000
0001
0000
,  // measure 51
1000
0000
0010
0000
1000
0000
0010
0100
,  // measure 52
0000
0001
0001
0000
0100
0000
0001
0000
,  // measure 53
1000
0000
0001
0000
1000
0000
0001
0000
1000
0000
0001
0000
1000
0000
0001
0100
,  // measure 54
0010
0000
0100
0000
0010
0000
0100
0000
0010
0000
0100
0000
0010
0000
0100
0001
,  // measure 55
1000
0001
1000
0001
1000
0010
1000
0010
0100
0010
1000
0001
0010
0000
0200
0000
,  // measure 56
0000
0000
0310
0100
0010
0000
0200
0000
0000
0000
0310
0000
0011
0000
0000
0000
1001
0000
0000
0000
0001
0000
0000
0000
0100
0000
0000
0000
0210
0000
0000
0000
,  // measure 57
0000
0000
0310
1000
0001
0000
1200
0000
0000
0000
1300
0000
0100
0010
0100
2000
,  // measure 58
0001
0000
3020
0000
0031
0010
0100
0000
1001
0000
1000
0100
0010
0000
0210
0000
,  // measure 59
0000
0000
0310
0001
1000
0000
0201
0000
0000
0000
0301
0000
0100
0010
0100
0002
,  // measure 60
1000
0013
0110
0000
1001
1000
0010
0120
,  // measure 61
0000
0000
0130
0001
1000
0000
0021
0000
0000
0000
0031
0000
0010
0100
0010
0001
,  // measure 62
1000
0001
0200
0000
2300
0000
3100
0010
1000
0000
0001
0010
0100
0000
0120
0000
,  // measure 63
0000
0000
0130
1000
0001
0000
1020
0000
0000
0000
1030
0000
0010
0100
0010
2000
,  // measure 64
0001
0000
3200
0000
0301
0100
0010
0000
1001
0000
0001
1000
0100
0000
0210
0000
,  // measure 65
0000
0000
0310
0001
0100
0000
0201
0000
0000
0000
0301
0000
0010
0100
1000
0001
,  // measure 66
0010
0000
1000
0000
1000
0010
0100
0000
0110
0000
0010
0000
0001
0000
0201
0000
,  // measure 67
0000
0000
0310
1000
0100
0000
1200
0000
0000
0000
1300
0010
0100
0001
1000
0100
,  // measure 68
0010
0000
1000
0000
1000
0000
0010
0100
0010
0000
0100
0000
0010
0000
0120
0000
,  // measure 69
0000
0000
0130
1000
0010
0000
1020
0000
0000
0000
1030
0000
0100
0000
1000
0010
,  // measure 70
0100
0000
1000
0000
1000
0000
0100
0010
0100
0000
0010
1000
0010
0000
0120
0000
,  // measure 71
0000
0000
0130
0001
0010
0000
0021
0000
0000
0000
0031
0010
0200
0000
0301
0100
,  // measure 72
0020
0000
0030
0000
2002
0000
3003
0000
0201
0000
0000
0000
0310
0000
1000
0001
,  // measure 73
0010
0000
0001
1000
0010
0000
0200
0000
0000
0000
0310
0000
1000
0000
0100
1000
,  // measure 74
0001
0000
0200
0000
0302
0000
1003
0100
0020
0000
0000
0000
0130
0000
1000
0001
,  // measure 75
0100
0000
0001
1000
0100
0000
0002
0000
0000
0000
0103
0000
1000
0000
0010
0100
,  // measure 76
0010
1000
0010
0100
0001
0000
0001
0000
0020
0000
0000
0000
0130
0000
0100
1000
,  // measure 77
0100
0000
1000
0001
0100
0000
0020
0000
0000
0000
0130
0000
0001
0000
0010
0001
,  // measure 78
1000
0000
0020
0000
2030
0000
3001
0010
0200
0000
0000
0000
0310
0000
0001
1000
,  // measure 79
0010
0000
1000
0001
0010
0000
2000
0000
0000
0000
3010
0000
0001
0000
0100
0000
,  // measure 80
1000
0000
0100
0000
0010
0000
0100
0000
1001
0000
1000
0100
0010
0000
0110
0000
,  // measure 81
0100
1000
0010
0000
0110
0000
2002
0000
0000
0000
0000
0000
3003
0000
0000
0000
;

//---------------dance-single - XO JA XMOD JU-----------------
#NOTES:
     dance-single:
     :
     Medium:
     12:
     0.529829,0.553037,0.143258,0.175094,0.031835,466.000000,448.000000,18.000000,22.000000,0.000000,0.000000,0.529829,0.553037,0.143258,0.175094,0.031835,466.000000,448.000000,18.000000,22.000000,0.000000,0.000000:
0000
0000
0000
0000
,
0000
0000
0000
0000
,
0000
0000
0000
0000
,
0000
0000
0000
0000
,
0000
0000
0000
0000
,
1000
0000
0100
0010
0000
0100
1000
0001
,
0000
0100
0010
0000
0010
0100
0001
0000
,
0001
0000
0100
0010
0000
0100
0001
1000
,
0000
0100
0010
0000
0010
0100
1000
1000
,
0001
0000
0010
0100
0000
0010
0001
1000
,
0000
0010
0100
0000
0100
0010
1000
0000
,
2000
0000
3010
0200
0000
0310
1000
1000
,
0000
0001
0010
1000
0000
0010
0001
0000
,
1001
0000
0001
0100
0010
0100
0001
1000
,
0000
0100
0010
0000
0010
0100
0010
0000
,
1001
0000
1000
0100
0010
0100
1000
0001
,
0000
0100
0010
0010
1000
0100
0010
0001
,
1001
0000
1000
0010
0100
0010
1000
0001
,
0000
0010
0100
0000
0010
0000
0110
0000
,
1001
0000
0001
0010
0100
0010
0001
1000
,
0000
0010
0100
0100
0001
0001
0010
0100
,
0010
0000
0100
0010
0000
0100
0010
0001
,
0000
0010
0010
0001
0001
1000
0100
1000
,
0010
0000
0100
0010
0000
0100
0010
1000
,
0000
0010
0010
1000
1000
0001
0100
0000
,
0010
0000
0100
0010
0000
0100
0010
0001
,
0000
0010
1000
0001
1000
0100
1000
0000
,
0100
0000
0010
0100
0000
0010
0100
0001
,
0000
1000
0010
0001
1000
0001
0001
0100
,
0020
0000
0130
0020
0000
1030
0100
0020
,
0000
0031
1000
0002
0000
0103
0001
0000
,
0020
0000
0130
0020
0000
0031
0100
0020
,
0000
1030
0001
2000
0000
3100
1001
0000
,
2000
0000
3010
0200
0000
0301
0010
0200
,
0000
1300
0001
2000
0000
3010
1000
0000
,
0200
0000
0310
0200
0000
1300
0010
0200
,
0000
0301
1000
0001
0010
0001
0100
0100
,
0001
0001
0100
0010
0000
0100
1000
0100
,
0000
0001
0010
0100
0010
0100
1000
0000
,
0001
0001
0010
0100
0010
1000
0010
0002
,
0000
0103
0010
0000
0110
0000
1001
0000
,
1000
0100
1000
0000
0001
0100
0001
0100
,
0000
0010
0100
0010
0000
0100
0010
0000
,
1000
0010
1000
0000
0001
0010
0001
0010
,
0000
0100
0010
0000
0110
0000
0100
0000
,
2002
0000
0000
0000
,
0000
0000
0000
0000
0000
0000
0000
3003
,
1000
0000
0000
0010
0000
1000
0000
0010
0000
0000
1000
0000
0001
0000
1000
0000
,
0001
0000
0000
0010
0000
0001
0000
0010
0000
0000
0001
0000
1000
0000
0001
0000
,
1000
0000
0000
1000
0000
0000
0100
1000
,
0000
0010
0100
0100
,
0001
0000
0000
0001
0000
0000
0100
0001
,
0000
0010
0100
1000
,
0001
0001
1000
1000
,
0010
0010
0100
0100
,
0001
0010
0001
0010
0100
1000
0100
1000
,
0000
0010
0010
0100
0000
0000
1001
0000
1000
0000
0000
0000
0010
0000
0100
0000
,
0000
0010
0001
0010
0000
0100
0001
0000
,
1000
0001
0001
0000
1000
0000
0100
0010
,
0000
0100
0001
0100
0000
0010
0001
0000
,
1000
0001
1000
0000
0001
0000
0100
0010
,
0000
0100
1000
0100
0000
0010
1000
0000
,
0001
1000
1000
0000
0001
0000
0010
0100
,
0000
0010
1000
0010
0000
0100
1000
0100
,
0010
0001
0100
0100
0001
0010
0100
0001
,
0000
0100
0010
0001
0000
0100
0010
0010
,
1000
0010
0100
0100
0001
0100
0010
0001
,
0000
0010
0100
0001
0000
0010
0100
0100
,
1000
0100
0110
0000
1000
0100
0010
1000
,
0000
0010
0100
1000
0000
0010
0100
0100
,
0001
0100
0010
0010
1000
0010
0100
1000
,
0000
0100
0010
1000
0000
0100
0010
0010
,
0001
0000
0110
0000
1001
0000
1000
1000
,
0010
0010
0100
0001
0000
0001
0010
0010
,
0100
1000
0100
1000
0001
0000
1000
0100
,
0010
0100
0010
1000
0000
0010
0100
0010
,
0001
0100
0010
0000
1001
0000
0001
0001
,
0010
0010
0100
1000
0000
1000
0010
0010
,
0100
0001
0100
0001
1000
0000
0001
0100
,
0010
0100
0010
0001
0000
0010
0100
0010
,
1000
0100
0010
0000
0110
0000
0010
1001
,
0000
0001
0100
0220
0000
0000
0330
0000
;

//---------------dance-single - ----------------
#NOTES:
     dance-single:
     :
     Easy:
     9:
     0.302435,0.388589,0.087547,0.071629,0.000000,266.000000,255.000000,11.000000,9.000000,0.000000,0.000000,0.302435,0.388589,0.087547,0.071629,0.000000,266.000000,255.000000,11.000000,9.000000,0.000000,0.000000:
0000
0000
0000
0000
,
0000
0000
0000
0000
,
0000
0000
0000
0000
,
0000
0000
0000
0000
,
0000
0000
0000
0000
,
1000
0100
0010
0100
,
1000
0000
0001
1000
,
0001
0100
0010
0100
,
0001
0000
1000
0001
,
1000
0010
0100
0010
,
1000
0000
0001
1000
,
0001
0001
0010
0010
,
0100
0010
0001
1001
,
1000
0000
0010
0000
0010
0000
0000
0010
,
0000
1000
0100
1000
,
0001
0000
0010
0000
0010
0000
0000
0010
,
0000
0001
0100
0100
,
0001
0000
0100
0000
0100
0000
0000
0100
,
0000
0001
0010
0001
,
1000
0000
0100
0000
0100
0000
0000
1000
,
0000
0010
0010
0010
,
1000
0000
0000
1000
0000
0000
1000
0000
,
0000
0010
1000
1000
,
0001
0000
0000
0001
0000
0000
0001
0000
,
0000
0010
0001
0001
,
1000
0000
0000
0100
0000
0000
1000
0000
,
0000
0010
0100
0100
,
0001
0000
0000
0100
0000
0000
0001
0000
,
0000
0010
0100
0100
,
2000
0100
3000
1000
,
0200
1000
0300
0100
,
0020
0001
0030
0010
,
0001
0010
0001
0100
,
0002
0100
0003
0001
,
0200
0001
0300
0100
,
0020
1000
0030
0010
,
2000
3100
0010
0100
,
1000
0100
1000
0010
,
0100
0010
1000
0100
,
1000
0000
0001
0000
0001
0000
0000
0100
,
0000
0001
1000
1001
,
0001
0000
0001
0000
0010
0000
0000
0100
,
0000
0100
1000
0000
,
1000
0000
1000
0000
0010
0000
0000
0100
,
0000
0100
0001
1000
,
0002
0000
0000
0000
,
2003
0000
0000
0000
,
3001
0010
0100
1000
,
1000
0010
0100
0001
,
1000
0000
0100
0000
,
1000
0000
0100
0000
,
0010
0000
0001
0000
,
0010
0000
0001
0000
,
1000
0001
1000
0000
,
0001
1000
0001
0000
,
0100
0010
0100
0010
,
0000
0000
0000
0000
1001
0000
0000
1000
,
0000
0100
0000
0010
0000
0000
0001
0000
,
1000
0000
0001
0000
1000
0000
0000
0001
,
0000
0100
0000
0010
0000
0000
1000
0000
,
1000
0000
1000
0000
0001
0000
0000
1000
,
0000
0010
0000
0100
0000
0000
0001
0000
,
1000
0000
0001
0000
1000
0000
0000
0001
,
0000
0010
0000
0100
0000
0000
1000
0000
,
1000
0000
1000
0000
1001
0000
0000
1000
,
0000
0100
0000
0010
0000
0001
0001
0000
,
0010
0000
0100
0000
1000
0000
0000
0001
,
0000
0100
0000
0010
0000
1000
1000
0000
,
1001
0000
0110
0000
1001
0000
0000
1000
,
0000
0010
0000
0100
0000
0001
0001
0000
,
0010
0000
0100
0000
1000
0000
0000
0001
,
0000
0010
0000
0100
0000
0000
1000
0000
,
0010
0110
1001
1000
,
0100
1000
0000
0001
,
0100
0001
1000
1000
,
0010
1000
0000
0001
,
0010
0100
1000
1000
,
0100
0010
0000
0001
,
0100
0010
1000
0010
,
0100
0000
0001
0001
0000
0000
0010
0000
,
0100
0000
1000
0000
1001
0000
0000
0110
,
0000
0000
1000
0001
0000
0000
0000
0000
;
