#VERSION:0.83;
#TITLE:N1ghtmare;
#SUBTITLE:;
#ARTIST:Dustvoxx;
#TITLETRANSLIT:;
#SUBTITLETRANSLIT:;
#ARTISTTRANSLIT:;
#GENRE:EDM;
#ORIGIN:New Invoke Vol​.​2;
#CREDIT:;
#BANNER:N1ghtmare-banner.png;
#BACKGROUND:N1ghtmare-background.png;
#PREVIEWVID:;
#JACKET:N1ghtmare-jacket.png;
#CDIMAGE:;
#DISCIMAGE:;
#LYRICSPATH:;
#CDTITLE:;
#MUSIC:N1ghtmare.ogg;
#OFFSET:0.000000;
#SAMPLESTART:40.011703;
#SAMPLELENGTH:12.000000;
#SELECTABLE:YES;
#DISPLAYBPM:150.000000;
#BPMS:0.000=150.000,
252.000=75.000,
256.000=150.000,
260.000=50.025,
261.000=150.000;
#STOPS:;
#DELAYS:;
#WARPS:252.000=2.000,
261.000=2.000;
#TIMESIGNATURES:0.000=4=4;
#TICKCOUNTS:0.000=4;
#COMBOS:0.000=1;
#SPEEDS:0.000=1.000=0.000=0;
#SCROLLS:0.000=1.000,
252.000=0.000,
254.000=1.000,
260.000=0.500,
261.000=0.000,
263.000=1.000;
#FAKES:;
#LABELS:0.000=Song Start;
#BGCHANGES:;
#KEYSOUNDS:;
#ATTACKS: TIME=104.01:LEN=3.00:MODS=*1000 sudden,*1000 -125% suddenoffset: TIME=104.09:LEN=3.00:MODS=*2.4 150% suddenoffset: TIME=105.61:LEN=10.00:MODS=*100 no sudden;

//---------------dance-single - ----------------
#NOTEDATA:;
#CHARTNAME:;
#STEPSTYPE:dance-single;
#DESCRIPTION:;
#CHARTSTYLE:;
#DIFFICULTY:Hard;
#METER:13;
#RADARVALUES:0.569148,0.572206,0.014514,0.442671,0.119739,549.000000,547.000000,2.000000,61.000000,0.000000,0.000000,0.000000,0.000000,0.000000,0.569148,0.572206,0.014514,0.442671,0.119739,549.000000,547.000000,2.000000,61.000000,0.000000,0.000000,0.000000,0.000000,0.000000;
#CREDIT:Scrypts;
#ATTACKS:;
#DISPLAYBPM:150.000000;
#NOTES:
// measure 0
0000
0000
0000
0000
,  // measure 1
0000
0000
0000
0000
,  // measure 2
0000
0000
0000
0000
,  // measure 3
0000
0000
0000
0000
,  // measure 4
1000
0010
0000
0100
0001
1000
0001
0010
,  // measure 5
0000
0000
0100
0000
1000
0000
0010
0000
0100
0000
0000
0010
0000
0000
1000
0000
,  // measure 6
0001
1000
0100
0010
0001
1000
0001
0100
,  // measure 7
0000
0000
0010
0000
1000
0000
0100
0000
0010
0000
0100
0000
1000
0001
1000
0001
,  // measure 8
1000
0010
0100
0001
1000
0100
0010
0001
,  // measure 9
1000
0010
0100
0001
1000
0100
0010
0001
,  // measure 10
1000
0000
0000
0010
0000
0000
0100
0000
0000
0001
0000
0000
1000
0000
0000
0100
0000
0000
1000
0000
0001
0000
1000
0000
,  // measure 11
0001
0100
0010
1000
0010
0100
0002
0000
,  // measure 12
1003
0100
1000
0001
1000
0010
1000
0001
,  // measure 13
2000
3200
0320
0032
,  // measure 14
1003
0010
0100
0001
0010
0100
1000
0001
,  // measure 15
0100
0000
0000
0000
0001
1000
0001
0000
0010
0000
0000
0000
0100
1000
0000
1000
,  // measure 16
0001
0000
1000
1000
0002
0013
0100
1000
,  // measure 17
0001
0000
2000
0000
3010
0000
0010
0000
1000
0000
0001
0000
0000
0010
0000
0010
,  // measure 18
0100
1000
2000
3010
0100
0001
1000
0001
,  // measure 19
0100
0000
0020
0000
1030
0000
1000
0000
0001
0000
0010
0000
0000
0100
0000
0100
,  // measure 20
1000
0000
0010
0010
2000
3001
0010
0100
,  // measure 21
1000
0000
0002
0000
0103
0000
0100
0000
0001
0000
1000
0000
0000
0100
0000
0100
,  // measure 22
0010
0001
0002
0103
0010
1000
0001
0010
,  // measure 23
0100
0000
0010
0000
0001
0000
0001
0000
0100
0000
0010
0000
0000
0010
0000
1000
,  // measure 24
0001
0000
0000
0000
0001
1000
0001
0000
0200
0000
0310
0000
1000
0000
1000
0000
,  // measure 25
0100
0000
0010
0000
0001
0000
2000
0000
3001
0000
0100
0000
0020
0000
0130
0001
,  // measure 26
1000
0100
0020
0130
1000
0010
0100
0100
,  // measure 27
0010
1000
0100
0010
0001
1000
0010
0010
,  // measure 28
2000
0000
3100
0010
0001
0010
0100
1000
,  // measure 29
0002
0000
0103
0100
0001
1000
0100
0010
,  // measure 30
0002
0000
0203
0000
0310
1000
0001
1000
,  // measure 31
0200
0000
0310
0001
0200
0000
0310
1000
,  // measure 32
0001
0000
1000
1000
0100
0000
0010
0001
,  // measure 33
1000
0000
0001
0001
0100
0000
0010
1000
,  // measure 34
0001
1000
0200
0000
0310
0001
1000
0001
,  // measure 35
0100
0000
0020
0000
1030
0000
0001
0000
1000
0000
0100
0000
0000
0100
0000
0010
,  // measure 36
0001
0000
1000
0010
2000
3001
1000
0100
,  // measure 37
0010
0000
0002
0000
1003
0000
0001
0000
0100
0000
0010
0000
0000
0010
0000
1000
,  // measure 38
0001
0010
0200
1300
0100
0010
0001
1000
,  // measure 39
0010
0000
0100
0000
0010
0000
1000
0100
0000
0000
0010
0000
0000
0010
0000
0001
,  // measure 40
1000
1000
0010
0100
0002
0000
0013
0100
,  // measure 41
1000
0000
0100
0000
0001
0000
0100
0000
1000
0000
0010
0000
0000
0010
0000
0100
,  // measure 42
0001
1000
0002
0013
0100
1000
0100
0010
,  // measure 43
0001
0100
1000
0100
0001
0010
0200
0000
,  // measure 44
1300
0010
0100
0010
2000
0000
3100
0010
,  // measure 45
0001
0000
0010
0000
1000
0000
0010
0000
0001
0000
0100
0000
0000
0100
0000
0010
,  // measure 46
1000
0001
1000
0100
0020
0000
0031
1000
,  // measure 47
0002
0000
0000
0003
,  // measure 48
1001
0000
1000
0010
0100
0001
1000
0100
,  // measure 49
0000
0000
1000
0000
0001
0000
1000
0000
0010
0000
0000
0100
0000
0000
0010
0000
,  // measure 50
2000
0000
3001
0100
0001
1000
0001
0010
,  // measure 51
0000
0100
1000
0001
1000
0010
0100
0010
,  // measure 52
1000
0100
0010
0001
1000
0001
0100
0010
,  // measure 53
0000
0000
1000
0000
0001
0000
0010
0000
0100
0000
0000
0010
0000
0000
0001
0000
,  // measure 54
1000
0001
0100
0010
1000
0001
1000
0100
,  // measure 55
0020
0000
0031
0100
0020
0000
1030
0001
,  // measure 56
1000
0100
0010
0001
1000
0010
0100
0001
,  // measure 57
1000
0100
0010
0001
1000
0010
0100
0001
,  // measure 58
1000
0000
0000
0100
0000
0000
0010
0000
0000
0001
0000
0000
1000
0000
0000
0010
0000
0000
1000
0000
0001
0000
1000
0000
,  // measure 59
0001
0010
0100
1000
0100
0010
0002
0000
,  // measure 60
1003
0010
1000
0001
1000
0100
1000
0001
,  // measure 61
2000
3020
0230
0302
,  // measure 62
1003
0100
0010
0001
0100
0010
1000
0001
,  // measure 63
0000
0000
0010
0000
,  // measure 64
0100
0000
1000
0010
0200
0000
0310
1000
,  // measure 65
1001
0000
0000
0000
,  // measure 66
0001
0010
0100
1000
0001
1000
0100
0010
,  // measure 67
0001
1000
0010
0100
0001
1000
0100
1000
,  // measure 68
0002
0000
1003
0100
0002
0000
1003
0010
,  // measure 69
0002
0000
1003
0010
0001
0010
1000
0001
,  // measure 70
1000
0100
0010
0001
1000
0001
0100
0010
,  // measure 71
1000
0001
0100
0100
0010
1000
0001
0001
,  // measure 72
2000
0000
3001
0100
2000
0000
3001
0010
,  // measure 73
2000
0000
3001
0010
1000
0010
0001
1000
,  // measure 74
0002
0000
1003
0010
0100
0001
0100
0010
,  // measure 75
2000
0000
3001
0010
0100
1000
0001
1000
,  // measure 76
0020
0000
0230
0000
0301
1000
0000
0001
,  // measure 77
0010
0100
1000
0010
0100
0010
1000
0001
,  // measure 78
0020
0000
0130
1000
0020
0000
0130
0001
,  // measure 79
0020
0000
0130
1000
0020
0000
0130
0001
,  // measure 80
2000
3020
0230
0302
,  // measure 81
1003
0100
0010
0001
1000
0010
0100
0001
,  // measure 82
0020
0000
0000
0000
,  // measure 83
0030
0000
0000
0000
;

//---------------dance-single - ----------------
#NOTEDATA:;
#CHARTNAME:;
#STEPSTYPE:dance-single;
#DESCRIPTION:;
#CHARTSTYLE:;
#DIFFICULTY:Challenge;
#METER:17;
#RADARVALUES:0.830396,0.993832,0.087083,0.595065,0.845428,801.000000,789.000000,12.000000,82.000000,0.000000,0.000000,0.000000,0.000000,0.000000,0.830396,0.993832,0.087083,0.595065,0.845428,801.000000,789.000000,12.000000,82.000000,0.000000,0.000000,0.000000,0.000000,0.000000;
#CREDIT:Scrypts;
#ATTACKS:;
#DISPLAYBPM:150.000000;
#NOTES:
0000
0000
0000
0000
,
0000
0000
0000
0000
,
0000
0000
0000
0000
,
0000
0000
0000
0000
,
1000
0010
0100
0001
1000
0001
0010
0100
,
0000
0000
1000
0000
0001
0000
0200
0000
0010
0000
0000
1000
0000
0000
0310
0000
,
1000
0001
0010
0100
1000
0001
0100
0010
,
0000
0000
1000
0000
0001
0000
1000
0000
0010
0000
0100
0000
0001
0010
0100
1000
,
0010
1000
0100
1000
0010
0100
0001
1000
,
0100
0010
0001
0010
0100
1000
0001
0100
,
0001
0000
0000
0010
0000
0000
0100
0000
0000
1000
0000
0000
0010
0000
0000
0100
0000
0000
0001
0000
1000
0000
0100
0000
,
0010
0001
0100
0001
1000
0100
0020
0000
,
0031
0100
0001
1000
0010
0100
0010
1000
,
0001
0100
0001
0100
0010
1000
0010
1000
0001
0010
0001
0010
0100
1000
0100
1000
,
0001
0100
0010
1000
0100
0010
0001
0100
0010
1000
0100
0010
0001
0100
0010
1000
,
0100
0000
0000
0000
0010
0100
1000
0000
0020
0000
0000
0000
0130
0001
0000
1000
,
0100
0000
0000
0000
0010
0100
1000
0000
0020
0000
0130
0001
0010
0000
0100
0010
,
0001
0000
0000
0000
0000
0000
0000
0000
0200
0000
0000
0000
0000
0000
0000
0000
0310
0000
0000
0000
1000
0000
0000
0000
0100
0000
0000
0000
1000
0000
0000
0000
0001
0000
0000
0000
0000
0000
0000
0000
1000
0000
0000
0000
0000
0000
0000
0000
0001
0000
0000
0000
0200
0300
0000
0000
0000
0000
0000
0000
0200
0300
0000
0000
,
1000
0000
0001
0010
0200
0000
2300
0000
3020
0000
0130
0000
0001
0000
0100
0010
,
1000
0000
0000
0000
0000
0000
0000
0000
0200
0000
0000
0000
0000
0000
0000
0000
0310
0000
0000
0000
0001
0000
0000
0000
1000
0000
0000
0000
0001
0000
0000
0000
0100
0000
0000
0000
0000
0000
0000
0000
0010
0000
0000
0000
0000
0000
0000
0000
1000
0000
0000
0000
0200
0300
0000
0000
0000
0000
0000
0000
0200
0300
0000
0000
,
0001
0000
0000
0000
1000
0010
0100
0000
0020
0000
1030
0100
0010
0000
0100
1000
,
0001
0000
0000
0000
0000
0000
0000
0000
0200
0000
0000
0000
0000
0000
0000
0000
0310
0000
0000
0000
1000
0000
0000
0000
0001
0000
0000
0000
1000
0000
0000
0000
0100
0000
0000
0000
0000
0000
0000
0000
0010
0000
0000
0000
0000
0000
0000
0000
0001
0000
0000
0000
0200
0300
0000
0000
0000
0000
0000
0000
0200
0300
0000
0000
,
1000
0000
0001
0100
0020
0000
2030
0000
3020
0000
0130
0001
1000
0000
0100
0010
,
0001
0000
2000
0000
3001
0010
0100
0000
0001
0100
0010
0000
0000
0010
0000
0001
,
1000
0000
0000
0000
0010
0100
0001
0000
0200
0000
0310
1000
0001
1000
0010
0000
,
0100
0000
0000
0000
0000
0000
0000
0000
0001
0000
0000
0000
0000
0000
0000
0000
1000
0000
0000
0000
0100
0000
0000
0000
0020
0000
0000
0000
0031
0000
0000
0000
0100
0000
0000
0000
0000
0000
0000
0000
0001
0000
0000
0000
0000
0000
0000
0000
1000
0000
0000
0000
0020
0030
0000
0000
0000
0000
0000
0000
0020
0030
0000
0000
,
0001
0000
1000
0010
0200
0000
0310
0000
1000
0000
0001
0010
0100
1000
0001
0000
,
1000
0000
0010
0000
0100
0001
0020
0031
1000
0000
0001
0100
0010
0100
0001
1000
,
0100
0000
0000
0000
0010
0001
1000
0000
0020
0000
0130
0010
1000
0001
0010
0000
,
1000
0000
0020
0130
1000
0001
0100
0001
1000
0000
0010
0000
0100
0001
1000
0100
,
0001
0000
0100
1000
0002
0000
0103
0000
0010
0000
1000
0000
0100
0000
0010
0100
,
0001
0000
0200
0000
0310
0001
0100
0000
1000
0000
0100
0010
1000
0001
0000
0010
,
0100
0000
0000
0000
2000
0000
0100
0000
3001
0000
0000
0000
1000
0010
1000
0000
,
1000
0000
0000
0000
0002
0000
0100
0000
1003
0000
0001
0100
0001
0000
1000
0000
,
1001
0000
0001
0010
0200
0000
1000
0000
0320
0000
0031
0010
0100
0000
1000
0010
,
0100
0000
0000
0000
0000
0000
0000
0000
0002
0000
0000
0000
0000
0000
0000
0000
0103
0000
0000
0000
0010
0000
0000
0000
1000
0000
0000
0000
0001
0000
0000
0000
0010
0000
0000
0000
0000
0000
0000
0000
0100
0000
0000
0000
0000
0000
0000
0000
1000
0000
0000
0000
0020
0030
0000
0000
0000
0000
0000
0000
0020
0030
0000
0000
,
0001
0000
0000
0000
1000
0001
0010
0000
0200
0000
1300
0100
0020
0000
0001
0000
,
0230
0000
2300
0000
3010
0100
0001
0010
0000
0000
0100
0000
0010
0001
0000
0001
,
1000
0000
0010
0200
0001
0000
0320
0000
1000
0000
0130
0001
1000
0000
0100
0010
,
0200
0000
2300
0000
3001
0100
0001
0020
0000
0000
1000
0000
0000
1030
0000
0010
,
0001
0000
0001
0000
1000
0010
0100
0000
0002
0000
0000
1003
0100
0000
0010
0100
,
1000
0000
0000
0000
0010
0000
0000
0000
0200
0300
0000
0000
0200
0300
0000
0000
1000
0000
0000
0000
0001
0000
0000
0000
0200
0300
0000
0000
0200
0300
0000
0000
1000
0000
0000
0000
0000
0000
0000
0000
0010
0000
0000
0000
0000
0000
0000
0000
1000
0000
0000
0000
0020
0030
0000
0000
0000
0000
0000
0000
0020
0030
0000
0000
,
0001
0000
1000
0100
0020
0000
0001
0000
0230
0000
1300
0001
0100
0000
0010
1000
,
0100
0000
1000
0010
0100
1000
0100
0010
1000
0001
0010
0100
1000
0000
0100
0010
,
0001
0000
0001
0000
1000
0010
0200
0000
0001
0000
0320
0000
1030
0000
0001
1000
,
0001
0000
0000
0000
0010
0000
0000
0000
0200
0300
0000
0000
0200
0300
0000
0000
0001
0000
0000
0000
1000
0000
0000
0000
0200
0300
0000
0000
0200
0000
0000
0000
0001
0000
0000
0000
0000
0000
0000
0000
1000
0000
0000
0000
0000
0000
0000
0000
0000
0000
0000
0000
1300
0000
0000
0000
0000
0000
0000
0000
0100
0000
0000
0000
,
0001
0000
1000
0100
0010
0000
0100
0000
1000
0000
0001
0100
0001
1000
0001
0010
,
0200
0000
0000
2300
0000
0000
0000
3000
,
1001
0000
0001
1000
0010
1000
0100
0010
,
0000
0000
0001
0000
1000
0000
0020
0000
0100
0000
0000
0001
0000
0000
0130
0000
,
0001
1000
0100
0010
0001
1000
0010
0100
,
0000
0001
1000
0100
0010
1000
0010
0100
,
1000
0001
0100
0001
1000
0100
0010
0001
,
0000
0000
1000
0000
0001
0000
0020
0000
0100
0000
0000
1000
0000
0000
0130
0000
,
1000
0001
0100
0001
1000
0010
0100
0001
,
0010
0100
1000
0010
0200
0000
0301
1000
,
0010
1000
0100
1000
0010
0100
0001
1000
,
0100
0010
0001
0020
0130
1000
0001
0100
,
0001
0000
0000
0010
0000
0000
0100
0000
0000
1000
0000
0000
0010
0000
0000
0100
0000
0000
0001
0000
1000
0000
0100
0000
,
0010
0001
0100
0001
1000
0100
0020
0000
,
0031
0100
0001
1000
0010
0100
0010
1000
,
0001
0100
0001
0100
0010
1000
0010
1000
0001
0010
0001
0010
0100
1000
0100
1000
,
0001
0100
0010
1000
0100
0010
0001
0100
0010
1000
0100
0010
0001
0100
0010
1000
,
0000
0000
0000
0000
,
1001
0000
0000
0000
1000
0010
0100
0000
0021
0000
0000
0000
0130
0000
1000
0000
,
2002
3003
0000
0000
,
1001
0000
1000
0010
0200
0000
0001
0000
0320
0000
1030
0010
0100
0001
1000
0001
,
0100
0000
0020
0000
1030
0100
0010
0001
1000
0000
0100
0010
0001
0010
0100
1000
,
0001
0000
0100
0000
0110
0000
0010
0000
1000
0100
0010
0000
0110
0000
0010
0001
,
0100
0010
0100
0000
0110
0000
0010
1000
0100
0010
0100
1000
0010
0100
0010
1000
,
0100
0000
0010
0001
0200
0000
0001
0000
0320
0000
1030
0010
0100
0010
1000
0001
,
0010
0000
0100
1000
0001
1000
0100
0010
0001
1000
0010
0100
0001
1000
0001
0010
,
0100
0000
0010
0000
0110
0000
0010
0000
0001
0100
0010
0000
0110
0000
0010
1000
,
0100
0010
0100
0000
0110
0000
0010
0001
0100
0010
0100
0001
0010
0100
0010
0001
,
1000
0000
0100
0020
0001
0000
0230
0000
1000
0000
0310
0001
1000
0010
0100
0000
,
1000
0000
0100
0010
1000
0001
0010
0001
1000
0000
0010
0100
0001
1000
0100
0010
,
1000
0000
0020
0130
1000
0000
0020
0130
0001
1000
0100
1000
0001
0100
0010
0100
,
1000
0000
0000
0100
0000
0000
0010
0000
0000
0100
0000
0000
0001
0000
0000
0000
0000
0000
0010
0000
0000
0100
0000
0000
0001
0000
0000
0000
0000
0000
0100
0000
0000
0010
0000
0000
0001
0000
0000
0000
1000
0000
0000
0000
0010
0000
0000
0000
,
0001
0000
0010
0100
0001
0000
0010
0000
1000
0000
0010
0100
1000
0001
0100
0000
,
1000
0000
0100
0000
0001
1000
0100
0010
1000
0000
0010
0100
1000
0000
0001
1000
,
0001
0100
0001
0100
0010
1000
0010
1000
0001
0010
0001
0010
0100
1000
0100
1000
,
0001
0100
0010
1000
0100
0010
0001
0100
0010
1000
0100
0010
0001
0010
0100
1000
,
0020
0000
0000
0000
,
0030
0000
0000
0000
;
