#TITLE:Nídhögg;
#SUBTITLE:;
#ARTIST:溝口ゆうま feat. 大瀬良あい;
#TITLETRANSLIT:;
#SUBTITLETRANSLIT:;
#ARTISTTRANSLIT:;
#GENRE:;
#CREDIT:;
#BANNER:Banner.png;
#BACKGROUND:bg.png;
#LYRICSPATH:;
#CDTITLE:;
#MUSIC:Nidhogg.ogg;
#OFFSET:-0.604000;
#SAMPLESTART:74.144791;
#SAMPLELENGTH:12.743362;
#SELECTABLE:YES;
#BPMS:0.000000=113.000000
;
#STOPS:
;
#BGCHANGES:;
#KEYSOUNDS:;
#ATTACKS:;

//---------------dance-single - FSDS XO SS-----------------
#NOTES:
     dance-single:
     :
     Challenge:
     16:
     0.716819,0.768953,0.217248,0.602688,0.970608,716.000000,685.000000,31.000000,86.000000,31.000000,0.000000,0.716819,0.768953,0.217248,0.602688,0.970608,716.000000,685.000000,31.000000,86.000000,31.000000,0.000000:
// measure 0
0000
0000
0000
0000
,  // measure 1
0000
0000
0000
0000
,  // measure 2
0000
0000
0000
0000
,  // measure 3
0000
0000
0000
0000
0000
0000
0000
0000
1000
0100
0020
0001
0030
001M
1000
0010
,  // measure 4
0100
0000
0001
0000
1000
0010
0200
0001
0300
010M
1000
0100
0001
0100
1000
0000
,  // measure 5
0001
0100
0020
1000
0030
M010
0001
0010
0100
0000
1000
0000
0001
0010
0200
1000
,  // measure 6
0300
M100
0001
0100
1000
0100
0001
0000
1000
0100
0020
0001
0030
001M
1000
0010
,  // measure 7
0100
0000
0001
0000
1000
0010
0200
0001
0300
010M
1000
0100
0010
0001
0010
0002
,  // measure 8
M000
0000
0000
0000
0000
0000
0000
0000
0000
0000
M003
0000
1000
0010
0200
0001
,  // measure 9
0300
010M
1000
0001
0010
0100
1000
0001
1000
0100
0020
0001
0030
001M
1000
0002
,  // measure 10
0100
0000
1003
0000
0001
0010
0200
1000
0300
M100
0001
1000
0010
0100
0001
1000
,  // measure 11
0001
0100
0020
1000
0030
M010
0001
1000
0100
00M0
0100
0001
1000
0100
0020
0001
,  // measure 12
0030
001M
1000
0001
0100
0010
1000
0001
1000
0010
0200
0001
0300
010M
1000
0002
,  // measure 13
0010
0000
1003
0000
0001
0100
0020
1000
0030
M010
0001
1000
0100
0010
0001
1000
,  // measure 14
0010
0000
1000
0000
0001
0100
0001
0000
1000
0000
0100
0000
0010
0000
0001
0000
1000
0000
0000
0000
0000
0000
0000
0000
0002
0000
0000
0000
0203
0000
0000
0000
,  // measure 15
0320
2030
0000
3002
0023
0000
0000
0230
,  // measure 16
1300
0100
1000
0001
0100
0001
0200
0000
0000
2300
0000
0000
3200
0000
0000
0320
0000
0000
2030
0000
0000
3002
0000
0000
,  // measure 17
1003
0100
00M0
0100
0001
0000
0100
0000
0010
0000
1001
0000
1000
0100
1000
0100
,  // measure 18
1000
0000
0000
0000
0000
0000
0020
0000
0000
0000
0000
0000
0130
0000
0001
0000
0100
0000
0001
0000
0000
1000
0000
0000
0001
0000
0000
0010
0000
0000
0001
0000
0000
0010
0000
0000
0001
0000
0000
0000
0000
0000
0100
0000
0000
0000
0000
0000
,  // measure 19
0110
0000
0000
0000
0000
0000
1001
0000
0000
0000
0000
0000
0001
0000
0000
0000
0000
0000
1000
0000
0100
0000
1000
0000
0100
0000
0000
0010
0000
0000
0001
0000
0000
1000
0000
0000
0001
0000
0000
1000
0000
0000
0001
0000
0000
0000
0000
0000
,  // measure 20
0100
0010
1000
0001
0100
0100
1000
0010
1000
0001
0100
0100
1000
0100
0010
0001
,  // measure 21
0010
0010
1000
0001
1000
0100
0001
0001
0010
0000
0100
1000
0100
0000
0010
0000
,  // measure 22
0001
2000
0000
0000
3020
0000
0230
0000
0320
0000
0032
0000
0013
2000
0000
0000
,  // measure 23
3001
0000
1000
0100
1000
0000
0010
0000
0100
0000
0002
0000
1000
0000
0000
1000
,  // measure 24
0000
0000
0013
0000
0110
0000
1000
0001
1000
0100
00M0
0100
0001
0100
1000
0100
,  // measure 25
0010
1000
0010
1000
0001
0100
00M0
0100
1000
0100
0001
0100
0010
0001
0010
0001
,  // measure 26
1000
0100
00M0
0100
0001
0100
1000
0100
0010
1000
0001
1000
0100
0001
1000
0010
,  // measure 27
0001
0000
0000
1000
0000
0000
0020
0000
0000
0000
0000
0000
0000
0000
0000
0000
0000
0000
0000
0000
0000
0000
0000
0000
2030
0000
0000
0000
0000
0000
3001
0000
0010
0000
0001
0000
0010
0000
0000
0100
0000
0000
1000
0000
0001
0000
0100
0000
,  // measure 28
0001
0000
1000
0000
0010
0000
1000
0000
0010
0000
0100
0000
0002
0000
0000
0000
0000
0000
0000
0000
0000
1003
0000
0000
0100
0000
0000
0010
0000
0000
0002
0000
0000
0000
0000
0000
0000
0000
0000
0000
0000
0000
0003
0000
0000
0000
0000
0000
,  // measure 29
2001
0000
3100
0100
0001
0000
0100
0000
0010
0000
1000
0000
1002
0000
0103
0100
,  // measure 30
1000
0000
0100
0000
0010
0000
0001
0000
2001
0000
3010
0010
0001
0000
0010
0000
,  // measure 31
0100
0000
1000
0000
1002
0000
0013
0010
1000
0000
0010
0100
0001
1000
0100
0010
,  // measure 32
0002
0000
0103
0100
1000
0000
1100
0000
0011
0000
2001
0000
3100
0100
0001
0000
,  // measure 33
0101
0000
0000
0000
0000
0000
1010
0000
0000
0000
0000
0000
1002
0000
0000
0000
0000
0000
0000
0000
0000
0000
0000
0000
1003
0000
0000
0100
0000
0000
0010
0000
0000
0000
0000
0000
0001
0000
0100
0000
0001
0000
0100
0000
0000
0010
0000
0000
,  // measure 34
1000
0001
0000
0001
1000
0000
1001
0000
0000
0000
0002
0000
0023
0000
0000
0130
,  // measure 35
1000
0000
1100
0000
0001
0000
0100
0000
0101
0000
1000
0010
0100
0001
1000
0000
,  // measure 36
0100
0010
0210
0001
0310
0120
0001
0130
,  // measure 37
2000
0000
3001
0100
0001
0000
0020
0000
0000
0000
0030
0000
1002
0000
0103
0100
,  // measure 38
1000
0000
0100
0000
0010
0000
0001
0000
1000
0001
0100
0100
1000
0000
0100
0000
,  // measure 39
0010
0001
0100
0001
1000
0000
0010
0100
0001
0000
0020
0000
0000
0000
0230
0000
,  // measure 40
0301
0100
0010
0100
1000
0100
0010
0001
0010
0100
2000
0000
3020
0000
0000
0130
,  // measure 41
0001
0000
0101
0000
1000
0000
0100
0000
1100
0000
0001
0010
0100
1000
0001
0000
,  // measure 42
0100
0000
0010
0000
0210
0000
1000
0000
0000
0310
2000
0000
3002
0000
0023
0000
,  // measure 43
0130
1000
0100
0010
0001
1000
0010
0000
1000
0001
1000
0001
2000
0000
3100
0100
,  // measure 44
0001
0000
0100
0000
0010
0000
1000
0000
0001
1000
0100
0100
0001
0000
0100
0000
,  // measure 45
0010
0000
0000
0000
0000
0000
1000
0000
0000
0000
0000
0000
1001
0000
0000
0000
0000
0000
0001
0000
0010
0000
0001
0000
0010
0000
0000
0100
0000
0000
1000
0000
0000
0001
0000
0000
0100
0000
0000
0010
0000
0000
1000
0000
0000
0000
0000
0000
,  // measure 46
0100
0010
0001
1000
0100
0100
0001
0010
0001
1000
0100
0100
0001
0100
0010
1000
,  // measure 47
0010
0010
0001
1000
0001
0100
1000
1000
0010
0100
0000
0100
0001
0000
0101
0000
,  // measure 48
1000
0000
0000
0000
0000
0000
1100
0000
0000
0000
0000
0000
0001
0000
0000
0010
0000
0000
0000
0000
0000
0010
0000
0000
0100
0000
0000
0000
0000
0000
1000
0000
0000
0000
0000
0000
0010
0000
1000
0000
0010
0000
1000
0000
0000
0001
0000
0000
,  // measure 49
0010
0100
0000
0100
1000
0000
1100
0000
0001
0000
0101
0000
1000
0010
0000
0010
,  // measure 50
0100
0000
0101
0000
1000
0100
1000
0100
0020
0000
0000
0000
0000
0000
0000
0000
,  // measure 51
0031
0000
1000
0010
0200
0000
0000
0000
0000
0000
0000
0000
0301
0000
1000
0100
,  // measure 52
0020
0000
0000
0000
0000
0000
0000
0000
0000
0000
0000
0000
0031
1000
0000
1000
,  // measure 53
0100
0000
0000
0000
0010
0000
0001
0000
1000
0000
0001
0100
0001
0000
1000
0100
1000
0000
0100
0000
00M0
0000
0100
0000
0001
0000
0000
0000
0010
0000
0100
0000
,  // measure 54
1000
0000
1001
0000
0001
0100
0010
1000
0001
0000
0010
0000
0220
0000
0330
0000
,  // measure 55
1000
0100
00M0
0100
0001
0000
0200
0000
0320
0000
2030
0000
3001
1000
0100
0000
,  // measure 56
0010
0000
0001
0000
0001
0000
0001
1000
0M20
0000
2030
0000
3200
0000
0320
0000
,  // measure 57
0000
0031
1000
0001
2000
0000
0000
0000
0000
0000
0000
0000
0000
0000
0000
0000
,  // measure 58
00M2
0000
0000
0000
0000
0000
0000
0000
0000
0000
3003
0000
1000
0010
0200
0001
,  // measure 59
0300
010M
1000
0010
1000
0001
0100
0000
0001
0010
0200
1000
0300
M100
0001
0100
,  // measure 60
1000
0100
0010
1000
0001
0010
0200
1000
0300
M100
0001
0010
0001
1000
0100
0000
,  // measure 61
1000
0010
0200
0001
0300
010M
1000
0100
0001
0100
0010
0001
1000
0100
0020
0001
,  // measure 62
0030
001M
1000
0001
1000
0100
0010
0001
1000
0010
0200
0001
0300
010M
1000
0001
,  // measure 63
0100
0100
1000
0000
0001
0100
0020
1000
0030
M010
0001
1000
0001
0100
0010
1000
,  // measure 64
0001
0000
0000
0010
0000
0000
0100
0000
1000
0000
0100
0000
1000
0000
0000
0001
0000
0000
0100
0000
0000
0010
0000
0000
1000
0000
0000
0001
0000
0000
1000
0000
0000
0001
0000
0000
0200
0000
0000
0000
0000
0000
0000
0000
0000
0000
0000
0000
,  // measure 65
0000
0000
0000
0000
,  // measure 66
0000
0000
0300
0000
;

//---------------dance-single - ----------------
#NOTES:
     dance-single:
     :
     Hard:
     13:
     0.559639,0.629143,0.147168,0.294336,0.546624,559.000000,538.000000,21.000000,42.000000,4.000000,0.000000,0.559639,0.629143,0.147168,0.294336,0.546624,559.000000,538.000000,21.000000,42.000000,4.000000,0.000000:
// measure 0
0000
0000
0000
0000
,  // measure 1
0000
0000
0000
0000
,  // measure 2
0000
0000
0000
0000
,  // measure 3
0000
0000
0000
0000
0000
0000
0000
0000
1000
0000
0001
0010
0000
0001
0100
0010
,  // measure 4
1000
0000
0001
0000
1000
0000
0100
0001
0000
0100
1000
0100
0010
0001
1000
0000
,  // measure 5
0001
0000
1000
0010
0000
1000
0100
0010
0001
0000
1000
0000
0001
0000
0100
1000
,  // measure 6
0000
0100
0001
0100
0010
1000
0001
0000
1000
0100
0010
0001
0000
0100
0001
1000
,  // measure 7
0010
0000
0100
0000
0001
1000
0001
0010
0000
0100
1000
0001
1000
0001
1000
0001
,  // measure 8
00M0
0000
0000
0000
0000
0000
0000
0000
0000
0000
00M0
0000
1000
0000
0100
0010
,  // measure 9
0000
0001
0100
0001
1000
0000
0010
0000
1000
0000
0100
0001
0000
0100
0010
0001
,  // measure 10
0010
0100
1000
0000
0001
0000
0100
0010
0000
1000
0100
1000
0001
0000
0010
0000
,  // measure 11
0001
0000
0100
1000
0000
0100
0010
1000
0010
0100
0001
0000
1000
0100
0010
0001
,  // measure 12
0000
1000
0010
0100
0001
0000
1000
0000
0001
0010
0100
1000
0000
0001
0100
0010
,  // measure 13
1000
0000
0001
0000
1000
0100
1000
0010
0000
0100
0001
0010
0001
0000
1000
0000
,  // measure 14
0010
0100
0001
1000
0001
1000
0100
0010
0001
0000
0000
0000
2000
0000
3200
0000
,  // measure 15
0320
0032
0003
0200
0320
0030
0000
2002
,  // measure 16
0000
3003
2000
3200
0302
0203
0320
0032
,  // measure 17
2003
0000
3000
0000
0000
0010
0200
0000
0000
0000
0000
0000
0301
0000
1000
0100
,  // measure 18
1000
0000
0010
0000
0100
0000
0001
0000
1000
0000
0001
0010
0001
0000
0100
0000
,  // measure 19
0010
0000
1000
0000
0001
0000
0010
0100
0010
0000
0002
0000
0000
0000
1003
0000
,  // measure 20
0010
1000
0000
0001
0010
0000
0100
1000
0000
0001
0100
0001
1000
0100
0000
0010
,  // measure 21
0001
0000
1000
0010
0100
0001
0100
0001
1000
0000
0100
0000
0010
0000
0001
0000
,  // measure 22
0200
0000
0301
0100
1000
0100
0020
0000
,  // measure 23
1030
0100
0010
0100
1000
0001
0200
0000
,  // measure 24
0000
0000
0310
0000
1000
0000
0001
0000
0010
1000
0000
0010
0001
0000
0100
0000
,  // measure 25
0010
0000
1000
0000
0010
0001
0000
0010
1000
0000
0001
0000
0010
0000
0100
0000
,  // measure 26
0001
0100
0000
1000
0100
0000
0010
0000
0001
0000
0100
0000
1000
0000
0100
0000
,  // measure 27
0001
0000
2000
0000
0000
0000
0000
0000
3001
0000
0010
0100
1000
0000
1100
0000
,  // measure 28
0000
0001
0100
0000
0101
0000
0000
0000
1000
0001
0020
0000
0000
0000
0000
0000
,  // measure 29
0130
0000
1000
0001
1000
0000
0010
0000
0100
0000
0001
0000
0010
0000
0001
1000
,  // measure 30
0001
0000
0010
0000
0100
0000
1000
0000
0010
0000
1000
0001
1000
0000
0010
0000
,  // measure 31
0100
0000
0001
0000
0010
0000
0001
1000
0001
0000
0100
0010
1000
0010
1000
0000
,  // measure 32
0001
0000
0010
0100
1000
0000
0001
0000
0100
0000
0110
0000
0010
0100
0001
0000
,  // measure 33
1000
0000
0100
0000
0120
0000
0000
0000
0031
1000
0001
0000
0100
0000
1000
0000
,  // measure 34
0100
0001
0000
0100
0001
0000
1001
0000
0000
0000
1000
0000
0200
0000
0000
0310
,  // measure 35
0001
1000
0010
0100
0102
0000
0000
1003
,  // measure 36
0100
0010
0011
1000
0010
1010
0001
0100
,  // measure 37
0101
0000
1000
0000
0100
0000
2100
0000
0000
0000
0000
0000
3100
0000
0010
0001
,  // measure 38
0010
0000
0100
0000
1000
0000
0001
0000
0100
0000
0010
1000
0010
0000
0100
0000
,  // measure 39
0001
0000
1000
0000
0100
0000
0010
0001
0010
0000
0200
0000
0000
0000
1300
0000
,  // measure 40
1001
0000
0001
0100
0001
0000
1000
0100
1000
0000
0001
0000
0200
0000
0000
0310
,  // measure 41
1000
0001
0010
0100
2100
0000
0000
3001
,  // measure 42
0100
0010
1010
0001
0010
0011
1000
0100
,  // measure 43
1100
0000
0001
0000
0100
0000
0102
0000
0000
0000
0000
0000
0103
0000
0010
1000
,  // measure 44
0010
0000
0100
0000
0001
0000
1000
0000
0100
0000
0010
0001
0010
0000
0100
0000
,  // measure 45
1000
0001
0100
1000
0001
0010
1000
0001
,  // measure 46
0010
0100
0000
1000
0100
0000
0010
0001
0000
1000
0010
0100
0010
1000
0000
0001
,  // measure 47
0010
0000
0001
0100
0010
1000
0010
2000
0001
0000
0000
3001
0000
0000
1100
0000
,  // measure 48
0100
0000
0010
0000
0021
0000
0000
0031
0000
0000
1000
0100
0010
0000
0002
0000
,  // measure 49
1000
0000
0000
1003
0000
0000
0101
0000
0100
0000
0010
0000
1020
0000
0000
1030
,  // measure 50
0000
0000
0001
0000
0010
0100
1000
0100
2000
0000
0000
0000
0000
0000
0000
0000
,  // measure 51
3001
0100
0020
0000
0000
0000
1030
0100
,  // measure 52
0020
0000
0000
0000
0000
0000
0000
0000
0000
0000
0000
0000
0031
0000
0000
1000
,  // measure 53
0000
0000
0010
0000
0100
0000
0001
1000
0001
0010
0000
0100
1000
0000
0100
0010
,  // measure 54
0001
0000
1000
0000
0001
0100
0001
0100
0001
0000
0010
0000
0200
0000
0000
0000
,  // measure 55
1300
0010
0000
0100
0001
0000
0100
0000
0010
0000
1000
0000
0100
0000
0001
0000
,  // measure 56
0100
2000
0000
0000
30M1
0100
0010
2000
,  // measure 57
0000
0001
0002
0000
0000
0000
0000
0000
,  // measure 58
30M3
0000
0000
0000
0000
0000
0000
0000
0000
0000
0000
0000
1000
0000
0001
0010
,  // measure 59
0000
0001
0100
0010
1000
0000
0001
0000
1000
0000
0100
0001
0000
0100
1000
0100
,  // measure 60
0010
0001
1000
0000
0001
0000
1000
0010
0000
1000
0100
0010
0001
0000
1000
0000
,  // measure 61
0001
0000
0100
1000
0000
0100
0001
0100
0010
1000
0001
1000
0001
0010
0100
1000
,  // measure 62
0000
0001
0010
0100
1000
0000
0001
0000
1000
0010
0100
0001
0000
1000
0010
0100
,  // measure 63
0001
0000
1000
0000
0100
0010
0001
0010
0000
0100
1000
0100
0010
0000
0001
0000
,  // measure 64
0100
0010
1000
0010
0000
0100
0001
0100
0010
1000
0001
1000
0002
0000
0000
0000
,  // measure 65
0000
0000
0000
0000
,  // measure 66
0000
0000
0003
0000
;
