#VERSION:0.83;
#TITLE:私のヒトミ;
#SUBTITLE:;
#ARTIST:nmk feat.橘花音;
#TITLETRANSLIT:My Hitomi;
#SUBTITLETRANSLIT:;
#ARTISTTRANSLIT:;
#GENRE:;
#ORIGIN:;
#CREDIT:;
#BANNER:My Hitomi-banner.png;
#BACKGROUND:My Hitomi-background.png;
#PREVIEWVID:;
#JACKET:My Hitomi-jacket.png;
#CDIMAGE:;
#DISCIMAGE:;
#LYRICSPATH:;
#CDTITLE:scr-cdtitle.png;
#MUSIC:My Hitomi.ogg;
#OFFSET:0.000000;
#SAMPLESTART:40.011703;
#SAMPLELENGTH:12.000000;
#SELECTABLE:YES;
#BPMS:0.000=150.000;
#STOPS:;
#DELAYS:;
#WARPS:;
#TIMESIGNATURES:0.000=4=4;
#TICKCOUNTS:0.000=4;
#COMBOS:0.000=1;
#SPEEDS:0.000=1.000=0.000=0,
232.000=2.000=3.000=0;
#SCROLLS:0.000=1.000,
232.000=0.500;
#FAKES:;
#LABELS:0.000=Song Start;
#LASTSECONDHINT:111.199997;
#BGCHANGES:0.000=My Hitomi-bga.mp4=1.000=0=0=0=StretchNoLoop====,
276.000=My Hitomi-background.png=1.000=1=0=1===CrossFade==,
99999=-nosongbg-=1.000=0=0=0 // don't automatically add -songbackground-
;
#KEYSOUNDS:;
#ATTACKS:
;

//---------------dance-single - XO+, SJ-----------------
#NOTEDATA:;
#CHARTNAME:hey, your shoe's untied;
#STEPSTYPE:dance-single;
#DESCRIPTION:XO+, SJ-;
#CHARTSTYLE:;
#DIFFICULTY:Hard;
#METER:13;
#CREDIT:Scrypts;
#NOTES:
0000
0000
0000
0000
,
0000
0000
0000
0000
,
0000
0000
0000
0000
,
0000
0000
0000
0000
,
0000
0000
0000
0000
,
1000
0000
0010
0000
0100
0001
1000
0001
,
0000
0000
0010
0000
0001
0000
1000
0000
0010
0000
1000
0000
0001
0100
0001
0100
,
0010
0000
1000
0000
0100
0010
0001
1000
,
0000
0000
0000
0000
0000
0000
0010
0100
0010
0000
1000
0000
0001
0000
1000
0200
,
0000
0000
0000
0000
0000
1300
1001
0000
,
0001
0010
1000
0010
0100
1000
0000
1001
,
0000
0000
0001
0000
0100
0000
0010
0000
1000
0000
0100
0000
1000
0000
0001
1000
,
0001
0010
0000
0010
0100
0000
0100
1000
0000
1000
0001
0000
1000
0100
1000
0100
,
0010
0000
0000
0001
1001
0000
1010
0000
,
1000
0100
0001
0100
0010
0001
0000
1001
,
0000
0000
1000
0000
0010
0000
0100
0000
0001
0000
1000
0100
1000
0000
0001
1000
,
0001
0100
0000
0100
0010
0000
0010
1000
0000
1000
0001
0000
0010
0100
0010
0100
,
1000
0000
0000
0000
0000
0000
0001
0000
1000
0000
0010
0000
0100
0000
0001
1000
,
0001
0010
0100
1000
0100
0010
0001
1000
,
0010
0000
0100
0000
0010
0000
1000
0000
0001
0000
0010
0000
0100
0000
1000
0001
,
1000
0010
0100
0001
2000
0000
3200
0000
,
1300
0001
0100
0001
0020
0000
0230
1300
,
0001
0100
0010
1000
0001
0100
1000
0100
,
0020
0000
0000
0000
2030
0000
3100
0020
0000
0000
0031
0000
1000
0000
0001
0000
,
0100
0000
0010
1000
0000
0000
0001
0000
0010
0100
0010
0000
0001
1000
0001
0000
,
0200
0000
0000
0000
0310
0000
1000
0000
0001
0000
0001
0000
1000
0100
1000
0100
,
2000
0000
0000
0000
3010
0000
0200
0000
0000
0000
0301
0000
1000
0001
1000
0000
,
0200
0000
0000
0320
0000
0000
0032
0000
1003
0000
0010
0100
0000
0000
0001
1000
,
0001
0010
1000
0010
0001
0100
1000
0100
,
0010
0000
1000
0000
0100
0000
0001
0000
0100
1000
0000
1000
0001
0000
0001
0100
,
0010
0000
1000
0000
0010
0000
0100
0000
0001
0000
1000
0100
0000
0000
0010
0000
,
0001
0000
1000
0000
0010
0000
0100
0001
1000
0000
0100
0010
0000
0000
0001
1000
,
0001
0000
0100
0000
0010
0000
1000
0000
0001
0010
0001
0000
1000
0010
1000
0010
,
1000
0000
0000
0001
0000
0000
1000
0000
1001
0000
0000
0000
0001
0000
1000
0000
,
0020
0000
0230
0000
0301
1000
0100
2000
,
0000
0000
3010
0000
0100
0000
0001
0000
1000
0000
0100
0010
0001
0000
0100
0010
,
2000
0000
3020
0000
0130
0001
1000
0100
,
0001
0000
0100
0000
1000
0000
0001
0100
0010
0000
0000
0010
1000
0000
0100
0010
,
0002
0000
0203
0000
0310
1000
0100
2000
,
0000
0000
3001
0000
0100
0000
0010
0000
0100
0000
0001
0000
1000
0100
1000
0000
,
0020
0000
0230
0000
0301
0010
0100
1000
,
0010
0000
0000
0000
1000
0000
0001
0000
1000
0100
0000
1000
0100
0000
1000
0001
,
1000
0100
0010
0001
1000
0010
0100
0001
,
0010
1000
0010
0001
0100
1000
0100
0001
,
2000
0000
0000
3200
0000
0000
0302
0000
0000
0203
0000
0000
1300
0000
0010
0000
,
0100
0000
0001
0000
0010
0000
0100
0000
0000
1000
0001
1000
0001
0000
0100
0000
,
0010
0001
0010
0100
0001
1000
0100
0001
,
0100
1000
0010
0001
0010
1000
0100
0001
,
1000
0010
0100
1000
0001
0100
1000
0100
,
0010
0000
0000
1000
0000
0000
0001
0000
1001
0000
0000
0000
1000
0000
0100
0010
,
0002
0000
2003
0000
3010
1000
0001
1000
,
0000
0000
0100
0000
0010
0000
0001
0000
1000
0000
0001
0000
0101
0000
0100
0010
,
2000
0000
3200
0000
0310
0001
1000
0001
,
0100
0000
1000
0000
0100
0000
0001
0000
1001
0000
0000
0000
1000
0000
0010
0100
,
0002
0000
0023
0000
0130
1000
0001
0200
,
0000
0000
0310
0000
1000
0000
0001
0000
0010
0000
0100
1000
0001
0000
0100
0001
,
0020
0000
0230
0000
1300
0010
0100
0001
,
0011
0000
0010
0000
0000
0000
0100
1000
0100
1000
0000
1000
0001
0000
0001
2000
,
0000
0000
0000
0000
0000
3001
1001
0000
,
1000
0010
0001
0010
0100
0001
0000
1001
,
0000
0000
1000
0000
0100
0000
0010
0000
0001
0000
0100
0000
0001
0000
1000
0001
,
1000
0010
0000
0010
0100
0000
0100
0001
0000
0001
1000
0000
0001
0100
0001
0100
,
0010
0000
0000
1000
1001
0000
0011
0000
,
0001
0100
1000
0100
0010
1000
0000
1001
,
0000
0000
0001
0000
0010
0000
0100
0000
1000
0000
0001
0100
0001
0000
1000
0001
,
1000
0100
0000
0100
0010
0000
0010
0001
0000
0001
1000
0000
0010
0100
0010
0100
,
0001
0000
0000
0000
0000
0000
1000
0000
0001
0000
0010
0000
0100
0000
1000
0001
,
2000
0000
0000
0000
,
3000
0000
0000
0000
;

//---------------dance-single - BU, DS, FS, XO-----------------
#NOTEDATA:;
#CHARTNAME:what if people kissed;
#STEPSTYPE:dance-single;
#DESCRIPTION:BU, DS, FS, XO-;
#CHARTSTYLE:;
#DIFFICULTY:Challenge;
#METER:16;
#CREDIT:Scrypts;
#NOTES:
// measure 0
0000
0000
0000
0000
,  // measure 1
0000
0000
0000
0000
,  // measure 2
0000
0000
0000
0000
,  // measure 3
0000
0000
0000
0000
,  // measure 4
0000
0000
0000
0000
,  // measure 5
1000
0000
0010
0000
0100
0001
1000
0001
,  // measure 6
0000
0000
0010
0000
0001
0000
1000
0000
0100
0000
1000
0001
1000
0010
0100
0001
,  // measure 7
0010
0000
0100
0000
1000
0010
1000
0002
,  // measure 8
0000
0000
0000
0000
0000
0000
0013
0100
0010
0000
0001
0000
1000
0000
0010
0200
,  // measure 9
0000
0000
0000
0000
0000
0000
0000
0000
0000
0000
0000
0000
0000
0000
0000
0301
1000
0001
1000
0000
0000
0000
0000
0000
,  // measure 10
0010
0100
0001
0100
0010
0000
2000
0000
3100
0000
0100
0000
0010
0000
0001
0000
,  // measure 11
1000
0000
0100
0000
1000
0000
0010
0000
0100
0000
0001
1000
0100
1000
0001
0100
,  // measure 12
0001
0000
0000
0000
0020
0030
0000
0000
0000
0000
0000
0000
0020
0030
0000
0000
1000
0000
0000
0000
0000
0000
0000
0000
1000
0000
0000
0000
0200
0300
0000
0000
0000
0000
0000
0000
0200
0300
0000
0000
0001
0000
0000
0000
0000
0000
0000
0000
1000
0000
0000
0000
0010
0000
0000
0000
0100
0000
0000
0000
0001
0000
0000
0000
,  // measure 13
0020
0000
0000
0000
0000
0000
0000
0000
0000
0000
0000
0000
0130
0000
0000
0000
0000
0000
1000
0000
0001
0000
1000
0000
0001
0000
0000
0100
0000
0000
0000
0000
0000
0100
0000
0000
0010
0000
0000
0000
0000
0000
1000
0000
0000
0001
0000
0000
,  // measure 14
1000
0100
0010
0100
1000
0000
0020
0000
0130
0000
0100
0000
0010
0000
1000
0000
,  // measure 15
0001
0000
0010
0000
0100
0000
1000
0000
0100
0000
0010
0001
1000
0010
1000
0001
,  // measure 16
1000
0000
0000
0000
0200
0300
0000
0000
0000
0000
0000
0000
0200
0300
0000
0000
0001
0000
0000
0000
0000
0000
0000
0000
0001
0000
0000
0000
0020
0030
0000
0000
0000
0000
0000
0000
0020
0030
0000
0000
1000
0000
0000
0000
0000
0000
0000
0000
0001
0000
0000
0000
0010
0000
0000
0000
0100
0000
0000
0000
1000
0000
0000
0000
,  // measure 17
0020
0000
0000
0000
0030
0000
0100
0001
1000
0100
1000
0100
0010
0000
0010
0001
,  // measure 18
1000
0000
0010
0000
0100
0000
0010
0000
1000
0000
0001
0010
0001
0000
1000
0000
,  // measure 19
0010
0000
0000
0000
0000
0000
0000
0000
0100
0000
0000
0000
0000
0000
0000
0000
0001
0000
0000
0000
0000
0000
0000
0000
1000
0000
0000
0000
0000
0000
0000
0000
0100
0000
0000
0000
0000
0000
0000
0000
0010
0000
0000
0000
0000
0000
0000
0000
0001
0000
0000
0000
0000
0000
0000
0000
2000
3000
0000
0000
0020
0030
0000
0000
,  // measure 20
0200
0300
0000
0000
0000
0000
0000
0000
0001
0000
0000
0000
0000
0000
0000
0000
0100
0000
0000
0000
0000
0000
0000
0000
0020
0030
0000
0000
0000
0000
0000
0000
2000
3000
0000
0000
0000
0000
0000
0000
0100
0000
0000
0000
0000
0000
0000
0000
0020
0030
0000
0000
0000
0000
0000
0000
0001
0000
0000
0000
0000
0000
0000
0000
,  // measure 21
1000
0001
0100
0010
2000
0010
3002
0010
,  // measure 22
1003
0000
0010
0100
0010
0000
1000
0000
0001
0000
1000
0000
0100
0000
0001
0000
,  // measure 23
0100
0000
0010
0000
0001
0000
1000
0010
1000
0000
0001
0000
0010
0000
0100
1000
,  // measure 24
0001
0100
0010
0200
0000
0000
0301
0000
1000
0100
1000
0000
0001
0100
0001
1000
,  // measure 25
0001
0000
0010
0000
0100
0000
1000
0000
1000
0000
1000
0000
0001
0100
0001
0100
,  // measure 26
0002
0000
0000
0000
0023
0000
0230
0000
0000
0000
1300
0010
1000
0001
1000
0000
,  // measure 27
0200
0000
0000
0320
0000
0000
0031
1000
0001
0000
0010
0000
0100
0000
1000
0001
,  // measure 28
1000
0010
1000
0010
0100
0001
0100
0001
1000
0100
1000
0100
0010
0001
0010
0001
,  // measure 29
1000
0010
1000
0000
0001
0010
0001
0100
0010
1000
0000
0010
1000
0000
0001
0010
,  // measure 30
0100
0000
1000
0000
0001
0000
0100
0000
0001
0000
1000
0100
1000
0001
1000
0000
,  // measure 31
0010
0000
0100
0000
0010
0000
1000
0001
0010
0100
0010
0001
1000
0010
1000
0000
,  // measure 32
0001
0000
0000
0000
1001
0000
2000
0000
3100
0010
0000
0001
0100
0010
1000
0001
,  // measure 33
0010
0000
0000
0110
0000
0000
1100
0000
1001
0000
0002
0000
0103
0010
1000
0001
,  // measure 34
0010
0000
0100
0000
1000
0000
0010
0100
0001
0100
0010
1000
0001
0000
0010
0000
,  // measure 35
0100
0000
1000
0000
0010
0000
1000
0000
0100
0000
0010
0001
1000
0010
1000
0001
,  // measure 36
0010
0100
1000
0100
0010
0000
0001
1000
0001
0000
0010
0000
0100
0000
1000
0001
,  // measure 37
1000
0000
0010
0000
0001
0000
0010
0100
0001
0000
0000
0001
0100
0001
1000
0100
,  // measure 38
0010
0000
0001
0000
0100
0000
0010
1000
0001
0100
0010
0100
0001
0000
1000
0010
,  // measure 39
1000
0000
0001
0000
0010
0000
0100
0000
1000
0000
0010
1000
0001
0100
0001
1000
,  // measure 40
0100
0010
0001
1000
0010
0000
0100
0001
2000
0000
0100
0000
3002
0000
0100
0000
,  // measure 41
1003
0000
0100
0000
0010
0000
0100
1000
0100
1000
0000
1000
0001
0000
0100
0010
,  // measure 42
1000
0100
1000
0000
0001
0100
0001
0000
1000
0010
1000
0000
0001
0010
0001
0000
,  // measure 43
1000
0100
0010
0100
1000
0000
0001
1000
0001
0100
0010
0100
0001
0000
1000
0010
,  // measure 44
1000
0000
0000
0000
0000
0000
0000
0000
0001
0000
0000
0000
0200
0300
0000
0000
0000
0000
0000
0000
0200
0300
0000
0000
1000
0000
0000
0000
0000
0000
0000
0000
1000
0000
0000
0000
0020
0030
0000
0000
0000
0000
0000
0000
0020
0030
0000
0000
0001
0000
0000
0000
1000
0000
0000
0000
0010
0000
0000
0000
0100
0000
0000
0000
,  // measure 45
0001
0000
0000
0000
1000
0000
0000
0000
0100
0000
0000
0000
1000
0000
0000
0000
0001
0000
0000
0000
0100
0000
0000
0000
0010
0000
0000
0000
1000
0000
0000
0000
0000
0000
0000
0000
0001
0000
0000
0000
0020
0030
0000
0000
0020
0030
0000
0000
1000
0000
0000
0000
0000
0000
0000
0000
0100
0000
0000
0000
0010
0000
0000
0000
,  // measure 46
0001
1000
0001
0000
1000
0010
1000
0000
0001
0010
0001
0000
1000
0100
1000
0000
,  // measure 47
0001
0010
0100
0010
0001
0000
1000
0001
1000
0010
0100
0010
1000
0100
0010
0000
,  // measure 48
0001
0100
0001
0000
1000
0100
1000
0000
0001
0100
0010
1000
0001
0010
0100
1000
,  // measure 49
0010
0000
0000
1010
0000
0000
0110
0000
0101
0000
0000
0000
0001
0010
0100
1000
,  // measure 50
0020
0000
0230
0000
0301
1000
0100
2000
,  // measure 51
0000
0000
0000
0000
0000
0000
3010
0000
0000
0000
0000
0000
0100
0000
0000
0000
0000
0000
0001
0000
1000
0000
0001
0000
1000
0000
0000
0000
0000
0000
0100
0000
0000
0010
0000
0000
0001
0000
0000
0010
0000
0000
0100
0000
0000
1000
0000
0000
,  // measure 52
0001
0000
0100
0010
1000
0000
1000
0100
0010
0000
0001
1000
0010
0000
0010
0100
,  // measure 53
0001
0000
0100
0000
1000
0000
0100
0010
1000
0000
0000
1000
0001
0010
0100
1000
,  // measure 54
0010
0000
0100
0000
0001
0000
1000
0100
0010
0100
1000
0001
0100
0000
0100
0000
,  // measure 55
0010
0000
1000
0000
0001
0000
0010
0000
0100
0000
1000
0001
1000
0010
0100
0001
,  // measure 56
0010
0100
1000
0100
0010
0000
0001
1000
0002
0000
0010
0000
2003
0000
0010
0000
,  // measure 57
3001
0000
1000
0000
0100
0000
1000
0010
1000
0010
0000
0010
0100
0000
0100
0002
,  // measure 58
1000
0000
0000
0000
0000
0000
0000
0000
0000
0000
0000
0000
0000
0000
0000
1003
0001
1000
0001
0000
0000
0000
0000
0000
,  // measure 59
0010
0100
1000
0100
0010
0000
0002
0000
0103
0000
0100
0000
0010
0000
1000
0000
,  // measure 60
0001
0000
0100
0000
0001
0000
0010
0000
0100
0000
1000
0001
0100
0001
1000
0100
,  // measure 61
1000
0000
0000
0000
0020
0030
0000
0000
0000
0000
0000
0000
0020
0030
0000
0000
0001
0000
0000
0000
0000
0000
0000
0000
0001
0000
0000
0000
0200
0300
0000
0000
0000
0000
0000
0000
0200
0300
0000
0000
1000
0000
0000
0000
0000
0000
0000
0000
0001
0000
0000
0000
0010
0000
0000
0000
0100
0000
0000
0000
1000
0000
0000
0000
,  // measure 62
0020
0000
0000
0000
0000
0000
0000
0000
0000
0000
0000
0000
0130
0000
0000
0000
0000
0000
0001
0000
1000
0000
0001
0000
1000
0000
0000
0100
0000
0000
0000
0000
0000
0100
0000
0000
0010
0000
0000
0000
0000
0000
0001
0000
0000
1000
0000
0000
,  // measure 63
0001
0100
0010
0100
0001
0000
0020
0000
0130
0000
0100
0000
0010
0000
0001
0000
,  // measure 64
1000
0000
0010
0000
0100
0000
0001
0000
0100
0000
0010
1000
0001
0010
0001
1000
,  // measure 65
0001
0000
0000
0000
0200
0300
0000
0000
0000
0000
0000
0000
0200
0300
0000
0000
1000
0000
0000
0000
0000
0000
0000
0000
1000
0000
0000
0000
0020
0030
0000
0000
0000
0000
0000
0000
0020
0030
0000
0000
0001
0000
0000
0000
0000
0000
0000
0000
1000
0000
0000
0000
0010
0000
0000
0000
0100
0000
0000
0000
0001
0000
0000
0000
,  // measure 66
0020
0000
0000
0000
0030
0000
0200
0000
1300
0010
1000
0010
0100
0001
0100
0001
,  // measure 67
2000
0000
0000
0000
,  // measure 68
3000
0000
0000
0000
;
