#TITLE:むしみこうにゃーのハッピッピー;
#SUBTITLE:;
#ARTIST:ARM(IOSYS) feat. miko & 山本椛;
#TITLETRANSLIT:Mushi-Miko-Unya -Happy py-;
#SUBTITLETRANSLIT:;
#ARTISTTRANSLIT:ARM(IOSYS) feat. miko & Momiji Yamamoto;
#GENRE:;
#CREDIT:;
#MUSIC:Mushi-Miko-Unya -Happy py-.ogg;
#BANNER:Mushi-Miko-Unya -Happy py--bn.png;
#BACKGROUND:Mushi-Miko-Unya -Happy py--bg.png;
#JACKET:Mushi-Miko-Unya -Happy py--jacker.png;
#CDTITLE:;
#SAMPLESTART:79.466;
#SAMPLELENGTH:15.000;
#SELECTABLE:YES;
#OFFSET:-0.533;
#BPMS:0.000=225.000
,192.000=112.500
,244.000=225.000
,274.000=450.000
,276.000=225.000
;
#STOPS:274.000=0.133
,275.000=0.133
;
#DISPLAYBPM:112.500:225.000;
#BGCHANGES:;
#FGCHANGES:;

//--------------- dance-single - ----------------
#NOTES:
     dance-single:
     :
     Hard:
     13:
     0,0,0,0,0:
0000
0000
0000
0000
,
0000
0000
0000
0000
,
0110
0000
0000
0000
,
1001
0000
0000
0000
,
1000
1000
0010
0000
0100
0100
0001
0000
,
0012
0100
0013
0000
,
0110
0000
0000
0000
,
1001
0000
0000
0000
,
2000
3100
0002
0013
,
0100
0010
0100
1000
0001
0000
0000
0000
,
0101
0000
0000
0000
,
1010
0000
0000
0000
,
0010
1000
0100
1000
0010
0000
0100
0000
,
0110
1001
0110
0000
,
0001
0000
0000
0000
0010
0000
0000
0000
0001
0000
0000
0001
0000
0000
0001
0000
,
0000
0100
0010
0000
1000
0000
1100
0000
,
1000
0000
0000
0000
0010
0000
0000
0000
1000
0000
0000
1000
0000
0000
1000
0000
,
0000
0100
0010
0000
0001
0000
0100
0000
,
0110
0000
0000
0000
,
1001
0000
0000
0000
,
0110
0000
1001
0000
,
0110
0110
1001
0000
,
0000
0000
0000
0000
,
0000
0000
0000
0000
,
1000
0001
0100
0000
0001
1000
0100
0000
,
0010
0001
1000
0000
0010
1000
0001
0000
,
0100
0010
1000
0001
0010
0100
1000
0010
,
0200
0001
0010
0301
,
0010
0100
1000
0000
0010
0100
0001
0000
,
0010
0100
1000
0010
0100
0000
0000
0000
,
0101
1100
1010
0011
,
1010
0000
0000
0000
0000
0000
1000
1000
,
0100
1000
0010
0100
,
0001
0000
0010
0001
,
1000
0010
0100
0001
,
0010
0000
0000
0000
0100
0010
0100
0000
,
2000
0000
3020
0000
0130
0010
0000
0010
,
0000
0100
0010
0000
1010
0000
1100
0000
,
1000
0001
1000
0000
0010
0100
0000
0200
,
0000
0300
0001
0010
,
0001
0100
0010
1000
0100
0001
0100
1000
,
0010
0000
0100
0001
,
1000
0100
0010
0001
0100
1000
0100
0001
,
0010
0000
0100
0100
,
2100
3010
0102
0013
,
2100
3010
0102
0013
,
0100
0100
0010
0000
0001
0000
0100
0000
,
2020
0000
0000
0000
0000
3030
0000
0000
,
0000
0000
0000
0000
,
1000
0000
1000
0000
0010
0100
0010
0000
0100
0000
0001
0000
0011
0000
0000
0000
,
0001
0000
0001
0100
0010
0000
1000
0000
1100
0000
0110
0000
0011
0000
0000
0000
,
0200
0000
0000
0300
0100
0000
0100
0000
0010
0000
1000
0001
1000
0000
0000
0000
,
0100
0010
0100
0010
0100
0000
1000
0000
0101
0000
1100
0000
0101
0000
0001
0000
,
1000
0000
0010
0010
0100
0000
0010
0010
,
1000
0100
0010
0001
1000
0010
0100
0001
,
0010
0000
0010
0100
0020
0000
0032
0000
,
0103
0010
0100
0010
1000
0000
0100
0000
,
0110
0000
1001
0000
,
0110
0000
1001
0000
0011
1010
0011
0000
,
0100
0010
2000
0000
0100
0000
0001
0000
3010
0000
0101
0000
1010
0000
0000
0000
,
1000
0000
1000
0000
0100
0010
0000
0220
0000
0000
0000
0000
0330
0000
0000
0000
,
0001
0000
0100
0010
0100
0000
0101
0000
,
1000
0000
0100
0010
0100
0000
1100
0000
,
0010
0010
1000
1000
0010
0000
0100
0000
,
0012
0100
0013
0000
,
1000
0000
0010
0100
0010
0000
1010
0000
,
0001
0000
0010
0100
0010
0000
0011
0000
,
0100
1000
0010
0100
,
0001
1000
0001
0000
0110
0000
1001
0000
,
1000
0000
0100
0010
0100
0000
1100
0000
,
0001
0000
0100
0010
0100
0000
0101
0000
,
0001
0001
0010
0100
0100
1000
0010
0100
,
0110
1001
0110
0000
,
0001
0101
1000
1100
,
0001
0011
1000
1010
,
1001
0000
0110
0000
,
0101
0000
1100
0000
,
0220
0000
0000
0000
,
0000
0000
0000
0000
0000
0000
0000
0000
0000
0000
0000
0330
0000
0000
0000
0000
,
1000
0001
0100
0000
0001
1000
0100
0000
,
0010
0001
1000
0000
0010
1000
0001
0000
,
0100
0010
1000
0001
0010
0100
1000
0010
,
0100
0001
2000
0000
0100
0000
3001
0000
,
0010
0001
0100
0000
0010
1000
0100
0000
,
0010
0001
0100
0001
0010
0000
0000
0000
,
1100
0101
0011
1010
,
0220
0000
0000
0000
0000
0330
0000
0000
,
1001
0000
0000
0000
0000
0000
0000
0110
,
0000
0000
1001
0110
,
1010
0000
0000
0000
0000
0000
0000
0101
,
0000
0011
2002
0000
,
0000
0000
0000
0000
,
0000
0000
0000
0000
,
0000
0000
0000
0000
,
0000
0000
0000
0000
,
3003
0000
0000
0000
;

//--------------- dance-single - ----------------
#NOTES:
     dance-single:
     :
     Challenge:
     17:
     0,0,0,0,0:
0000
0000
0000
0000
,
0000
0000
0000
0000
,
1001
0000
0000
0000
,
0110
0000
0000
0000
,
1000
1000
0001
0001
0100
0100
0000
0100
,
0110
0101
0011
0000
,
1000
0000
0100
0100
0010
0000
0000
0000
,
0001
0000
0100
0100
0010
0000
0000
0000
,
2000
3100
0002
0103
,
1001
1000
0001
0010
0110
0000
0000
0000
,
0100
0010
0100
1000
0010
0000
0000
0000
,
0100
0010
0100
0001
0010
0000
0000
0000
,
0001
0001
1000
1000
0010
0010
0100
0100
,
0101
0011
1010
0000
,
0100
0000
1000
0000
0100
0000
1000
0000
0010
0000
0000
0010
0000
0000
0010
0000
,
0000
0000
0100
0001
0100
0000
0010
0000
1000
0000
0100
0000
0010
0000
0001
0000
,
0100
0000
0001
0000
0100
0000
0001
0000
0010
0000
0000
0010
0000
0000
0010
0000
,
0000
0000
0100
1000
0100
0000
0010
0000
0001
0000
0100
0000
0010
1000
0010
1000
,
1100
1000
0010
0100
,
0101
0001
0010
0100
,
1100
0010
1100
0010
,
1100
0011
0102
0000
,
0000
0000
0000
0000
,
0000
0000
0000
0000
0103
0001
0100
0001
,
1000
0000
0100
0010
0100
0000
1000
0000
0001
0000
0100
0010
0100
0000
0001
0000
,
1000
0000
0100
0010
0100
0000
1000
0000
0001
0000
0100
0010
0100
0000
0001
0000
,
0010
0001
0100
0010
1000
0100
0010
0001
,
0100
0010
0100
0010
1000
0001
1000
0001
0010
0001
0010
0001
1000
0100
1000
0100
,
1000
0000
0010
0100
0010
0000
1000
0000
0001
0000
0010
0100
0010
0000
0001
0000
,
0200
0320
2030
3002
0013
0000
0000
0001
,
0010
0000
0001
0100
0010
0000
1000
0100
0010
0000
0001
0100
0010
0000
0100
0001
,
0020
0032
0203
0320
1030
0000
1000
0100
,
0012
0100
1000
0103
,
1010
0000
0001
1000
,
2100
0010
0001
3010
,
0101
0000
0000
0000
0100
0001
0100
0001
,
0010
0000
0100
0010
0100
0100
0000
1000
,
0000
0010
1000
0100
1000
0000
0001
0000
,
0101
0100
0110
0010
1010
0011
0000
1002
,
0000
0000
0203
0320
,
0130
0000
0001
0010
0100
0000
1000
0010
0100
0000
0001
0010
0100
0000
1000
0010
,
0200
0000
0000
0300
0100
0000
0010
0000
,
1000
0000
0100
0010
0001
0000
0100
0010
1000
0000
0100
0010
0001
0000
0100
0010
,
2000
0000
0000
3000
1000
0000
0100
0000
,
0011
0001
0101
0000
1010
1000
1100
0000
,
0011
0010
0110
0100
1100
1000
1010
0000
,
0110
0100
0101
0001
0011
1010
0000
0101
,
0000
0000
0000
0000
,
0000
0000
0000
0000
,
0001
0000
1000
0000
0100
0010
0100
0000
0110
0000
1001
0000
0110
0000
0000
0000
,
1000
0010
0010
0000
0101
0000
1010
0000
0100
0010
0100
0010
0001
0000
0000
0000
,
0100
0000
0000
0000
0000
0000
0110
0000
0000
0000
0000
0000
0100
0000
0000
0000
0001
0000
0000
0000
1000
0000
0000
0000
0100
0000
0000
0000
0000
0000
0010
0000
0000
0010
0000
0000
0001
0000
0000
0001
0000
0000
0000
0000
0000
0000
0000
0000
,
0100
0010
0100
0010
1000
0000
0100
0000
0010
0010
0000
0100
0000
0000
1000
0001
,
1000
0000
0100
0010
0000
0010
0100
1000
0001
0000
0100
0010
0000
0010
0100
0000
,
0001
0010
0001
0010
0001
0100
0001
0100
0010
1000
0100
0010
0001
0000
0100
0000
,
0101
0100
0010
1000
1100
0000
1010
0000
,
0100
0000
0100
0000
0001
1000
0001
0000
0020
0000
0000
0000
0230
0000
0000
0000
,
1300
0100
1000
0010
0100
0010
0000
1000
1100
0000
0110
0000
0011
0000
0000
0000
,
0102
0013
2100
3010
0110
1001
1100
0000
,
0001
0100
0001
0010
0000
0100
0000
1000
1001
0000
0110
0000
1001
0000
0000
0000
,
1100
0000
0101
0000
1010
0101
0000
0022
0000
0000
0033
0000
0000
0000
0000
0000
,
0100
1000
0010
0100
0001
0010
0100
1000
,
0010
0100
1000
0100
0010
1000
0100
0010
,
0021
0100
0130
1020
0100
0130
0001
1000
,
1100
0101
1100
0000
,
0010
1000
0100
0010
0001
0100
0010
1000
,
0100
0010
0100
1000
0010
0000
0010
0100
,
0101
0000
0010
0100
1100
0000
0010
0100
,
0101
0001
0011
0010
0110
0000
1001
0000
,
0001
1000
0001
1000
0010
0000
0110
0000
,
1000
0001
1000
0001
0010
0000
0110
0000
,
1100
1000
1000
1010
0010
0010
0110
0100
,
0101
1100
0101
0000
,
0100
0001
0011
0000
0100
1000
1010
0000
,
0100
0001
0011
0000
0100
1000
1010
0000
,
2000
3100
0002
0103
,
1000
0010
1010
0000
0001
0010
0011
0000
,
0220
0000
0000
0000
,
0000
0000
0000
0330
,
1000
0000
0001
0010
0001
0000
0100
0000
0010
0000
1000
0100
1000
0000
0010
0000
,
0100
0000
0001
1000
0001
0000
0010
0000
0100
0000
1000
0001
1000
0000
0010
0100
,
0001
0000
0010
0100
1000
0000
0010
1000
0100
0000
0010
0001
0100
0000
0010
0100
,
0001
1000
0001
1000
0010
0100
0010
0100
0001
0010
0001
0010
0100
0000
1000
0000
,
0010
0000
0100
0001
0100
0000
0010
0000
1000
0000
0100
0010
0100
0000
1000
0010
,
0100
0000
0001
0010
0100
0000
1000
0010
0100
0000
0000
0000
0000
0000
0010
0000
,
1000
0100
1000
0100
0010
0001
0010
0001
0100
0001
0100
0001
0010
0001
0100
0010
,
1000
0000
0100
0010
0100
0000
1000
0000
1001
0000
0000
0000
0000
0000
0000
0000
,
0110
0000
0000
0000
1001
0110
0000
0110
,
0000
1001
0110
0000
1010
0000
0110
1001
,
0011
0000
1100
0011
0000
0110
0000
1001
,
0000
0110
1001
0000
2200
0000
0000
0000
,
0000
0000
0000
0000
,
0000
0000
0000
0000
,
0000
0000
0000
0000
,
0000
0000
0000
0000
,
3300
0000
0000
0000
;
