#TITLE:Murder On The Dancefloor;
#SUBTITLE:;
#ARTIST:Sophie Ellis-Bextor;
#TITLETRANSLIT:;
#SUBTITLETRANSLIT:;
#ARTISTTRANSLIT:;
#GENRE:;
#CREDIT:;
#MUSIC:Murder-on-the-Dancefloor-_Edit_.ogg;
#BANNER:murder-banner.png;
#BACKGROUND:murder-bg.png;
#CDTITLE:;
#SAMPLESTART:33.982;
#SAMPLELENGTH:18.401;
#SELECTABLE:YES;
#OFFSET:0.775;
#BPMS:0.000=117.386;
#STOPS:;
#BGCHANGES:;
#FGCHANGES:;

//--------------- dance-single - Evergreen ----------------
#NOTES:
     dance-single:
     Evergreen:
     Beginner:
     4:
     0,0,0,0,0:
0000
0000
0000
0000
,
1000
0010
1000
0000
,
0001
0010
0001
0000
,
1000
0100
1000
0000
,
0001
0100
0001
0000
,
1000
0010
0100
0000
,
0001
0010
0100
0000
,
1000
0001
1000
0001
,
1001
0000
0110
0000
,
0001
1000
0100
0000
,
1000
0001
0100
0000
,
0001
1000
0100
0010
,
0001
1000
0010
0000
,
1000
0001
0010
0000
,
0001
1000
0010
0000
,
1000
0001
1000
0001
,
1001
0000
0110
0000
,
0001
0001
1000
1000
,
1001
1000
0001
0010
,
0001
1000
0010
1000
,
0100
0010
0001
1000
,
0001
0100
0010
1000
,
1001
0001
0010
0001
,
1000
0010
2000
0010
,
0010
3010
1000
0001
,
1001
1000
0100
0010
,
0100
1000
0001
0001
,
1000
0000
0001
0000
,
1000
0010
0100
0001
,
1001
1000
0001
0100
,
0010
0100
0001
1000
,
1001
0000
0110
0000
,
1000
1000
0010
0010
,
1010
0000
0101
0000
,
0011
0000
1000
0100
,
1100
1000
0001
0100
,
0010
0100
0001
0100
,
0101
0000
1010
0000
,
1100
0000
0011
0000
,
1001
0000
0110
0000
,
0010
0010
1000
1000
,
0100
0010
0001
1000
,
0001
1000
0001
0001
,
1000
0001
1000
1000
,
0010
1000
0010
0010
,
0100
0001
1000
0100
,
0010
0100
0010
0010
,
0001
0100
0010
0010
,
1000
0001
1000
1000
,
0010
0100
0001
0100
,
0010
1000
0001
1000
,
1001
0001
1000
0010
,
1000
0001
0010
0001
,
0100
0010
1000
0001
,
1000
0100
0010
0001
,
1001
1000
0010
1000
,
0001
0010
0002
0010
,
0010
0013
0001
1000
,
1001
0000
0000
0000
;

//--------------- dance-single - Evergreen ----------------
#NOTES:
     dance-single:
     Evergreen:
     Easy:
     8:
     0,0,0,0,0:
0000
0000
0000
0000
,
1000
0000
0100
0000
0010
0000
0001
0010
,
0001
0000
1000
0000
0010
0000
1000
0010
,
1000
0000
0001
0000
0100
0000
0001
0100
,
0001
0000
1000
0000
0100
0000
1000
0100
,
1000
0000
0001
0000
1000
0000
0010
0100
,
0010
0000
1000
0000
0001
0000
1000
0100
,
1000
0001
1000
0001
,
2002
3003
0220
0330
,
0001
0010
0001
0000
1000
0000
0001
1000
,
0001
0000
1000
0000
0010
1000
0010
0000
,
0100
0010
0100
0001
,
1000
0000
0100
0000
0010
0001
0010
0000
,
0001
0000
1000
0010
1000
0000
0001
1000
,
0001
0000
0010
0000
0100
1000
0100
0000
,
0010
0001
1000
0001
,
2002
3003
0220
0330
,
1000
0000
0001
0010
0001
0000
1000
0000
,
1001
0000
0010
1000
0100
0000
1000
0000
,
0100
0000
0010
0001
0100
0000
0001
0000
,
0100
0000
0010
1000
0001
0000
1000
0000
,
0001
0000
0010
0001
1000
0000
0001
0000
,
1000
0100
0001
0100
,
1000
0010
0200
0001
,
0301
1000
0001
0000
1000
0001
1000
0000
,
1001
1000
0100
0010
,
0001
0010
0001
0000
1000
0010
1000
0000
,
0002
1000
1000
1000
,
2003
3002
2003
3200
,
1300
0000
0010
0000
0100
0000
0001
0100
,
0001
0000
1000
0100
1000
0000
0001
0010
,
0001
0000
0000
1000
0010
0000
0000
0100
,
0001
1000
0001
1000
0001
1000
0100
0000
,
1100
0000
1000
0100
1000
0000
0001
0100
,
0001
0000
1000
0010
1000
0000
0001
0000
,
0020
0100
0100
0130
,
2000
3002
0023
0230
,
1300
0100
1000
0000
0001
0010
0001
0000
,
0001
0100
0001
0000
1000
0010
1000
0000
,
0001
0000
0000
1000
0001
0000
0000
1000
,
0100
0010
0100
0010
0100
0010
0001
0000
,
0100
0010
1000
0100
,
0010
0000
0001
1000
0001
0000
1000
0000
,
0100
1000
0001
0100
,
0001
1000
0001
0000
1000
0000
0010
0000
,
0100
0010
0100
0010
0100
0000
0001
0000
,
0010
0001
0010
0000
0001
0000
1000
0000
,
0010
0000
0100
0000
0001
0000
1000
0001
,
1000
0010
1000
0001
,
1000
0000
0100
0010
0100
0000
1000
0100
,
1000
0000
0001
0100
0001
0000
1000
0000
,
1001
0000
0010
0001
0100
0000
0001
0000
,
0100
0000
0010
1000
0100
0000
1000
0000
,
0100
0000
0010
0001
1000
0000
0001
0000
,
1000
0000
0010
1000
0001
0000
1000
0000
,
0001
0100
1000
0100
,
0001
0010
0200
1000
,
1300
0000
0010
0000
1000
0001
1000
0000
,
2002
0000
0000
0000
,
3003
0000
0000
0000
;

//--------------- dance-single - Evergreen ----------------
#NOTES:
     dance-single:
     Evergreen:
     Medium:
     10:
     0,0,0,0,0:
0000
0000
0000
0000
,
1000
0000
0010
0000
1000
0100
1000
0000
,
0001
0000
0010
0000
0001
0100
0001
0000
,
1000
0000
0100
0000
0010
0001
0010
0000
,
0001
0000
0100
0000
0010
1000
0001
1000
,
0001
0000
1000
0000
0100
0010
0100
0000
,
1000
0000
0001
0000
0100
0010
0100
0000
,
0001
0000
1000
0000
0001
1000
0001
0000
,
1001
0000
1000
0000
0100
0010
0001
0010
,
0100
0000
0000
1000
0000
0000
0010
0000
0000
0100
0000
0000
0001
0000
0000
0010
,
0000
0100
1000
0100
1000
0001
0100
0001
,
0010
0001
1000
0000
0010
1000
0001
0000
,
1000
0010
0100
0001
0100
0010
1000
0100
,
0010
0000
0000
0001
0000
0000
0010
0000
0000
0100
0000
0000
1000
0000
0000
0010
,
0000
0100
0001
0100
0001
1000
0100
1000
,
0010
0100
0010
0000
1000
0010
1000
0000
,
0011
0000
1000
0000
0001
0100
0001
0000
,
1000
0010
0100
0001
1000
0001
0010
0000
,
0011
0010
0100
0000
1000
0010
0100
0000
,
0001
0100
1000
0100
0001
0000
0010
0000
,
0100
1000
0100
0000
1000
0001
1000
0000
,
1000
0100
0001
0100
1000
0000
0001
0100
,
0101
0000
1000
0000
0001
0010
0001
0000
,
1000
0001
1000
0000
0020
0000
1000
0000
,
1030
0100
0010
0000
0001
0100
0010
0000
,
1010
0000
0001
0100
0001
0000
1000
0100
,
0010
0001
0010
0000
0001
0100
0001
1000
,
0010
0000
1000
0100
0010
0000
0001
0010
,
0002
0010
2003
0010
,
3001
0000
1000
0100
1000
0000
0001
0100
,
0010
1000
0100
0000
1000
0010
1000
0001
,
0100
0000
0000
1001
1001
0000
0100
0010
,
0001
0010
0100
0010
0001
1000
0100
1000
,
1100
0000
0001
0010
0001
0000
1000
0010
,
0100
0001
0100
0000
0001
0010
0001
1000
,
0100
0000
1000
0010
0100
0000
0001
0100
,
0002
0100
2003
0100
,
3001
0000
1000
0010
1000
0000
0001
0010
,
0100
1000
0010
0000
1000
0100
1000
0001
,
0010
0000
0000
1001
1001
0000
0010
0100
,
0001
0100
0010
0100
0001
1000
0100
1000
,
0100
0010
0001
0000
1000
0001
1000
0000
,
0001
1000
0010
1000
0100
1000
0010
1000
,
0001
0000
0100
0000
0010
1000
0010
0100
,
0001
1000
0100
0000
1000
0001
0100
0000
,
0001
1000
0001
1000
0001
0000
1000
0100
,
0010
0001
1000
0001
0100
0001
0010
0001
,
1000
0000
0100
0000
0010
0001
1000
0001
,
0100
0010
0100
0001
1000
0100
0010
0001
,
1000
0000
0000
0010
0000
0000
0100
0000
0000
0001
0000
0000
0010
0000
0100
0000
,
1000
0010
0100
0001
1000
0001
1000
0010
,
1010
1000
0010
0000
0001
0010
0100
0000
,
1000
0100
0001
0100
1000
0000
0010
0000
,
0100
0001
0100
0000
0001
1000
0001
0000
,
0001
0100
1000
0100
0001
0000
1000
0100
,
1100
0000
0001
0000
1000
0010
1000
0000
,
0001
1000
0001
0000
0020
0000
0001
0000
,
0031
0100
0010
1000
0100
0010
0001
1000
,
2002
0000
0000
0000
,
3003
0000
0000
0000
;

//--------------- dance-single - Evergreen ----------------
#NOTES:
     dance-single:
     Evergreen:
     Hard:
     14:
     0,0,0,0,0:
0000
0000
0000
0000
,
1000
0100
0010
0002
1000
0000
1000
0000
,
1003
0000
0001
0000
1000
0000
0010
1000
0010
0000
0100
0000
0010
0000
1000
0000
,
0001
0010
0100
2000
0001
0000
0001
0000
,
3001
0000
1000
0000
0001
0000
0010
0001
0010
0000
0100
0000
0010
0000
0001
0000
,
1000
0010
1000
0200
0010
0000
0010
0000
,
0310
0000
0100
0000
1000
0000
0010
1000
0010
0000
1000
0000
0100
0000
0010
0000
,
0001
1000
0010
0200
0010
0000
0010
0300
,
0110
0000
0000
0000
1001
0000
0000
0000
1000
0100
1000
0000
0001
0000
1000
0000
,
0001
0000
0100
0001
0000
1000
0100
0000
0010
0001
0000
1000
0010
0000
0100
0001
,
0000
1000
0100
0000
0010
0000
0001
0000
0010
0001
1000
0000
0010
0000
0100
0000
,
0001
0000
0010
0000
0100
0000
1000
0000
0001
0000
1000
0001
1000
0000
0001
0000
,
1000
0000
0010
0000
0100
0000
0001
0000
1000
0010
1000
0000
0001
0010
0001
0000
,
0100
0000
0010
1000
0000
0001
0010
0000
0100
1000
0000
0001
0100
0000
0010
1000
,
0000
0001
0010
0000
0100
0000
1000
0000
0001
0000
0100
0000
0001
0000
0010
0000
,
0100
0000
1000
0000
0001
0000
1000
0010
1000
0000
0001
0000
1000
0000
0100
0000
,
1100
0000
0000
0000
0011
0000
0000
0000
1001
0000
1000
0001
1000
0000
0001
0000
,
0100
0000
0010
1000
0010
0100
0001
0000
0020
0000
0130
1000
0001
0000
1000
0000
,
1001
0000
1000
0000
0100
0000
0010
0001
0010
0000
0001
0000
1000
0010
0100
0001
,
0100
0000
0010
0000
1000
0000
0001
0000
0100
0000
1000
0000
0100
0000
0001
1000
,
0001
0000
1000
0000
0010
0000
0100
0000
0001
0000
1000
0000
0100
0000
0010
0001
,
0010
0000
0001
0000
1000
0000
0100
0000
0001
0000
0100
0000
1000
0000
0010
1000
,
0010
0000
1000
0000
0100
0000
0010
0000
0001
0000
1000
0001
1000
0000
0010
0000
,
0100
0001
0100
0020
1000
0000
1000
0000
,
1030
0000
0010
0000
0100
0000
0001
0000
1000
0100
1000
0000
0001
0100
0001
0000
,
1000
0001
1000
0001
1000
0000
0001
0010
0000
0100
1000
0000
0010
0000
0100
0010
,
0100
0000
0010
0000
1000
0000
0001
0100
0001
0000
1000
0000
0100
0000
1000
0000
,
0020
0000
0000
0000
0130
0000
0001
0100
0001
0000
1000
0000
0100
0000
0010
0000
,
0200
0000
0000
0000
2300
0000
0000
0000
3020
0000
0000
0200
0030
0000
0301
0000
,
1000
0001
1000
0001
1000
0000
0001
0010
0000
0100
1000
0000
0010
0000
0100
0010
,
0100
0000
0010
0000
1000
0000
0001
0100
0001
0000
1000
0000
0100
0000
1000
0000
,
0002
0000
0000
0000
1003
0000
0110
0000
1001
0000
0001
0000
1000
0000
0001
0100
,
0001
0001
0100
0100
0010
0010
1000
0000
,
0100
1000
0100
1000
0100
0000
1000
0001
1000
0000
0010
0000
0100
0000
0001
1000
,
0001
0000
1000
0000
0010
0000
1000
0100
1000
0000
0001
0000
0010
0000
0001
1000
,
0001
0000
0100
0000
0001
0000
1000
0100
1000
0000
0001
0000
0100
0000
0010
1000
,
0010
0000
0100
0000
0001
0000
1000
0000
0001
0010
0100
1000
0001
0100
0010
1000
,
0001
0010
0001
0010
0001
0000
1000
0010
1000
0000
0010
0000
0100
0000
0001
0100
,
0001
0000
0010
0000
0100
0000
1000
0100
1000
0000
0100
0000
0010
0000
0001
1000
,
0002
0000
0000
0000
1003
0000
0110
0000
1001
0000
0001
0000
1000
0000
0001
0010
,
0001
0000
1000
0010
1000
0000
0001
0000
1001
0000
0110
0000
1001
0000
1000
0100
,
0010
0000
0001
0000
0100
0001
0000
1000
0001
1000
0010
0000
1000
0000
0001
0100
,
0001
0000
0000
1000
0000
0010
0000
0100
0001
1000
0100
1000
0100
0000
0100
0001
,
0100
0001
1000
0001
0000
1000
0001
1000
0000
0001
1000
0010
1000
0010
0100
0001
,
0100
0000
0001
0100
0000
0100
1000
0100
0000
1000
0010
1000
0001
0000
1000
0100
,
0010
0000
0100
0010
0001
0000
1000
0010
1000
0000
0010
0100
0001
0100
0010
1000
,
0010
1000
0001
1000
0100
0010
0000
0001
0010
0100
1000
0000
0010
0100
0002
0000
,
1003
0000
1000
0001
0000
0001
0010
0000
0010
1000
0000
1000
0100
0000
0100
0001
,
0100
0001
1000
0100
1000
0001
0000
1000
0000
0001
1000
0001
0000
1000
0001
0100
,
0002
0000
0000
1003
0001
1000
0020
0000
0000
1000
0000
1030
0100
0000
0010
0001
,
0010
0000
0100
0000
1000
0001
1000
0000
0001
0000
0100
0010
1000
0000
0001
0000
,
1001
0000
0001
0000
0100
0000
0010
1000
0010
0000
1000
0000
0001
0010
0100
1000
,
0100
0000
0010
0000
0001
0000
1000
0000
0100
0000
0001
0000
0100
0000
1000
0001
,
1000
0000
0001
0000
0100
0000
0010
0000
0100
0000
0001
0000
0010
0000
0100
1000
,
0100
0000
1000
0000
0001
0000
0100
0000
1000
0000
0100
0000
0001
0000
0010
0001
,
0010
0000
0001
0000
0100
0000
0010
0000
1000
0000
0010
1000
0010
0000
0100
0000
,
0001
1000
0100
0020
0001
0000
0001
0000
,
0031
1000
0001
1000
0100
0010
0100
1000
,
0002
0000
0000
0000
0000
0000
0000
0003
;
