#VERSION:0.83;
#TITLE:Multiverse;
#SUBTITLE:;
#ARTIST:BEMANI Sound Team "Coyaan";
#TITLETRANSLIT:;
#SUBTITLETRANSLIT:;
#ARTISTTRANSLIT:;
#GENRE:;
#CREDIT:;
#MUSIC:Multiverse.ogg;
#BANNER:Multiverse.png;
#BACKGROUND:Multiverse-bg.png;
#CDTITLE:;
#SAMPLESTART:49.606;
#SAMPLELENGTH:19.862;
#SELECTABLE:YES;
#OFFSET:1.291;
#BPMS:0.000=145.000;
#STOPS:;
#BGCHANGES:;
#FGCHANGES:;

//--------------- dance-single - chronon ----------------
#NOTEDATA:;
#STEPSTYPE:dance-single;
#DESCRIPTION:chronon;
#DIFFICULTY:Beginner;
#METER:6;
#RADARVALUES:0,0,0,0,0;
#NOTES:
0000
0000
0000
0000
,
0000
0000
0000
0000
,
0000
0000
0000
0000
,
0000
0000
0000
0000
,
0000
1000
0000
0000
,
1001
0000
0000
0000
0000
0000
0000
0001
,
0000
0000
0000
1001
0000
0000
0000
0000
,
0000
0000
1000
0000
,
0000
0100
0000
0000
0010
0000
0000
0002
,
0000
0000
0000
0000
,
0003
0000
0000
1000
0000
0000
0000
0010
,
0000
0000
0000
0010
0000
0000
0000
0000
,
0000
1000
0000
0000
0000
0001
0000
0000
,
0000
0001
0000
0000
0000
0000
0000
0001
,
0000
0000
0000
0010
0000
0000
0000
0010
,
0000
0000
0000
0000
0000
0001
0000
0000
,
0000
1000
0000
0001
0000
0000
0100
0000
,
0000
0000
0000
0010
0000
0000
1000
0000
,
0000
0000
0000
0001
0000
0000
1000
0000
,
0000
0001
0000
0010
0000
0000
0000
0000
,
0000
0001
0000
0001
0000
0001
0000
0000
,
0000
1000
0000
0000
0000
0000
0000
0001
,
0000
0000
0000
0000
0000
1000
0000
0000
,
0010
0000
0000
0000
0000
0100
0000
0000
,
0001
0000
0000
0000
0000
0010
0000
0000
,
0100
0000
0000
1000
0000
0000
0000
0001
,
0000
1000
0000
0002
0000
0000
0000
0000
,
0003
0000
0000
2000
,
0000
0000
0000
3000
0000
0000
0000
0000
,
0000
0020
0000
0000
0000
0000
0030
0000
,
0000
0000
0000
1000
,
1000
1000
0001
0010
,
0100
0000
0000
1000
0000
1000
0000
1000
,
0000
0001
0000
0100
0000
0010
0000
0000
,
1000
0000
0000
0001
0000
0000
0010
0000
,
0000
0000
0000
0000
0000
0001
0000
0000
,
1000
0000
0000
0010
0000
0000
0000
0000
,
0000
0000
1000
0000
0000
0001
0000
0000
,
1000
0000
0100
0000
0000
0010
0000
0000
,
0001
1000
0000
0000
,
0000
0001
0000
0000
0000
0000
0000
0000
,
0000
2000
0000
0000
0000
0000
3000
0000
,
2002
0000
0000
3003
,
0000
0000
0000
0000
,
0000
0000
0000
0000
,
0000
0000
0000
0000
,
0000
0001
0000
0000
,
0000
0000
0000
0000
,
1000
0000
0000
0100
,
0000
0010
0000
0000
0001
0000
2000
0000
,
0000
0000
0000
3000
0000
0000
0000
0000
,
0000
0002
0000
0000
0000
0000
0003
0000
,
0000
0000
0200
0000
,
0000
0300
0000
0000
0000
0000
0000
0000
,
0000
0000
0020
0000
0000
0000
0000
0030
,
0000
1000
0000
1000
0000
1000
0000
0001
,
0000
0010
0000
0001
0000
0000
0001
0000
,
0001
0001
1000
0010
,
1000
0000
0000
0001
0000
0000
0010
0000
,
0000
0100
0000
0000
0000
1000
0000
0000
,
1000
0000
0000
0010
0000
0000
0200
0000
,
0000
0000
0000
0300
0000
0001
0000
1000
,
0000
0001
0000
0010
0000
0100
0000
1000
,
0000
1000
0001
1000
,
0010
0000
0100
0000
0001
0000
0000
0100
,
0000
0100
0000
0000
0100
0000
0100
0000
,
0000
0100
0000
0000
0000
0001
0000
0000
,
0000
0000
0000
1000
0000
0000
0000
0000
,
0000
0001
0000
0010
0000
0100
0000
1000
,
0000
0000
0001
0000
0000
1000
0000
0000
0000
0010
0000
0000
0000
0100
0000
0000
,
0000
0001
0000
0000
0000
1000
0000
0000
0001
0000
0000
0000
0000
0000
0000
0000
,
0000
1000
0000
0000
,
0000
2002
0000
0000
0000
0000
0000
0000
,
0000
3003
0000
0000
0000
0000
0000
0000
;

//--------------- dance-single - chronon ----------------
#NOTEDATA:;
#STEPSTYPE:dance-single;
#DESCRIPTION:chronon;
#DIFFICULTY:Easy;
#METER:10;
#RADARVALUES:0,0,0,0,0;
#NOTES:
0000
0000
0000
0000
,
0000
0000
0000
0000
,
0000
0000
0000
0000
,
0000
0000
0000
0000
,
0000
0000
0000
0000
0001
0000
0000
0010
0000
0001
0000
0000
1000
0000
0000
0000
,
0010
0000
0000
0100
0000
0010
0000
0000
1000
0000
0000
0000
0100
0000
1000
0000
,
0000
0100
0000
1000
0000
0000
0001
0000
0000
0000
0100
0000
0000
0010
0000
0100
,
0000
1000
0000
0100
0020
0000
0000
0000
,
0130
0000
0001
0000
0000
0001
0000
0000
1000
0000
0000
1000
0000
0000
2002
0000
,
0000
0000
0000
0000
,
3003
0000
0000
0001
0000
0010
0000
0100
,
0000
1000
0000
0010
0000
0100
0000
0001
,
1000
0001
0000
0010
0000
0100
0000
1000
,
0000
0100
0000
0000
0100
0000
0000
0010
0000
0000
0001
0000
0000
0000
1000
0000
,
0000
0100
0000
0010
0000
0001
0000
0100
,
0000
0010
0000
1000
0001
1000
0000
0100
,
0000
0000
0010
0000
0000
0000
0001
0000
0000
1000
0000
0000
0001
0000
0000
0100
,
0000
0000
0010
0000
0000
0000
1000
0000
0000
0001
0000
1000
0000
0000
0100
0000
,
0000
0000
1000
0000
0000
0000
0100
0000
0000
0100
0000
0000
0010
0000
0000
0010
,
0000
0001
1000
0001
0000
0000
1000
0002
,
0000
0103
0000
0010
0000
1000
0000
0001
,
0000
1001
0000
0000
0000
0000
0000
1001
,
0000
0000
0000
0000
0000
0000
0000
0000
0000
0000
1000
0000
0000
0001
0000
0000
,
0001
0000
0000
1000
0000
0000
0100
0000
1000
0000
0200
0000
0000
0000
0000
0320
,
0000
0000
0000
0130
0000
0000
1000
0000
0000
0000
0020
0000
0030
0100
0000
0000
,
0002
0000
0003
1000
0000
0000
2002
0000
0000
0000
0000
0000
0000
0000
3003
0000
,
0000
0000
0000
0002
0000
0000
0000
0000
,
0023
0000
0000
0230
,
0000
0000
0000
1300
0000
0001
0000
1000
,
0000
0000
0010
0000
0000
0000
0000
0000
0100
0000
0000
0000
0001
0000
0000
1000
,
0000
0000
0001
0000
1000
0000
0000
0000
0100
0000
0000
0000
1000
0000
0000
0100
,
0000
1000
0000
0000
0001
0000
0000
0000
0100
0000
0000
0010
0000
0100
0000
0000
,
0001
0000
0000
0000
1000
0000
0001
0000
0000
0010
0000
0001
0000
0000
1000
0000
,
0000
0000
0010
0000
0000
0100
0000
0010
0000
0000
0001
0000
0000
0000
0010
0000
,
0100
0000
0000
0001
0000
0100
0000
0000
0010
0000
0000
0000
1000
0000
0000
0001
,
0000
1000
0000
0000
0100
0000
0000
0000
1000
0000
0100
0000
0000
1000
0000
0100
,
0000
0010
0000
0002
0000
0000
0000
1003
,
0000
0000
0010
0000
0100
0000
0000
0100
0000
0001
0000
0000
0001
0000
1000
0000
,
0000
0000
0000
0000
0100
0000
0000
0100
0000
0000
1000
0000
0000
1000
0000
0000
,
0001
0000
0000
0000
2002
0000
0000
0000
3003
0000
0000
0202
0000
0000
0000
0000
,
0303
2002
0000
0000
3003
2200
0000
0000
,
3300
0000
1000
0000
0000
0100
0000
1000
0000
0100
0000
1000
0000
0000
0001
0000
,
2000
0000
0000
3002
,
0000
0000
0203
0000
,
0000
0000
0320
0000
,
0000
2030
0000
0000
,
0000
3002
0000
0023
,
0230
0000
2300
0000
,
3001
0000
0000
1000
0000
0000
0001
0000
0000
0000
0000
0000
0100
0000
0000
0100
,
0000
0000
0001
0000
0000
0001
0000
0000
1000
0000
0001
0000
2000
0000
0000
0000
,
0000
0000
0000
3200
0000
0000
0000
0000
,
0000
0320
0000
0000
0000
0000
0031
0000
,
1000
0000
0001
0000
0100
0000
0000
0010
,
0000
0000
1000
0000
0000
0001
0000
0000
1000
0000
0001
0000
0000
0000
0010
0000
,
0000
0000
0100
0000
1000
0000
0000
0001
0000
0000
1000
0000
0001
0000
0000
0000
,
0100
0000
1000
0000
0000
0100
0000
0010
0000
0000
0100
0000
0000
0000
0001
0000
,
0000
1000
0000
0001
0000
0000
0010
0000
0000
0000
0100
0000
0001
0000
0000
0100
,
0000
0010
0000
0000
0100
0000
0000
0000
1000
0000
0000
0001
0000
1000
0000
0000
,
0010
0000
0000
0000
0100
0000
1000
0000
0000
0100
0000
0010
0000
0000
0001
0000
,
0000
0000
0010
0000
0000
1000
0000
0001
0000
0000
0010
0000
0000
0000
0100
0000
,
0001
0000
0000
0100
0000
0010
0000
0000
1000
0000
0000
0000
0020
0000
0000
0000
,
0000
0000
0031
0000
1000
0020
0000
0000
,
1030
0010
0000
0100
0000
0001
1000
0001
,
0000
0001
0020
0000
0000
0031
0010
0000
,
0100
0000
1000
0001
0000
1000
0001
1000
,
0000
0010
0000
0100
0000
0000
0001
0000
1000
0000
0000
0100
0000
0010
0000
0000
,
0001
1000
0000
0010
0000
0200
0000
0000
,
0000
0000
0000
0302
0000
0000
0000
0000
,
0000
1003
0001
1000
0000
0100
0010
0100
,
1000
0000
0000
0000
0000
0001
0000
1000
0000
0001
0000
0000
0000
0100
0000
0010
,
0000
0100
0000
0001
0000
0000
0000
0000
1000
0000
0000
0001
0000
0010
0000
0000
,
0000
0000
0000
0000
0000
0001
0000
0000
1000
0000
0010
0000
0000
1000
0000
0001
,
0000
2002
0000
0000
0000
0000
0000
0000
,
0000
3003
0000
0000
0000
0000
0000
0000
;

//--------------- dance-single - chronon ----------------
#NOTEDATA:;
#STEPSTYPE:dance-single;
#DESCRIPTION:chronon;
#DIFFICULTY:Medium;
#METER:14;
#RADARVALUES:0,0,0,0,0;
#NOTES:
0000
0000
0000
0000
,
0000
0000
0000
0000
,
0000
0000
0000
0000
,
0000
0000
0000
0000
,
0000
0000
0000
0000
1000
0000
0010
1000
0000
0001
0000
0010
0001
0000
0010
0000
,
0100
0000
0000
1000
0000
1000
0000
0000
0001
0000
0100
0000
0010
0000
0100
0000
,
0001
1000
0000
0100
0000
1000
0001
0000
0100
0000
0010
0000
0000
0100
0000
0100
,
0000
0000
1000
0000
0100
0000
0010
0000
0100
0000
0001
1000
0000
0001
1000
0000
,
0100
0000
1100
0000
0000
1100
0000
0000
0011
0000
0000
0011
0000
0000
2002
0000
,
0000
0000
0000
3003
,
1001
0000
0000
1001
0000
0000
0001
0000
0000
0100
0000
0000
0010
0000
0100
0000
,
0001
0000
1000
0000
0000
0100
0000
0000
0010
0000
0000
0200
0000
0000
0010
0000
,
1300
0000
0100
0000
0000
0010
0000
0000
0001
0000
1000
0000
0001
0000
0100
0000
,
0000
0201
0000
0000
0310
0000
0000
2010
0000
0000
3001
0000
1000
0000
1100
0000
,
0000
0100
0000
0000
0010
0000
0100
0000
1000
0000
0001
0000
0000
0100
0000
0000
,
0010
0000
0000
0200
0000
0000
0010
0000
0301
0000
0100
0000
0000
0010
0000
0000
,
1000
0000
0100
0000
1000
0000
0001
0000
1000
0010
0000
0000
1000
0000
0001
0010
,
0000
0000
0100
0000
0100
0000
1000
0000
0100
0010
0000
0001
0000
0010
0100
0000
,
1000
0000
0001
0000
0000
0000
1000
0000
0010
0100
0000
0000
0001
0000
0100
0010
,
0000
1000
0001
1001
0000
0000
2001
3200
,
0000
0000
1300
0000
0000
0200
0000
0000
0001
0000
0000
0310
0000
0000
0100
0000
,
1000
1100
0000
0000
0000
1000
0001
0101
,
0000
0000
0000
0000
0000
0000
0001
0000
1000
0000
1010
0000
0010
0100
0000
0000
,
0101
0000
0001
1000
0000
0000
0100
0000
0010
0000
0100
0000
1000
0100
0000
0100
,
0000
1000
0100
0000
0010
0000
0100
0000
1000
0000
0020
0000
0130
0001
0000
0000
,
0020
0000
0130
1000
0000
0000
2002
0000
0000
0000
0000
0000
3003
0000
1001
0000
,
0000
1001
0000
0000
1001
0000
1000
0000
0000
0100
0000
0000
0010
0000
0000
0000
,
0001
0000
0000
0000
1000
0000
0020
0000
0000
0000
0130
0000
0001
0000
0000
0100
,
0000
0010
0000
1000
0001
1000
0000
1000
,
0100
0000
1000
0000
0000
0001
0000
0000
1000
0000
0000
0000
1001
0000
0000
1001
,
0000
0000
0001
0000
0100
0000
0010
0000
1000
0000
0001
0000
1000
0000
0100
1000
,
0000
0001
0000
0100
0001
0000
0100
0000
0010
0000
0000
1000
0000
1000
0000
0001
,
0010
0000
0100
0000
1000
0000
0001
0000
0010
0001
0000
1000
0000
0010
1000
0000
,
0010
0000
0100
0000
0000
0010
0000
0010
0000
0000
0001
0000
0010
0000
0100
0000
,
0010
0000
1000
0001
0000
0010
0000
0001
1000
0000
0010
0000
0100
0000
0000
0001
,
0000
1000
0000
0000
0100
0000
0010
0000
0001
0000
0010
0000
0001
1000
0000
0010
,
0000
1000
0001
0000
0100
0000
0010
0000
0000
1000
0000
0001
0000
0000
1000
0000
,
0100
0000
0010
0000
0001
0000
0010
0001
0000
1000
0000
0001
0100
0000
0001
0000
,
0100
0000
0000
0000
0201
0000
0000
0310
0000
0000
2010
0000
0000
3001
0000
0000
,
1000
0000
0000
0000
0001
0000
0000
0000
1000
0000
0000
0000
0001
0000
0000
0000
0000
0000
0010
0000
0000
0100
0000
0000
0000
0000
0000
0100
0000
0000
0000
0000
0000
1000
0000
0000
0000
0000
0000
0001
0000
0000
0000
0000
0000
1000
0000
0000
,
0000
0010
1000
0000
0000
0010
0100
0000
0100
0000
0001
0000
1000
0000
0002
0000
,
0000
0000
2003
0000
0000
0100
0000
0100
0000
3100
0000
1000
0000
0000
0001
0000
,
2002
0000
3003
0002
,
0000
0100
2003
0000
,
0100
3001
0020
0000
,
0001
0230
0000
0010
,
1300
0002
2003
3002
,
0203
0320
0230
0301
,
0100
0000
0000
0001
0000
0000
1000
0000
0100
0000
0010
0000
0110
0000
0000
0110
,
0000
0000
1001
0000
0000
1001
0000
0000
0001
0000
1000
0000
0001
0000
0000
0010
,
0000
0100
0000
1000
0000
0001
0200
0000
,
0310
0000
1000
0000
0000
0010
0000
0000
0100
0000
0000
0000
0001
0000
1000
0000
,
0001
0000
0010
0000
0001
0000
0010
0000
0100
0000
0000
1000
0000
0000
0001
0000
,
0000
0000
1001
0000
0000
1001
0000
0000
1000
0000
0010
0000
0000
0000
0100
0000
,
0001
0000
1000
0000
1001
0000
0000
1001
0000
0000
0001
0000
0010
0000
0100
0000
,
0010
0000
1000
0000
0010
0100
0000
0010
0000
0001
0010
0000
0001
0000
0100
0000
,
0000
0001
0000
0001
0000
0000
0100
0000
0010
0000
0100
0000
1000
0000
0100
0010
,
0000
0100
0000
0001
0100
0000
0001
0000
0010
0000
0000
0100
0000
0100
0000
0000
,
0001
0000
0100
0000
0010
0000
1000
0000
0010
0100
0000
0001
0000
0100
0010
0000
,
0100
0000
1000
0000
0000
0001
0000
1000
0000
0000
0010
0000
0100
0000
0010
0000
,
0001
0000
0010
0100
0000
1000
0000
0100
0010
0000
1000
0000
0002
0000
0000
0000
,
0000
0000
0103
0010
1000
0200
0000
0000
,
1300
0000
0100
0000
0010
0000
0001
0000
0010
0100
0000
1000
0000
0000
0100
0000
,
0010
0001
0200
0000
0000
0301
0100
0010
,
1000
0000
0010
0100
0000
0001
0000
0000
0100
0000
0010
0000
1000
0000
0001
0000
,
1000
0100
0000
1000
0000
0001
0100
0000
0001
0000
1000
0100
0000
1000
0000
0001
,
0100
0000
0001
0000
1000
0100
0000
0000
0010
0000
0002
0000
0000
0100
0000
0000
,
1003
0000
0100
0000
0100
0000
2000
0000
0000
0010
0000
0000
3001
0000
0010
0000
,
0010
0000
0001
0000
0010
0001
0010
0000
0100
0000
0010
0000
1000
0000
0010
0000
,
0001
0000
1000
0000
0001
0100
0000
0001
0100
0001
0000
0100
0000
0100
0000
1000
,
0000
0100
0000
0001
0000
1000
0000
0001
0010
0000
0100
1000
0000
0010
0000
1000
,
0010
0000
1000
0000
0000
0010
0000
0100
0001
0000
0010
0000
0001
0010
0000
0100
,
0000
2002
0000
0000
0000
0000
0000
0000
,
0000
3003
0000
0000
0000
0000
0000
0000
;

//--------------- dance-single - chronon ----------------
#NOTEDATA:;
#STEPSTYPE:dance-single;
#DESCRIPTION:chronon;
#DIFFICULTY:Hard;
#METER:17;
#RADARVALUES:0,0,0,0,0;
#NOTES:
0000
0000
0000
0000
,
0000
0000
0000
0000
,
0000
0000
0000
0000
,
0000
0000
0000
0000
,
0000
0000
0000
0000
0001
1000
0001
1000
0000
0001
1000
0001
1000
0000
0010
1000
,
0010
0000
0100
0010
0000
0010
0000
1000
0010
0000
1000
0000
0001
0000
1000
0001
,
1000
0001
0000
1000
0001
1000
0001
0000
0010
0001
0010
0000
0100
0010
0000
0010
,
0000
0100
0001
0000
0100
0000
1000
0000
0001
1000
0001
1000
0000
0010
1000
0000
,
0010
0000
1010
0000
0000
0110
0000
0000
0101
0000
0000
0011
0000
0000
0220
0000
,
0000
0000
0000
0000
0000
0000
0000
0000
0000
0000
0000
0000
0330
0000
0100
1000
,
0001
0000
0000
1001
0000
0000
1010
0000
1000
0010
0000
0100
0010
0000
1000
0000
,
0001
0000
0010
0000
0001
0010
0000
0100
0010
0000
0001
1000
0000
0002
1000
0000
,
0103
0000
0001
0000
0100
0001
0000
0100
0010
0000
1000
0000
1000
0000
0001
0000
,
0000
1100
0000
0000
1000
0000
0000
0011
0000
0001
1000
0000
0001
0000
0101
0000
,
0001
0100
0000
0010
0100
0000
0001
0000
1000
0000
0100
0000
1000
0100
0000
0010
,
0100
0000
1000
0001
0000
2000
0001
0000
3010
0000
1000
0000
0010
1000
0000
0010
,
0100
0000
0001
0000
0010
0000
0001
0010
0100
1000
0000
0001
1000
0010
0100
0001
,
0000
1000
0001
0000
0010
0000
0001
0010
0001
0010
0000
0100
1000
0100
1000
0001
,
1000
0010
0100
0001
1000
0001
0010
0000
0010
0100
0000
0100
1000
0000
1000
0001
,
0000
0000
0000
0002
0000
0000
1000
0000
0000
0000
0000
0000
0103
0000
0000
0000
0000
0000
0101
0000
0000
0000
0000
0000
0000
0000
0000
0000
0000
0000
0000
0000
0000
0000
0000
0000
0101
0000
0000
0000
0000
0000
0100
0000
0000
0000
0001
0000
,
0000
0000
0100
0000
0000
0000
0010
0000
0000
0000
0000
0000
0100
0000
0000
0010
0000
0000
0000
0000
0000
0200
0000
0000
1000
0000
0000
0000
0000
0000
0320
0000
0000
0001
0000
0000
0000
0000
0000
0130
0000
0000
0001
0000
0000
0000
0000
0000
,
1000
0001
1000
0100
1000
0100
0010
0001
1000
0000
1001
0000
0101
0000
0001
0100
,
0001
0100
0010
1000
0001
0000
1001
0000
1100
0000
1000
0100
0010
0001
0000
1000
,
0001
0100
0010
1000
0000
0001
0100
0000
0001
0000
1000
0001
0010
0001
0000
1000
,
0001
0010
0001
1000
0010
0100
0001
0100
0010
2000
0100
0000
3001
0100
0000
0002
,
0010
0000
1003
0010
0000
0100
0001
0000
1000
0000
0001
0000
0010
0001
1000
0000
,
0000
1001
0000
0000
0101
0000
0001
0000
0000
0100
0000
0000
0010
0000
1000
0000
,
0001
0000
1000
0000
0100
0000
0020
0000
0000
0000
0130
0000
1000
0000
0000
0100
,
0000
0010
0001
1000
0001
0002
0010
1003
,
2000
0000
0010
0000
3001
0100
0000
0010
1000
0000
0001
1000
0001
0000
0000
1001
,
0000
0000
0101
0000
1010
0000
1000
0010
0100
0001
1000
0100
0010
0100
1000
0001
,
0000
1000
0001
0100
0010
0000
0100
0010
1000
0000
0001
0010
0000
0010
0000
0100
,
1000
0000
0001
0000
1000
0000
0010
0100
0001
1000
0000
0001
1000
0100
0010
0000
,
0100
0010
0001
0000
1000
0010
0000
0010
0000
0100
1000
0000
0100
0000
0010
0000
,
0100
0010
1000
0001
0000
0001
1000
0100
0010
0000
0100
1000
0001
0000
1000
0010
,
0000
0100
0000
0010
0100
0000
0001
0000
0010
0000
0100
0010
0001
1000
0000
1000
,
0001
0100
0010
0000
0100
0001
1000
0000
0001
0010
0000
0100
0000
1000
0100
0000
,
0010
0000
0001
0000
0010
0001
0010
0001
0000
1000
0001
1000
0001
0000
0100
0001
,
0100
0000
0001
0000
0102
0000
1003
0010
0000
0000
2010
0000
3001
0010
0000
0000
,
0001
0000
0000
0000
0010
0000
0000
0000
0100
0000
0000
0000
1000
0000
0000
0000
0000
0000
0001
0000
0000
1000
0000
0000
0001
0000
0000
0100
0000
0000
0010
0000
0000
1000
0000
0000
0001
0000
0000
0010
0000
0000
0100
0000
0000
1000
0000
0000
,
0100
0000
0000
0010
0000
0000
0002
0000
0000
0000
0000
0000
0000
0000
0000
1003
0000
0000
0001
0000
0000
1000
0000
0000
0100
0000
0000
0010
0000
0000
0001
0000
0000
1000
0000
0000
0010
0000
0000
0100
0000
0000
0001
0000
0000
0000
1000
0000
,
0000
0000
0001
0000
0000
0000
0010
0000
0000
0001
0000
0000
0000
0000
0000
0011
0000
0000
0000
0000
0000
0011
0000
0000
0000
0000
0000
0011
0000
0000
0000
0000
0000
0001
0000
0000
1000
0000
0000
0000
0000
0000
0001
0000
0000
0000
0000
0000
,
1002
0000
0000
0000
1000
0000
0000
0000
1000
0000
0000
0000
1003
0000
0000
0001
,
0000
0000
0001
0000
0100
0000
0000
0000
0001
0000
0000
1000
0000
0000
1000
0000
,
0100
0000
0000
0000
0010
0000
0000
0000
0001
0000
0000
1000
0000
0000
1000
0000
,
0010
0000
0000
0000
1000
0000
0000
0001
0000
0000
0001
0000
0010
0000
0000
0000
,
0100
2000
3200
0320
,
0032
0000
0203
0000
0320
0000
1030
0010
,
1000
0000
0010
1000
0000
0010
0100
0000
0001
0000
1000
0000
1001
0000
0000
0101
,
0000
0000
1001
0000
0000
1100
0000
1000
0100
0000
0010
0000
0001
0000
0000
0010
,
0000
0100
1000
0001
1000
0010
0200
0000
,
0310
0000
1000
0000
0000
0010
0000
0000
0100
0000
0001
0000
1000
0001
2000
0000
,
0100
0000
3001
1000
0002
0000
0100
0000
1003
0010
1000
0000
0001
0010
0001
0000
,
1000
0001
1000
0000
0000
1001
0000
0000
1010
0000
0201
0000
0000
0000
0310
0000
,
1000
0000
0001
0000
1001
0000
0000
1001
0000
0000
0011
0000
1001
0000
1010
0000
,
0210
0000
1300
0100
0001
1000
0000
0001
1000
0100
0001
0000
0100
1000
0001
0000
,
1000
0010
1000
0010
0100
0001
1000
0000
0001
1000
0100
0000
0001
0100
1000
0001
,
0000
1000
0001
0100
1000
0000
0100
0001
1000
0000
0001
0010
0001
0010
0100
1000
,
0010
0000
1000
0010
0100
0000
1000
0100
0001
1000
0000
1000
0001
0010
1000
0000
,
0010
0001
1000
0000
0001
1000
0000
0010
0000
0100
0001
0000
0010
0000
0100
0000
,
0001
0100
1000
0001
0000
0001
1000
0010
0001
0000
0010
1000
0001
1000
0001
1000
,
0001
1000
0001
1000
0100
0000
0010
0100
1000
0000
2010
0000
0000
0000
3010
1000
,
0010
0100
0001
1000
0100
0010
0001
0010
0100
1000
0000
0001
0000
1000
0010
0000
,
0100
0000
0001
0000
0021
0000
0000
0000
0031
0010
0100
1000
0001
1000
0010
0100
,
0001
0000
0100
0001
1000
0001
0010
0100
0010
0000
0100
0000
1000
0000
0100
1000
,
0001
1000
0000
1000
0001
1000
0010
0000
0100
0001
1000
0001
0000
0001
1000
0001
,
0010
0000
0100
1000
0001
1000
0100
0010
0001
0000
0012
0000
0000
1003
0000
0001
,
0100
0000
0010
0000
1000
0000
2010
0000
0000
3001
0000
1000
0100
0000
0010
0000
,
0001
0000
0010
0001
0010
0100
1000
0100
0010
0001
1000
0100
0001
0100
1000
0100
,
0010
0001
1000
0001
0100
0010
1000
0010
0100
0001
0100
0010
1000
0001
0100
1000
,
0100
0001
0100
0010
1000
0001
1000
0100
0010
0100
1000
0001
0000
1001
0000
1000
,
0001
0000
0100
0010
1000
0010
0100
0001
1000
0000
1001
0000
0001
1000
0000
0100
,
0010
0001
0200
0000
0000
0000
0000
0000
0000
0000
0000
0000
0000
0000
0000
0000
,
0000
0300
0000
0000
0000
0000
0000
0000
;
