#TITLE:Move UR Body;
#SUBTITLE:;
#ARTIST:nora2r;
#TITLETRANSLIT:;
#SUBTITLETRANSLIT:;
#ARTISTTRANSLIT:;
#GENRE:;
#CREDIT:Braeden;
#MUSIC:Move UR Body.ogg;
#BANNER:bn.png;
#BACKGROUND:bg.png;
#JACKET:jacket.png;
#CDTITLE:;
#SAMPLESTART:0.000;
#SAMPLELENGTH:0.000;
#SELECTABLE:YES;
#OFFSET:-0.046;
#BPMS:0.000=175.000;
#STOPS:;
#BGCHANGES:;
#FGCHANGES:;

//--------------- dance-single - ----------------
#NOTES:
     dance-single:
     :
     Beginner:
     4:
     0,0,0,0,0:
0000
0000
0000
0000
,
0000
0000
0000
1001
,
0000
0000
0000
1000
,
0000
0000
0000
0001
,
0000
0000
0000
1000
,
0000
0000
0001
1001
,
0000
1000
0000
1001
,
0000
0001
0000
0100
,
0000
0020
0000
0130
,
0000
0000
0000
1001
,
0000
0000
0001
0001
,
0000
0000
0100
0100
,
0000
0000
0010
0010
,
0000
0000
0000
1001
,
0000
0000
1000
1000
,
0000
0000
0010
0010
,
0000
0000
0100
0100
,
0000
0000
0001
1001
,
0000
0000
0000
1001
,
0000
0000
0000
1001
,
0000
0000
0000
1001
,
0000
0000
0000
0001
,
0000
1000
0000
0010
,
0000
0100
0000
0001
,
0000
1000
0000
0010
,
0000
1000
0000
2002
,
0000
3003
0000
0001
,
0000
1000
0000
0001
,
0000
0100
0000
0010
,
0000
1000
0000
0100
,
0000
1000
0000
0001
,
0000
0100
0000
0010
,
0000
1000
0000
0001
,
0000
0100
0000
0010
,
0000
1000
0000
0001
,
0000
1000
0000
1001
,
0000
0001
0000
0100
,
0000
0001
0000
0010
,
0000
0001
0000
1000
,
0000
0010
0000
1000
,
0000
0000
0000
0001
,
0000
0000
0000
0100
,
0000
0002
0000
0103
,
0000
0000
0000
0001
,
0000
2000
0000
3001
,
0000
0000
0000
0100
,
0000
0001
0000
2000
,
0000
3000
0000
0001
,
0000
2000
0000
3001
,
0000
0000
0000
0100
,
0000
0000
0000
0020
,
0000
1030
0000
0001
,
0000
2000
0000
3010
,
0000
0000
0000
0100
,
0000
0002
0000
2003
,
0000
3000
0000
0001
,
0000
1000
0000
0020
,
0000
0030
0000
1000
,
0000
0000
0000
0001
,
0000
1000
0000
1001
,
0000
0000
0000
1001
,
0000
0000
0000
0001
,
0000
1000
0000
0010
,
0000
0000
0000
1000
,
0000
0001
0000
0100
,
0000
0001
0000
0010
,
0000
0001
0000
1000
,
0000
0100
0000
1000
,
0000
0001
0000
0100
,
0000
0010
0000
1000
,
0000
0001
0000
1001
,
0000
0000
0000
1001
,
0000
1000
0000
0010
,
0000
0100
0000
0001
,
0000
1000
0000
0010
,
0000
0100
0000
0001
,
0000
0010
0000
0001
,
0000
1000
0000
0010
,
0000
0100
0000
0001
,
0000
0000
0000
1001
,
0000
0000
0000
1000
,
0000
0000
0000
0001
,
0000
0100
0000
0010
,
0000
0000
0000
1001
;

//--------------- dance-single - ----------------
#NOTES:
     dance-single:
     :
     Easy:
     9:
     0,0,0,0,0:
0000
0000
0000
0000
,
0000
0000
0000
1001
,
0001
1000
1000
0001
,
0100
0010
0010
1000
,
0100
1000
1000
0001
,
0100
0010
0010
0110
,
0100
0001
0100
0110
,
0010
1000
0001
1001
,
1000
0000
0010
1000
0010
1000
0010
0000
,
0100
0002
1003
1001
,
0002
0000
0003
1000
0010
0000
0100
0000
,
0002
0000
0003
0010
0100
0000
0010
0000
,
0002
0000
0003
1000
0010
0000
0100
0000
,
0020
0000
0000
0000
0030
0000
1000
0000
0000
0100
0000
0000
1000
0000
0000
0000
,
0200
0000
0300
0010
0001
0000
0100
0000
,
0020
0000
0030
1000
0010
0000
1000
0000
,
0002
0000
0003
0100
0010
0000
1010
0000
,
0000
1000
0000
1001
,
0001
0100
0010
1010
,
1000
0000
0001
0000
0010
0100
0010
0000
,
0001
1000
0010
0110
,
0100
0001
0010
0110
,
0000
0100
1000
0000
0000
0001
1000
0000
,
0000
0010
0100
0000
0000
0001
0010
0000
,
0001
0000
1000
0000
0001
0000
0001
0010
,
0100
1000
0100
1000
0001
0100
0020
0000
,
0000
0000
0000
1030
,
0001
0000
1000
1001
,
0001
0100
1000
0100
,
0001
1000
0010
0100
,
0001
0010
1000
0010
,
0100
1000
0001
1001
,
1000
0100
0001
0100
,
0010
0100
0010
0011
,
0001
0100
0010
1000
,
0001
0000
0100
0010
1000
0000
1001
0000
,
0001
1000
0100
0001
,
0100
1000
0010
1010
,
1000
0001
0100
1000
,
0100
0001
0010
1001
,
1000
0100
1000
1001
,
0001
0100
0010
1010
,
1000
0000
0001
0100
0001
0010
0100
0000
,
0010
0001
1000
0001
,
0200
0320
2030
3100
,
0020
0031
0100
0020
,
0000
2030
0000
3020
,
0000
0030
0000
1000
,
0100
0020
0130
2000
,
3020
0130
0010
1000
,
0002
0000
1003
0010
,
0100
0001
0010
0011
,
1000
0000
0001
0010
0001
0000
1000
0000
,
0010
2000
0000
0000
3001
0000
1001
0000
,
1000
0010
0000
0000
1000
0000
0002
0000
,
0103
0000
0010
1000
,
0100
0000
0010
0001
1000
0000
0001
0000
,
0001
0020
0000
0000
0031
0000
1000
0000
,
1010
0000
0000
0000
0010
1000
0010
0000
,
1000
0001
0000
1001
,
1000
0010
1000
1010
,
0100
0001
0100
1001
,
0001
0000
1000
0100
0010
0001
1000
0000
,
1000
0000
1000
0000
1000
0000
0001
0010
,
0001
0000
0000
0000
1000
0000
0000
0010
0000
0000
2000
0000
0000
0000
3000
0000
,
0000
0000
0000
0000
0001
0000
0000
0010
0000
0000
0002
0000
0000
0000
0000
0003
,
0000
0000
0000
0000
1000
0000
0000
0100
0000
0000
2000
0000
0000
0000
3000
0000
,
0001
0000
0100
0000
0010
1000
0010
0000
,
1000
0000
0000
0000
0001
0000
0000
0010
0000
0000
0200
0000
0000
0000
0300
0000
,
0000
0000
0000
0000
0010
0000
0000
0001
0000
0000
0200
0000
0000
0000
0300
0000
,
0000
0001
1000
1001
,
0001
0000
0100
0000
0010
0000
1000
0100
,
1000
0000
0000
0000
0001
0000
0000
0100
0000
0000
0020
0000
0000
0000
0030
0000
,
0000
0000
0000
0000
1000
0000
0000
0100
0000
0000
0020
0000
0000
0000
0000
0030
,
0000
0000
0000
0000
0001
0000
0000
1000
0000
0000
0002
0000
0000
0000
0003
0000
,
1000
0100
0010
0011
,
0001
0000
0000
0000
1000
0000
0000
0001
0000
0000
2000
0000
0000
0000
3000
0000
,
0000
0000
0000
0000
0010
0000
0000
1000
0000
0000
0010
0000
0100
0000
0000
0000
,
0001
1000
0100
0110
,
0010
0001
1000
1001
,
0002
0003
0000
0110
,
0010
0000
1000
0000
0001
0000
1000
0100
,
1000
0000
0001
0010
0001
0000
0110
0000
,
1000
0001
0010
0101
;

//--------------- dance-single - ----------------
#NOTES:
     dance-single:
     :
     Medium:
     12:
     0,0,0,0,0:
0000
0000
0000
0000
,
0000
0000
0000
1001
,
1000
0000
0001
0100
0001
0100
0010
0000
,
1000
0000
0100
0010
0001
0010
0100
0000
,
1000
0000
0001
0100
0010
1000
0001
0000
,
1000
0000
0100
1000
1001
0000
0101
0000
,
0100
0000
0001
0010
0001
1000
1001
0000
,
0001
0000
0100
0010
0100
0000
0110
0000
,
0010
0000
1000
0100
0010
0001
1001
0000
,
0020
1030
0001
1000
,
0100
0100
0000
0010
0010
0001
1000
0000
,
0010
0010
0000
0100
0100
0001
1000
0000
,
0001
0001
0000
1000
1000
0010
0100
0000
,
0001
0000
0001
0000
0000
0000
1000
0000
0000
0010
0000
0000
2010
0000
0000
0000
,
3001
0100
0000
0010
1000
0010
1000
0000
,
0100
0010
0000
0001
0100
0010
1000
0000
,
0001
0000
0100
0000
0000
0000
0001
0000
0010
0000
0100
0000
1000
0000
0000
0001
,
0000
0000
1000
0000
0000
0010
0000
0000
0100
0000
0000
0000
0102
0000
0000
0000
,
1003
0000
0000
0010
0000
0000
1000
0000
0001
0000
0000
0000
1002
0000
0000
0000
,
1003
0000
0000
0100
0000
0000
0010
0000
0001
0000
1000
0000
2001
0000
0000
0000
,
3010
0000
0000
0100
0000
0000
0001
0000
1000
0000
0000
0000
2010
0000
0000
0000
,
3001
0000
0000
0100
0000
0000
0001
0000
0100
0000
0000
0000
0110
0000
0000
0010
,
0000
0000
1000
0000
0010
0000
0000
0100
0000
0000
0001
0000
0010
0000
0000
0100
,
0000
0000
1000
0000
0001
0000
0000
1000
0000
0000
0010
0000
1000
0000
0100
0000
,
1000
0100
0010
0001
0010
0001
1000
0010
,
1000
0001
0010
0001
0100
0010
2010
0000
,
0000
0000
0000
3001
,
0100
0000
0000
0000
1001
0000
1000
0100
,
0001
0100
1000
0000
0001
0001
1000
0100
,
0001
0100
0010
0000
0001
0001
1000
0010
,
0100
1000
0100
0000
0010
1000
0001
0010
,
0001
0000
0000
1000
0000
0000
0010
0000
1000
0000
0000
0000
0001
0000
0010
0000
,
1000
0010
0100
0000
1000
1000
0100
0001
,
0100
1000
0001
0000
0100
0100
0001
0100
,
0010
1000
0001
0000
0100
0010
0100
0001
,
0100
0000
0000
0010
0000
0000
1000
0000
0001
0000
0000
0000
1000
0000
0010
0000
,
1000
0000
0000
0001
0000
0000
1000
0000
0100
0000
0100
0000
0010
0000
0001
0000
,
0100
0000
0000
0010
0000
0000
1000
0000
0001
0000
0001
0000
0100
0000
0010
0000
,
0100
0000
0000
0001
0000
0000
0010
0000
0100
0000
0100
0000
1000
0000
0001
0000
,
1000
0000
0000
0010
0000
0000
1000
0000
0001
0000
0000
0000
1001
0000
0000
0000
,
1000
0000
1000
0100
1000
0001
1001
0000
,
0001
0010
0100
1000
0001
0000
0100
0010
,
0100
0001
0100
0010
0100
0010
2000
0000
,
3001
1000
0010
2000
,
3200
0320
0032
2003
,
3020
2030
3002
1003
,
0010
1000
0000
0010
1000
0000
0001
0000
,
0100
0010
0000
0000
1000
0000
0002
0000
,
0023
0230
2300
3020
,
0230
0302
1003
0001
,
1000
0010
0000
1000
0001
0100
0020
0000
,
2030
3002
0103
0110
,
0010
0000
2000
0010
3010
0000
0200
0000
,
0301
1000
0010
0000
0100
0000
0101
0000
,
0001
1000
0000
0100
1000
0001
1000
0000
,
0001
0100
0000
0010
1000
0001
2000
0000
,
3020
0000
0230
0010
0310
0000
2010
0000
,
3001
0200
0301
1000
,
0100
0010
0001
0000
1000
0000
1001
0000
,
0001
0100
0010
0110
,
0100
0100
0100
1001
,
0100
0100
0100
1001
,
0010
0000
0001
1000
0010
1000
0001
0000
,
0010
0000
0100
0000
1000
0000
0001
0010
,
0001
0000
0100
0000
0010
0000
0000
1000
0000
0000
0002
0000
0000
0000
1003
0000
,
0000
0000
0001
0000
0010
0000
0000
0100
0000
0000
2000
0000
0000
0000
3001
0000
,
0000
0000
0100
0000
0010
0000
0000
1000
0000
0000
0002
0000
0000
0000
1003
0000
,
0001
0000
0000
0010
0000
0000
0100
0000
1000
0000
0001
0000
1000
0000
0010
0000
,
0100
0000
0001
0000
0100
0000
0000
0010
0000
0000
0200
0000
0000
0000
0310
0000
,
0000
0000
1000
0000
0100
0000
0000
0010
0000
0000
0002
0000
0000
0000
1003
0000
,
0000
0001
0100
0010
0100
0000
0001
1000
,
0010
0100
0001
0000
1000
0010
2000
0000
,
3001
0000
0100
0000
0010
0000
0000
1000
0000
0000
0002
0000
0000
0000
0103
0000
,
0000
0000
0010
0000
1000
0000
0000
0100
0000
0000
0020
0000
0000
0000
0031
0000
,
0000
0000
1000
0000
0010
0000
0000
0100
0000
0000
0002
0000
0000
0000
1003
0000
,
0001
0000
0000
0100
0000
0000
0010
0000
1000
0000
0001
0000
1000
0000
0100
0000
,
1000
0000
0010
0000
1000
0000
0000
0001
0000
0000
0200
0000
0000
0000
0310
0000
,
0000
0000
1000
0000
0100
0000
0000
0010
0000
0000
0002
0000
0000
0000
0103
0000
,
0000
0000
0001
0000
1000
0000
0000
0010
0000
0000
0100
0000
0001
0000
1000
0000
,
0001
0000
0010
0000
0100
0000
0000
1000
0000
0000
0010
0000
1000
0000
0000
0000
,
1001
0000
0000
1000
0000
0001
0000
0010
0000
0000
0001
0000
0100
0000
0000
0001
,
0000
1000
0100
0000
0010
0000
0001
1000
,
0001
1000
0010
0100
0010
0100
0001
0000
,
1000
0010
0100
0220
,
0330
0000
0000
0000
;

//--------------- dance-single - XO FS- ----------------
#NOTES:
     dance-single:
     XO FS-:
     Hard:
     15:
     0,0,0,0,0:
0000
0000
0000
0000
,
0000
0000
0000
0000
0000
0000
1001
1000
,
0100
0010
1000
0010
0001
1000
0001
0100
,
0010
0100
1000
0100
0010
1000
0001
0100
,
0010
0100
1000
0100
0001
1000
0001
0010
,
0100
1000
0001
0100
0110
0000
1010
0010
,
1000
0100
0001
0100
0010
0100
1000
0010
,
1000
0010
0001
0010
1000
0001
1000
0100
,
1000
0100
0010
0001
0010
0001
1001
0000
,
1000
0020
0130
0001
,
1000
1000
0000
0001
0100
0010
1000
0000
,
0100
0000
0100
0000
0000
0000
0010
0000
0001
0000
1000
0010
1000
0000
0000
0000
,
0001
0001
0000
1000
0100
0010
0001
0000
,
0100
0000
0100
0000
0000
0000
0110
0000
0000
1010
0000
0000
2001
0000
0000
0000
,
3001
0000
0001
0000
0000
0100
0010
0000
1000
0000
0001
0000
1000
0000
0000
0010
,
1000
0000
0010
0000
0000
0100
0001
0000
1000
0000
0001
1000
0001
0000
0000
0100
,
0010
0000
1000
0000
0000
0001
0100
0000
0010
0000
1000
0000
1100
0000
0000
0100
,
0000
0000
0010
0000
0000
0001
0000
0000
1000
0000
0000
0000
2001
0000
0000
0000
,
3010
0000
0000
1000
0000
0000
0001
0000
1000
0000
0100
0000
2100
0000
0000
0000
,
3001
0000
0000
0100
0000
0000
0010
0000
1000
0001
1000
0001
2000
0000
0000
0000
,
3100
0000
0000
0010
0000
0000
0001
0000
1000
0000
0010
0000
1010
0000
0000
0000
,
1000
0000
0000
0001
0000
0000
1000
0000
0020
0000
0030
0000
0110
0000
0000
0100
,
0000
0000
0001
0000
1001
0000
0000
1000
0000
0000
0010
0000
1010
0000
0000
1000
,
0000
0000
0001
0000
1001
0000
0000
1000
0000
0000
0100
0000
0010
0000
0001
0000
,
0010
0000
0001
0000
1000
0000
0100
0000
0010
0000
0100
0000
1000
0100
1000
0000
,
0001
0010
0001
0000
1000
0001
1000
0000
0010
0100
0010
0000
0220
0000
0000
0000
,
0000
0000
0330
0010
,
1000
0000
0001
0000
1000
0000
0001
1000
,
0100
0000
0000
0001
0000
0000
0100
0000
1000
0000
0010
0000
1000
0000
0001
0000
,
0001
0000
0010
0M00
0010
0000
0100
0000
0001
0000
1000
0000
0001
0000
1000
0000
,
0010
0000
0000
0001
0000
0000
0010
0000
0100
0000
0001
0000
1000
0000
0100
0000
,
0010
0000
0000
0001
0000
0000
1000
0000
0001
0000
0100
0000
0010
0000
1000
0000
,
0100
0000
0000
0001
0000
0000
0100
0000
0010
0000
0001
0000
1000
0000
0001
0000
,
0001
0000
1000
0000
0100
M000
0100
0000
0001
0000
1000
0000
0001
0000
1000
0000
,
0010
0000
0000
0001
0000
0000
0010
0000
1000
0000
0001
0000
0100
0000
0010
0000
,
1000
0000
0000
0001
0000
0000
1000
0000
0010
0000
1000
0000
0001
0000
0100
0000
,
0010
0000
1000
0001
0000
1000
0001
0000
1000
0000
0010
0000
0001
0000
0010
0000
,
0100
0000
0001
1000
0000
0001
1000
0000
0001
0000
0010
0000
0100
0000
1000
0000
,
0010
0001
0010
0100
0001
1000
0001
0010
,
0100
0000
1000
0001
0000
1000
0001
0000
1000
0000
0010
0000
0100
0000
0001
0000
,
1000
0000
0001
0100
0000
0001
0100
0000
0010
0000
1000
0000
0100
0000
0010
0000
,
0001
0000
1000
0010
0000
1000
0010
0000
0100
0000
0001
0000
1000
0000
0100
0000
,
0010
0000
0001
0000
1000
0010
1000
0010
0100
0001
0100
0001
1000
0000
0000
0000
,
0002
1003
0010
1010
,
2000
3020
0130
0002
,
2003
0000
3020
0000
0130
0001
2000
0000
,
3001
0010
0000
0001
0010
0000
0100
0000
,
1000
0001
0000
1000
0010
0000
2000
0000
,
3002
0203
0320
2030
,
3020
0230
0310
1000
,
0001
1000
0000
0010
1000
0010
2000
0000
,
3002
0023
0030
1001
,
1000
0001
1000
0100
0100
1000
0002
0000
,
0103
0010
1000
0001
0001
1000
0010
0000
,
0100
0001
0100
0001
0010
0100
2000
0000
,
3001
0100
0000
0010
1000
0001
1000
0100
,
0010
0002
0000
1003
0010
0100
0001
0010
,
0100
2000
0000
3001
0100
0000
0020
0000
,
1030
0002
0000
1003
0100
1000
0001
0000
,
0010
0200
0300
1001
,
0001
0001
0001
0110
,
0010
0010
0010
1010
,
1000
0100
0010
0001
1000
0010
1010
0000
,
0100
0000
0001
0000
1000
0000
0001
0100
,
1000
0000
0100
0000
0001
0100
0000
0001
0000
0100
0020
0000
0000
0000
1030
0000
,
0000
0000
0001
0000
1000
0100
0000
1000
0000
0100
2000
0000
0000
0000
3001
0000
,
0000
0000
0100
0000
0001
1000
0000
0001
0000
1000
0020
0000
0000
0000
0130
0000
,
0001
1000
0000
0020
0000
0000
0130
0000
0001
0000
0010
0000
0100
0000
1000
0000
,
0010
0000
1000
0000
0001
0010
0000
0001
0000
0010
0002
0000
0000
0000
1003
0000
,
0000
0000
0001
0000
1000
0010
0000
1000
0000
0010
0200
0000
0000
0000
0301
0000
,
0000
0000
1000
0000
0001
0100
0000
0010
1000
0000
0002
0000
1003
0000
0010
0000
,
1000
0000
0100
0000
0010
0000
0001
0000
1000
0010
1000
0001
0020
0000
0000
0000
,
0031
0000
1000
0000
0010
0M00
0010
0000
0001
1000
0002
0000
0000
0000
0103
0000
,
0000
0000
0001
0000
0010
0M00
0010
0000
1000
0001
2000
0000
0000
0000
3001
0000
,
1000
0000
0100
0000
0010
000M
0010
0000
1000
0001
2000
0000
0000
0000
3010
0000
,
1000
0001
0000
0200
0000
0000
0310
0000
1000
0000
0100
0010
0001
0000
1000
0000
,
0001
0000
1000
0010
1000
0000
0001
0100
0001
0000
0200
0000
0000
0000
0310
0000
,
1000
0000
0001
0100
0001
0000
1000
0010
1000
0000
0200
0000
0000
0000
0310
0000
,
0001
0000
1000
0010
1000
0000
0001
0100
0001
0000
0020
0000
0000
0000
0130
0000
,
0010
0000
0001
0000
1000
0000
0000
0010
0000
0000
1000
0000
1001
0000
0000
0000
,
0001
0000
0000
0100
0000
0100
0000
0100
0000
0000
0010
0000
1010
0000
0000
1000
,
0000
0001
0100
0010
1000
0000
0001
0010
,
0100
0000
1000
0000
0001
0010
0100
0010
0001
1000
0001
0100
0010
0000
0000
0000
,
1000
0001
1000
0202
,
0000
0303
0000
0000
;

//--------------- dance-single - XO FS DS SJ ----------------
#NOTES:
     dance-single:
     XO FS DS SJ:
     Challenge:
     17:
     0,0,0,0,0:
0000
0000
0000
0000
,
0000
0000
0000
0000
0000
0000
1001
0001
,
0100
0010
0001
0010
0100
0001
1000
0100
,
0010
0100
0001
0100
1000
0001
1000
0010
,
0100
0010
0001
0010
1000
0001
1000
0100
,
0010
0100
1000
0001
1001
0000
0110
0100
,
0001
0100
1000
0100
0010
0100
0101
0001
,
0010
0100
0001
0100
0010
0001
1001
1000
,
0010
0000
1000
0000
0001
0010
0001
0010
0100
1000
0100
1000
0001
0000
0100
0000
,
0002
0000
0003
0000
2000
0000
0000
0000
3010
0000
0000
0000
1000
0100
00M0
0100
,
0001
0000
0002
0000
0003
1000
0010
0000
0100
0000
0100
0000
0001
0010
0M00
0010
,
1000
0000
2000
0000
3000
0001
0100
0000
0010
0000
0010
1000
0001
0100
00M0
0100
,
1000
0000
2000
0000
3000
0001
0100
0000
0001
0000
0001
0000
1000
0100
00M0
0100
,
0001
0000
1000
0000
0000
0000
1001
0000
0000
0101
0000
0000
0001
0100
00M0
0100
,
1000
0000
0100
0000
0000
0010
0001
0000
1000
0000
1000
0000
0001
0010
0M00
0010
,
1000
0000
0001
0000
0000
1000
0100
0000
1000
0000
0001
1000
0001
0010
0M00
0010
,
1000
0000
0001
0000
0000
1000
0100
0000
0010
0000
0001
0000
0011
0000
0010
0100
,
0000
1000
0100
0000
0010
0001
0000
1000
0001
0000
0000
0000
2001
0000
0000
0000
,
3010
0000
0000
1000
0000
0000
0001
0000
0010
0000
0100
0000
2100
0000
0000
0000
,
3001
0000
0000
0100
0000
0000
0010
0000
1000
0001
1000
0001
0100
0000
0000
0000
,
0001
0000
0000
0010
0000
0000
0001
0000
1000
0100
1000
0000
1002
0000
0000
0000
,
0103
0000
0000
0010
0000
0000
1000
0000
0002
0000
0003
0000
1001
0000
0000
1010
,
0000
0000
0010
0000
0110
0000
0000
0101
0000
0000
0001
0000
1001
0000
0000
1000
,
0000
0000
0010
0000
0100
0000
0000
0001
0000
0000
1000
0000
1001
0000
0001
0000
,
0100
0010
0100
0000
0101
0000
0001
0000
1000
0000
0010
0000
1000
0100
0010
0001
,
1000
0010
0100
0001
1000
0100
0010
0001
1000
0010
0100
0010
1000
0000
0000
0000
,
0002
0000
0000
0000
0000
0000
0000
0000
0000
0000
0000
0000
1003
0010
0000
0000
,
1000
0000
0001
0100
0000
0001
0100
0000
0010
0000
0000
0000
1010
0000
1000
0000
,
0001
0000
0100
0010
0000
0001
0010
0000
0100
0000
0001
0000
1000
0000
0001
0000
,
0100
0000
1000
0100
0000
0010
1000
0000
0001
0000
1000
0000
0100
0000
0010
0000
,
0001
0000
0010
0100
0000
0001
0100
0000
1000
0000
0001
0000
1000
0000
0010
0000
,
1000
0000
0001
0010
0000
0100
1000
0000
0001
0000
1000
0000
1010
0000
0010
0000
,
1000
0000
0100
0010
0000
0100
0001
0000
0100
0000
0010
0000
0001
0000
1000
0000
,
0010
0000
0100
1000
0000
0100
0001
0000
1000
0000
0001
0000
0010
0000
0001
0000
,
0010
0000
1000
0010
0000
0100
1000
0000
0001
0000
0100
0000
0010
0000
1000
0000
,
0001
0000
1000
0100
0000
0010
0001
0000
1000
0000
0001
0000
1001
0000
1000
0000
,
0001
0000
0100
0010
1000
0001
0010
0000
0100
M000
0100
0000
0001
0000
1000
0000
,
0001
0000
1000
0100
0010
0001
1000
0000
0010
0M00
0010
0000
0001
0000
1000
0000
,
0001
0000
1000
0010
1000
0001
0010
0000
0100
M000
0100
0000
0001
0000
1000
0000
,
0001
0000
1000
0100
0000
0010
0100
0000
0010
0000
0001
0000
1001
0000
1000
0010
,
1000
0000
0001
0100
0001
0000
1000
0010
1000
0000
0001
0000
0001
0000
0100
0010
,
0100
0000
0001
0010
0001
0000
1000
0001
1000
0000
0010
0000
1000
0000
0001
0010
,
0100
0000
1000
0100
0010
0001
0010
0100
1000
0010
0100
0001
1000
0000
0000
0000
,
0001
0010
0001
0010
0100
0000
0000
0000
1000
0000
0000
0000
1001
0000
0000
0000
,
0001
2000
3010
0200
,
0302
0023
0230
1300
,
0001
0100
1000
0100
0010
0100
0002
0000
,
1003
0020
0000
0000
0130
0000
0001
0000
,
1000
0100
0001
0100
0010
0100
2000
0000
,
3001
0100
0020
0000
2030
0000
3001
0000
,
1000
0200
0000
0310
0100
1000
0002
0000
,
0103
0010
1000
0010
1000
0000
1010
0000
,
0010
0000
1000
0000
0001
0000
0100
0000
0001
0000
1000
0001
1000
0000
0010
0000
,
0100
0001
0010
0100
1000
0000
0001
1000
,
0001
0000
1000
0100
1000
0000
0001
0000
0100
0000
0010
1000
0010
0000
1000
0000
,
0001
0000
0200
0000
0000
0000
0310
0000
1000
0000
0001
0010
0001
0000
1000
0000
,
0010
0000
0100
0001
0100
0000
0010
0000
1000
0000
0001
0100
0001
0000
1000
0000
,
0010
0200
0000
0301
1000
1000
0020
0000
,
1030
0000
0100
0000
0000
0000
0010
0000
0001
0000
1000
0001
0200
0000
0000
0000
,
0310
0000
1000
0001
1000
0000
1001
0000
,
0001
0001
0001
0101
,
0200
0300
0000
0000
0000
0000
0000
0000
0200
0000
0300
0000
0000
0000
0000
0000
0200
0000
0000
0300
0000
0000
0000
0000
0220
0000
0000
0000
0330
0000
0000
0000
,
0010
0000
1000
0100
0010
0001
1000
0000
0001
0100
0010
1000
0002
0000
0000
0000
,
0103
0000
0001
0010
0001
1000
0010
1000
0001
0000
0000
0000
1001
0000
1000
0000
,
0100
0000
1000
0100
1000
0001
0000
0010
0000
0001
2000
0000
0001
0000
3100
0000
,
1000
0000
0001
0100
0010
1000
0000
0100
0000
1000
0002
0000
0010
0000
1003
0000
,
0001
0000
1000
0010
0100
0001
0000
0010
0000
0001
2000
0000
0010
0000
3001
0000
,
1000
0100
0000
1000
0010
0000
0100
0000
0001
0000
0001
0000
1001
0000
1000
0010
,
1000
0000
0001
0010
0100
1000
0000
0001
0000
0100
0020
0000
0100
0000
1030
0000
,
0001
0000
1000
0100
0010
0001
0000
0010
0000
0001
2000
0000
0001
0000
3010
0000
,
1000
0000
0001
0010
0100
1000
0001
0100
0001
1000
0010
0000
1000
0000
0001
0000
,
1000
0100
0010
0001
1000
0000
0001
0100
0010
0100
0001
1000
0100
0000
0010
0000
,
0001
0000
1000
0010
0100
0001
1000
0100
0010
0001
2000
0000
3100
00M0
0100
0000
,
0101
0000
0001
0010
0100
1000
0100
0010
0001
0100
0002
0000
0013
0M00
0010
0000
,
1010
0000
1000
0100
1000
0010
0100
0001
0010
0100
2000
0000
3010
0M00
0010
0000
,
0001
1000
0000
0020
1000
0000
0130
0001
1000
0100
0010
0001
1000
0000
0010
0000
,
0100
0000
0010
1000
0010
0100
0001
0010
0100
1000
0001
0000
1001
0000
1000
0000
,
0001
0000
0010
0100
1000
0010
0100
0001
1000
0100
0010
0000
0011
0000
0001
1000
,
0001
0000
1000
0100
0010
0001
1000
0010
1000
0010
0100
0001
0100
0000
0010
0000
,
1000
0100
0010
0001
1000
0000
0001
0100
0000
0010
1000
0000
1001
0000
0001
0000
,
1000
0000
0000
0010
0000
0010
0M00
0010
0000
0000
0001
0000
1001
0000
1000
0001
,
0000
0000
0100
0000
0010
1000
0000
0010
0200
0000
0300
0000
0001
0000
0100
0010
,
0100
0000
0001
0010
0100
1000
0010
0100
0001
1000
0100
1000
0001
0000
1000
0100
,
0010
0000
0001
0100
0010
1000
0010
1000
0002
0000
0003
0000
0220
0000
0000
0000
,
0000
0330
0000
0000
;

//--------------- dance-double - ----------------
#NOTES:
     dance-double:
     :
     Easy:
     7:
     0,0,0,0,0:
00000000
00000000
00000000
00000000
,
00000000
00000000
00000000
00011000
,
00001000
01000000
00100000
10000000
,
01000000
00010000
01000000
10000000
,
00100000
01000000
00001000
00010000
,
00000010
00000100
00000001
00001001
,
00000001
00000100
00000010
00010010
,
00010000
00000100
00010000
00011000
,
00001000
01000000
00100000
20100000
,
00000000
30010000
00000000
10010000
,
10000000
00010000
10000000
00100000
,
10000000
00100000
10000000
00010000
,
01000000
00010000
00100000
00001000
,
00010000
00000000
00000000
00000000
00000000
00000000
00001000
00000000
00000000
00010000
00000000
00000000
00001000
00000000
00000000
00000000
,
00010000
00000010
00001000
00000001
,
00000100
00000010
00001000
00000001
,
00000010
00000100
00001000
00001100
,
00000000
00000100
00000000
00010100
,
00010000
00001000
00010000
00011000
,
00001000
01000000
00100000
10010000
,
10000000
01000000
00100000
00110000
,
00010000
00100000
00001000
00011000
,
00000000
00011000
00000000
00010100
,
00000000
00001100
00000000
00000001
,
00001000
00000001
00001000
00000010
,
00010000
00001000
01000000
00200000
,
00000000
00000000
00300000
10000000
,
00010000
10000000
00010000
10010000
,
10000000
01000000
00010000
01000000
,
00100000
00001000
00010000
00000100
,
00001000
00000100
00000001
00000100
,
00001000
00000100
00010000
00011000
,
00001000
01000000
00100000
01000000
,
00001000
00100000
00010000
00001000
,
00010000
00100000
00001000
01000000
,
00100000
10000000
00000000
10010000
,
10000000
01000000
00010000
00001000
,
00000010
00000001
00001000
00000000
,
00000001
00000100
00001000
00010000
,
00100000
10000000
00010000
10010000
,
10000000
00100000
01000000
01001000
,
00001000
00010000
00000100
00010000
,
00000010
00001000
00000001
00001000
,
00000100
00001000
00000001
00001001
,
00001000
00000020
00010030
00001000
,
00010000
00001000
01000000
00100000
,
00000000
20000000
00000000
30200000
,
00000000
00300000
00000000
10000000
,
00010000
00200000
00310000
00100000
,
00001000
00000000
00010000
00000010
,
00000100
00000000
00000001
00000010
,
00000100
00001000
00000000
00001100
,
00000100
00002000
00003100
00010000
,
00001000
01000000
00100000
10000000
,
00000000
00020000
00000000
02030000
,
00000000
03000000
00000000
00001000
,
00010000
00000010
00000100
00000001
,
00000010
00000100
00001000
00000100
,
00000000
00000000
00010000
00001000
,
00010000
00001000
00000000
01001000
,
00000000
00000000
00000000
10010000
,
00000000
00000000
00000000
10000000
,
00010000
01000000
00001000
00010000
,
00001000
00010000
00000100
00001000
,
00000100
00000001
00000100
00001000
,
00000010
00000100
00000001
00000100
,
00001000
00000100
00000010
00010000
,
00001000
00100000
00010000
10010000
,
10000000
00100000
01000000
10000000
,
01000000
00100000
10000000
01000000
,
00010000
01000000
10000000
00010000
,
00100000
00000000
00000000
00101000
,
00001000
00010000
00001000
00000010
,
00001000
00010000
00000100
00000010
,
00000100
00010000
00001000
00000100
,
00001000
00000001
00001000
00001001
,
00000001
00000100
00001000
00010000
,
00001000
01000000
00100000
01100000
,
01000000
00010000
10000000
00010000
,
01000000
00000000
00000000
10010000
,
00000000
00000000
00000000
00011000
,
00000000
00000000
00000000
00001001
,
00000001
00001000
00000100
01000000
,
00000000
00000100
00000000
01010000
;

//--------------- dance-double - ----------------
#NOTES:
     dance-double:
     :
     Medium:
     12:
     0,0,0,0,0:
00000000
00000000
00000000
00000000
,
00000000
00000000
00000000
00011000
,
00001000
00000000
01000000
00100000
01000000
00000000
00001000
00000000
,
00010000
00000000
00000010
00000100
00000010
00000000
00010000
00000000
,
00000100
00000000
00001000
00000010
00001000
00000000
00000001
00000100
,
00000010
00000000
00010000
00000000
00011000
00000000
00001000
01000000
,
00001000
00010000
00001000
00100000
00001000
00000000
01000000
00100000
,
01000000
00010000
01000000
00001000
01000000
00000000
00100000
10000000
,
00100000
01000000
00100000
10000000
00100000
01000000
00001000
00000000
,
00010000
00000010
00001000
00001001
,
00000001
00001000
00000000
00000010
00001000
00001000
00000010
00000000
,
00010000
00001000
00000000
00010000
00001000
00010000
00001000
00000000
,
01000000
00100000
00000000
01000000
00100000
10000000
00010000
00000000
,
01000000
00000000
00100000
00000000
00000000
00000000
10010000
00000000
00000000
10010000
00000000
00000000
10000000
00000000
00000000
00000000
,
00100000
01000000
00000000
00001000
00010000
00001000
00010000
00000000
,
00000100
00001000
00000000
00000100
00000010
00000001
00000010
00000000
,
00000100
00000000
00010000
00000000
00000000
00000000
00001000
00000000
00010000
00000000
00000000
00000000
00101000
00000000
00000000
00001000
,
00000000
00000000
00100000
00000000
00000000
00010000
00000000
00000000
10000000
00000000
00000000
00000000
10010000
00000000
00000000
00000000
,
10000000
00000000
00000000
10000000
00000000
00000000
10000000
00000000
00000000
00000000
00000000
00000000
00011000
00000000
00000000
00000000
,
00010000
00000000
00000000
00010000
00000000
00000000
00010000
00000000
00000100
00000000
00001000
00000000
00001100
00000000
00000000
00000000
,
00000100
00000000
00000000
00000100
00000000
00000000
00000100
00000000
00001000
00000000
00000000
00000000
00001001
00000000
00000000
00000000
,
00000001
00000000
00000000
00000001
00000000
00000000
00000001
00000000
00002000
00000000
00000000
00000000
00003001
00000000
00000000
00000100
,
00000000
00000000
00001000
00000000
00000100
00000000
00000000
00000010
00000000
00000000
00001000
00000000
00000100
00000000
00000000
00010000
,
00000000
00000000
01000000
00000000
00100000
00000000
00000000
10000000
00000000
00000000
00010000
00000000
10000000
00000000
01000000
00000000
,
00100000
00010000
00100000
00001000
00010000
00000100
00010000
00000100
,
00001000
00000100
00000010
00000100
00001000
00000000
00002002
00000000
,
00000000
00000000
00003003
00000010
,
00010000
00000000
00000100
00000000
00010000
00000000
00001000
00100000
,
00100000
00000000
00000000
00010000
00000000
00000000
10000000
00000000
00100000
00000000
00100000
00000000
00000000
00000000
10000000
00000000
,
10000000
00000000
00000000
00100000
00000000
00000000
10000000
00000000
01000000
00000000
01000000
00000000
00000000
00000000
00100000
00000000
,
00010000
00000000
00000000
00100000
00000000
00000000
00001000
00000000
00010000
00000000
00010000
00000000
00000100
00000000
00001000
00000000
,
00000100
00000000
00000000
00001000
00000000
00000000
00000001
00000000
00000100
00000000
00000000
00000000
00000001
00000000
00001000
00000000
,
00001000
00000000
00000000
00000010
00000000
00000000
00010000
00000000
00001000
00000000
00001000
00000000
00000000
00000000
01000000
00000000
,
01000000
00000000
00000000
00100000
00000000
00000000
10000000
00000000
01000000
00000000
01000000
00000000
00000000
00000000
00100000
00000000
,
00010000
00000000
00000000
00100000
00000000
00000000
00001000
00000000
00010000
00000000
00010000
00000000
00001000
00000000
00100000
00000000
,
00001000
00000000
00000000
00010000
00000000
00000000
00000010
00000000
00010000
00000000
00000000
00000000
00000001
00000000
00000100
00000000
,
00001000
00000000
00000000
00000100
00000000
00000000
00000010
00000000
00001000
00000000
00000000
00000000
00000100
00000000
00010000
00000000
,
00001000
00000000
00000000
00100000
00000000
00000000
00001000
00000000
00100000
00000000
00010000
00000000
10000000
00000000
00100000
00000000
,
00010000
00000000
00000000
00100000
00000000
00000000
01000000
00000000
00100000
00000000
00100000
00000000
10000000
00000000
00010000
00000000
,
10000000
00000000
00000000
01000000
00000000
00000000
00100000
00000000
00010000
00000000
00000000
00000000
00110000
00000000
00000000
00000000
,
00100000
00000000
00000000
00001000
00000000
00000000
00010000
00000000
00000100
00000000
00000000
00000000
00001000
00000000
00000001
00000000
,
00001000
00000000
00000010
00000000
00001010
00000000
00001000
00000100
,
00000010
00000100
00001000
00000001
00001000
00000001
00002000
00000000
,
00000000
00003010
00001000
00001010
,
00000010
00200000
00310000
10000000
,
00200000
00300000
01000000
00001000
,
01000000
00001000
00000000
00010000
00001000
00000000
00002000
00000000
,
00000000
00000000
00003000
00010000
,
00000001
00020000
00031000
00100000
,
00001000
00010000
00000200
00010300
,
00001000
01000000
00000000
00010000
00100000
01000000
10000000
00000000
,
00010000
02000000
03000000
10010000
,
10000000
00000000
01000000
00010000
00001000
00000000
00000010
00000000
,
00000002
00000003
00001000
00000001
,
00001000
00000100
00002000
00000000
00000000
00000000
00003010
00000000
,
00010000
00001000
00000000
01000000
00100000
00000000
10100000
00000000
,
10000000
00002000
00103000
00001000
,
00010000
00000100
00000000
00001000
00000010
00000000
00001010
00000000
,
00001000
00000100
00000000
00000010
00000001
00001000
00000010
00000000
,
00001000
00000001
00001000
00001001
,
00000010
00010000
00000010
00010010
,
00010000
00001000
00010000
00011000
,
00001000
00000000
01000000
00000000
00010000
10000000
00010000
00000000
,
00100000
00020000
01030000
01010000
,
00010000
00000000
00000000
00000000
10000000
00000000
00000000
00010000
00000000
00000000
02000000
00000000
00000000
00000000
03001000
00000000
,
00000000
00000000
00000000
00000000
00010000
00000000
00000000
00000010
00000000
00000000
00002000
00000000
00000000
00000000
00003001
00000000
,
00000000
00000000
00000000
00000000
00010000
00000000
00000000
00001000
00000000
00000000
00200000
00000000
00000000
00000000
00310000
00000000
,
10000000
00000000
00000000
00100000
00000000
00000000
10000000
00000000
00010000
00000000
00000000
00000000
00110000
00000000
00000000
00000000
,
00100000
00000000
00000000
00000000
00001000
00000000
00000000
00010000
00000000
00000000
00000020
00000000
00000000
00000000
00001030
00000000
,
00000000
00000000
00000000
00000000
00000001
00000000
00000000
00000010
00000000
00000000
00000200
00000000
00000000
00000000
00000310
00000000
,
00000000
00000000
00000001
00001000
00000100
00010000
00001000
00000000
,
00100000
00000000
00001000
00000000
01000000
00000000
00010000
10000000
,
00010000
00000000
00000000
00000000
10000000
00000000
00000000
00100000
00000000
00000000
02000000
00000000
00000000
00000000
03001000
00000000
,
00000000
00000000
00000000
00000000
00010000
00000000
00000000
00000100
00000000
00000000
00000020
00000000
00000000
00000000
00000130
00000000
,
00000000
00000000
00000000
00000000
00001000
00000000
00000000
00000001
00000000
00000000
00000200
00000000
00000000
00000000
00000310
00000000
,
00010000
00000000
00000000
00010000
00000000
00000000
00001000
00000000
01000000
00000000
00100000
00000000
10000000
00000000
00100000
00000000
,
00010000
00000000
00001000
00000000
00010000
00000000
00000000
00000010
00000000
00000000
00002000
00000000
00000000
00000000
00003010
00000000
,
00000100
00000000
00000000
00000000
00000001
00000000
00000000
00000100
00000000
00000000
00002000
00000000
00000000
00000000
00003100
00000000
,
00000010
00000000
00000000
00000000
00010000
00000000
00000000
00001000
00000000
00000000
01000000
00000000
00100000
00000000
00000000
00000000
,
10000000
00000000
00000000
00000000
00010000
00000000
00000000
00100000
00000000
00000000
00001000
00000000
00010000
00000000
00000000
00000000
,
00000010
00000000
00000000
00010000
00000000
00010000
00000000
00010000
00000000
00000000
00000100
00000000
00010100
00000000
00000000
00010000
,
00000000
00000000
00000010
00000000
00001000
00000000
00000000
00000000
00000020
00000000
00000000
00000000
00001000
00000030
00000100
00000000
,
00001000
00000100
00000010
00000001
00001000
00000010
00010000
00000000
,
00001000
01000000
00100000
22000000
,
00000000
33000000
00000000
00000000
;

//--------------- dance-double - XO ----------------
#NOTES:
     dance-double:
     XO:
     Hard:
     15:
     0,0,0,0,0:
00000000
00000000
00000000
00000000
,
00000000
00000000
00000000
00000000
00000000
00000000
00011000
00001000
,
01000000
00100000
00010000
00100000
01000000
00010000
10000000
00100000
,
01000000
00100000
00010000
00100000
01000000
00001000
00010000
00000100
,
00001000
00000100
00000010
00000100
00010000
00001000
00010000
00000010
,
00000100
00000010
00001000
00000010
00001010
00000000
00000101
00000001
,
00000100
00000010
00000001
00000010
00000100
00000010
00010000
00001000
,
00010000
00001000
00000100
00001000
00010000
00001000
01000000
00100000
,
01000000
00010000
10000000
01000000
00100000
00010000
10010000
00000000
,
00100000
00000000
00000000
00000000
02000000
00000000
00000000
00000000
03001000
00000000
00000000
00000000
00010000
00001000
00000000
00010000
,
00001000
00000000
00010000
00000000
00000000
00000010
00000100
00000000
00000010
00000000
00001000
00000000
00000001
00000000
00000000
00001000
,
00000100
00000000
00001000
00000000
00000000
00000010
00001000
00000000
00000100
00000000
00001000
00000000
00000001
00000100
00000000
00000010
,
00001000
00000000
00000010
00000000
00000000
00010000
00001000
00000000
00010000
00000000
00001000
00000000
01000000
00000000
00000000
00100000
,
01000000
00000000
00100000
00000000
00000000
00000000
10100000
00000000
00000000
01100000
00000000
00000000
01010000
00000000
00000000
00010000
,
01000000
00000000
00100000
00000000
00000000
01000000
00010000
00000000
01000000
00000000
00001000
00000000
00010000
00000000
00000000
00000100
,
00001000
00000000
00000100
00000000
00000000
00001000
00000100
00000000
00000010
00000000
00000001
00000000
00001000
00000000
00000000
00000010
,
00001000
00000000
00000100
00000000
00000000
00010000
00001000
00000000
00010000
00000000
00001000
00000000
00011000
00000000
00000000
00010000
,
00000000
00000000
00001000
00000000
00000000
01000000
00000000
00000000
00100000
00000000
00000000
00000000
10020000
00000000
00000000
00000000
,
10030000
00000000
00000000
10000000
00000000
00000000
10000000
00000000
00010000
00000000
00100000
00000000
00102000
00000000
00000000
00000000
,
00013000
00000000
00000000
00000010
00000000
00000000
00000100
00000000
00000001
00000000
00001000
00000000
00001200
00000000
00000000
00000000
,
00001300
00000000
00000000
00000010
00000000
00000000
00010000
00000000
00001000
00000000
00100000
00000000
00102000
00000000
00000000
00000000
,
01003000
00000000
00000000
00100000
00000000
00000000
10000000
00000000
00020000
00000000
00030000
00000000
10010000
00000000
00000000
10000000
,
00000000
00000000
00100000
00000000
01100000
00000000
00000000
01000000
00000000
00000000
00001000
00000000
00011000
00000000
00000000
00010000
,
00000000
00000000
00000100
00000000
00001100
00000000
00000000
00001000
00000000
00000000
00000100
00000000
00000010
00000000
00000001
00000000
,
00000010
00000000
00000001
00000000
00001000
00000000
00000010
00000000
00000100
00000000
00000010
00000000
00010000
00001000
00010000
00000000
,
00001000
00100000
00001000
00000000
00100000
00010000
00100000
00000000
00010000
10000000
00010000
00000000
20020000
00000000
00000000
00000000
,
00000000
00000000
30030000
01000000
,
00001000
00010000
00001000
00010000
00000100
00000000
00010000
00001000
,
00000010
00000000
00000000
00001000
00000000
00000000
00010000
00000000
00000010
00000000
00000010
00000000
00001000
00000000
00000001
00000000
,
00000010
00000000
00000000
00001000
00000000
00000000
00010000
00000000
00001000
00000000
00001000
00000000
01000000
00000000
00100000
00000000
,
00010000
00000000
00000000
00100000
00000000
00000000
01000000
00000000
00010000
00000000
00010000
00000000
10000000
00000000
01000000
00000000
,
00100000
00000000
00010000
00100000
00000000
00001000
00010000
00000000
00000100
00000000
00000100
00000000
00001000
00000000
00000010
00000000
,
00000100
00000000
00000000
00001000
00000000
00000000
00000100
00000000
00000010
00000000
00010000
00000000
00001000
00000000
00001000
00000000
,
00100000
00000000
00000000
00001000
00000000
00000000
00000010
00000000
00001000
00000000
00100000
00000000
00001000
00000000
00010000
00000000
,
00000100
00000000
00000000
00000010
00000000
00000000
00001000
00000000
00000010
00000000
00000100
00000000
00001000
00000000
00000100
00000000
,
00010000
00000000
00001000
01000000
00000000
00001000
00100000
00000000
00001000
00000000
00000000
00000000
00010100
00000000
00000100
00000000
,
00010000
00000000
00000000
00001000
00000000
00000000
00010000
00000000
00100000
00000000
01000000
00000000
00100000
00000000
00010000
00000000
,
01000000
00000000
00000000
00001000
00000000
00000000
00010000
00000000
00000010
00000000
00000010
00000000
00001000
00000000
00000100
00000000
,
00000001
00000000
00000000
00000100
00000000
00000000
00000010
00000000
00000100
00000000
00001000
00000000
00000100
00000000
00010000
00000000
,
00000010
00000000
00001000
00000100
00000000
00000010
00000100
00000000
00001000
00000000
00000010
00000000
00010010
00000000
00010000
00000000
,
00001000
00000000
00100000
00010000
00000000
00100000
00001000
00000000
01000000
00000000
01000000
00000000
00100000
00000000
10000000
00000000
,
01000000
00000000
00100000
00010000
00000000
00100000
00001000
00000000
00010000
00000000
00001000
00000000
01000000
00000000
00100000
00000000
,
01000000
00000000
00100000
00000000
10000000
00010000
10000000
00010000
01000000
00100000
01000000
00010000
01000000
00000000
00010000
00000000
,
00100000
00001000
00100000
00000000
00001000
00000000
00011000
00000000
,
00010000
00000020
00100030
00001000
,
00010000
00000200
01000300
00001000
,
00010000
00000010
00001000
00000010
00010000
00000000
00002000
00000000
,
00000100
00000100
00000000
00010000
00013000
00000000
00001000
00000000
,
01000000
00100000
20000000
00010000
30010000
00000000
02000000
00000000
,
03001000
00010000
00000200
00000000
00010300
00000000
00000200
00000000
,
00010300
00001000
00000000
00010000
00000010
00000100
00000002
00000000
,
00001003
00010000
00000000
10010000
,
10000000
00010000
10000000
01000000
01000000
00100000
00020000
00000000
,
00130000
00001000
00000000
00010000
00000100
00000000
00002000
00000000
,
00003001
00000100
00000002
00000100
00000103
00000010
00001000
00000000
,
00000100
00010000
00000000
00001000
00020000
00000000
00031000
00000000
,
01000000
00100000
20000000
00010000
30010000
00000000
02000000
00000000
,
03001000
00010000
00000000
00001000
00100000
00000000
00001000
00000000
,
00010000
00000010
00000000
00001000
00000100
00000010
00000001
00000000
,
00000200
00000320
00000030
00001010
,
00000010
00010000
00000010
00000110
,
00000100
00000001
00000100
00000101
,
00000001
00000000
00001000
00000100
00010000
00001000
00010000
00000000
,
00002000
00000000
02003000
00000000
03100000
00000000
10100000
10000000
,
00100000
00000000
01000000
00000000
00010000
00100000
00000000
00010000
00000000
00100000
00002000
00000000
00000000
00000000
00013000
00000000
,
00000000
00000000
00000100
00000000
00001000
00000001
00000000
00001000
00000000
00000010
00000200
00000000
00000000
00000000
00000301
00000000
,
00000000
00000000
00001000
00000000
00000100
00000010
00000000
00000001
00000000
00000010
00000200
00000000
00000000
00000000
00010300
00000000
,
00001000
01000000
00000000
00020000
00000000
00000000
10030000
00000000
01000000
00000000
00100000
00000000
00010000
00000000
01000000
00000000
,
00010000
00000000
00100000
00000000
00001000
00010000
00000000
00001000
00000000
00010000
00000020
00000000
00000000
00000000
00001030
00000000
,
00000000
00000000
00000100
00000000
00000010
00000100
00000000
00001000
00000000
00000001
00002000
00000000
00000000
00000000
00003010
00000000
,
00000000
00000000
00010000
00000000
00001000
01000000
00000000
00010000
00000000
01000000
00200000
00000000
00000000
00000000
10300000
00000000
,
00010000
00000000
10000000
00000000
00100000
00000000
00000000
10000000
00000000
00000000
00010000
00000000
01000000
00000000
01000000
00000000
,
00001000
00000000
00010000
00000000
00000100
00001000
00000000
00000100
00000000
00001000
00000002
00000000
00000000
00000000
00000103
00000000
,
00000000
00000000
00000010
00000000
00010000
00001000
00000000
00010000
00000000
00000100
00020000
00000000
00000000
00000000
00030100
00000000
,
00000000
00000000
00010000
00000000
00001000
00100000
00000000
00010000
00000000
00100000
00002000
00000000
00000000
00000000
10003000
00000000
,
00100000
01000000
00000000
00020000
00000000
00000000
00130000
00000000
00010000
00000000
00100000
00001000
00100000
00000000
00001000
00000000
,
00010000
00000000
00000100
00001000
00000100
00001000
00000000
00000100
00000000
00001000
00000020
00000000
00000000
00000000
00000100
00000030
,
00000000
00000000
00000001
00001000
00000001
00001000
00000000
00000010
00000000
00001000
00000002
00000000
00000000
00000000
00000103
00000000
,
00000000
00000000
00000010
00010000
00000010
00010000
00000000
00001000
00000000
00010000
00000200
00000000
00000000
00000000
00001300
00000000
,
00000100
00000000
00010000
00000000
00001000
00000000
00000000
00100000
00000000
00000000
00010000
00000000
10010000
00000000
00000000
00000000
,
10000000
00000000
00000000
01000000
00000000
01000000
00000000
01000000
00000000
00000000
10000000
00000000
10010000
00000000
00000000
00010000
,
00000000
00100000
00001000
00000000
00010000
00000000
00010100
00000100
,
00001000
00000000
00000001
00000000
00001000
00000100
00010000
00000100
00010000
00000100
00001000
00000100
00000010
00000000
00000100
00000000
,
00001000
00000100
00010000
00001000
00010000
00000000
00002020
00000000
,
00000000
00003030
00000000
00000000
;
