#VERSION:0.83;
#TITLE:Mirrors;
#SUBTITLE:;
#ARTIST:Caravan Palace;
#TITLETRANSLIT:;
#SUBTITLETRANSLIT:;
#ARTISTTRANSLIT:;
#GENRE:;
#CREDIT:;
#MUSIC:Mirrors.ogg;
#BANNER:BR2024-bn.png;
#BACKGROUND:BR2024-bg.png;
#JACKET:;
#DISCIMAGE:;
#CDIMAGE:;
#SELECTABLE:YES;
#LYRICSPATH:;
#CDTITLE:;
#SAMPLESTART:47.820;
#SAMPLELENGTH:15.610;
#OFFSET:0.96;
#BPMS:0.000=123.000;
#STOPS:;
#WARPS:;
#DELAYS:;
#SPEEDS:;
#SCROLLS:;
#TICKCOUNTS:;
#TIMESIGNATURES:;
#LABELS:;
#COMBOS:;
#FAKES:;
#BGCHANGES:;
#FGCHANGES:;
#ATTACKS:;

//---------------dance-single - XO DS- FS----------------
#NOTEDATA:;
#CHARTNAME:;
#CHARTSTYLE:;
#CREDIT:Talkion;
#STEPSTYPE:dance-single;
#DESCRIPTION:XO DS- FS-;
#DIFFICULTY:Hard;
#METER:12;
#METERF:12;
#RADARVALUES:0,0,0,0,0;
#NOTES:
// measure 0
0000
0000
0000
0000
,  // measure 1
0000
0000
0000
0000
,  // measure 2
0000
0000
0000
0000
,  // measure 3
0000
0000
0000
0000
,  // measure 4
0000
0000
0000
0000
0000
1000
0100
1000
,  // measure 5
0010
0000
0100
0000
0001
1000
0100
1000
,  // measure 6
0010
0000
0100
0000
0001
0010
0010
0001
,  // measure 7
1000
0000
0010
0000
0100
1000
0100
0010
,  // measure 8
1000
0000
0001
0000
0100
0010
0100
0001
,  // measure 9
0010
0000
0001
0000
0100
0010
0100
0001
,  // measure 10
0010
0000
0100
0012
0003
0100
0010
1000
,  // measure 11
0001
0000
0010
0000
0100
0001
0100
0010
,  // measure 12
0001
0000
1000
0000
0100
0010
0100
1000
,  // measure 13
0010
0000
0000
0000
0100
000M
0200
0000
0300
0000
1000
0000
0100
0000
1000
0000
,  // measure 14
0010
0000
0000
0000
0100
000M
0200
0000
0300
0000
0000
0000
1000
0000
0100
0000
,  // measure 15
0010
0000
0000
0000
0100
000M
0200
0000
0300
0000
0010
0000
0001
0000
0010
0000
,  // measure 16
0100
0000
0000
0000
0010
M000
0020
0000
0030
0000
0001
0000
1000
0000
0100
0000
,  // measure 17
0010
0000
0000
0000
0100
M000
0200
0000
0300
0000
0001
0000
0100
0000
0001
0000
,  // measure 18
0010
0000
0000
0000
0100
M000
0201
0000
0300
0000
0100
0000
0001
0000
1000
0000
,  // measure 19
0010
0000
0000
0000
0100
000M
0200
0000
0300
0000
0010
0000
1000
0000
0010
0000
,  // measure 20
0100
0000
0000
0000
0010
000M
0020
0000
0030
0000
0000
0000
1000
0000
0000
0000
,  // measure 21
0001
0101
1000
1100
,  // measure 22
0001
0100
0010
0000
1000
0100
0010
0000
,  // measure 23
0001
1000
0010
1000
0100
0010
0001
1000
,  // measure 24
0100
0010
0001
1000
0001
1000
0010
0100
,  // measure 25
0002
0010
1003
0001
2000
0010
3001
0200
,  // measure 26
0320
0100
1030
0001
0020
0130
0010
0002
,  // measure 27
2003
0010
3001
1000
0002
0010
1003
0200
,  // measure 28
0320
0100
0031
1000
0020
0130
0010
1000
,  // measure 29
0002
0010
1003
0010
0120
0100
1030
0001
,  // measure 30
0012
0010
1003
0010
0200
0301
0010
0200
,  // measure 31
2300
0100
3001
1000
0002
0100
1003
0020
,  // measure 32
0230
0010
0301
1000
0200
0310
0001
0000
,  // measure 33
1002
0000
0000
0203
0000
0000
0310
0000
0000
1000
0000
1000
0000
0000
0100
0000
,  // measure 34
0010
0000
0000
0100
0000
0000
1000
0000
0020
0000
0000
0130
0000
0100
0000
0000
,  // measure 35
0201
0000
0000
0010
0000
0000
0301
0000
1200
0000
0000
0010
0000
0000
1300
0000
,  // measure 36
0001
0000
0000
0200
0000
0000
0310
0000
1000
0000
0001
0000
0100
00M0
0100
0000
,  // measure 37
2000
0000
0000
3200
0000
0000
0310
0000
0000
0001
0000
0001
0000
0000
0100
0000
,  // measure 38
0010
0000
0000
0100
0000
0000
0001
0000
0020
0000
0000
0130
0000
0100
0000
0000
,  // measure 39
1200
0000
0000
0010
0000
0000
1300
0000
0201
0000
0000
0010
0000
0000
0301
0000
,  // measure 40
1000
0000
0000
0100
0000
0000
0010
0000
0001
0010
0M00
0010
1000
0000
0000
0000
,  // measure 41
1001
0001
0100
0010
,  // measure 42
1000
0000
0001
0000
0010
0000
0200
0010
,  // measure 43
1300
0001
0100
0010
,  // measure 44
0100
0000
0000
0000
0001
0000
0000
0000
1000
0010
0M00
0010
0001
0000
1000
0000
,  // measure 45
0100
1000
0001
0100
0020
0000
2030
0000
,  // measure 46
3001
0000
0010
0100
1000
0001
0200
0010
,  // measure 47
0301
1000
0001
0010
0200
0000
2300
0000
,  // measure 48
3001
0000
0000
0000
0100
0000
0010
0000
1000
0000
0001
0000
0010
0M00
0010
0000
,  // measure 49
1000
0000
0001
0000
1000
0000
0100
0000
0020
0000
0000
0000
2030
3000
0000
0000
,  // measure 50
0010
0000
0100
0000
1000
0000
0001
0000
0100
0000
0020
0000
0002
0003
0130
0000
,  // measure 51
0010
0000
1000
0000
0001
0000
0010
0000
0200
0000
0000
0000
0302
0003
0000
0000
,  // measure 52
0100
0000
0010
0000
0001
0000
1000
0000
0010
0000
0100
0000
2000
3000
0100
0000
,  // measure 53
0010
0000
1000
0000
0010
0000
1000
0000
0100
0000
0010
0000
2000
3000
0010
0000
,  // measure 54
0100
0000
1000
0000
0100
0000
1000
0000
0010
0000
0100
0000
2000
3000
0100
0000
,  // measure 55
0001
0000
0010
0000
2000
3000
0010
0000
0001
0000
0100
0000
2000
3000
0100
0000
,  // measure 56
0001
1000
0001
1000
0001
1000
0100
0010
,  // measure 57
0002
0100
1003
0001
2000
0100
3001
0020
,  // measure 58
0230
0010
1300
0001
0200
0310
0100
0002
,  // measure 59
2003
0100
3001
1000
0002
0100
1003
0020
,  // measure 60
0230
0010
0301
1000
0200
0310
0100
1000
,  // measure 61
0002
0100
1003
0100
0210
0010
1300
0001
,  // measure 62
0102
0100
1003
0100
0020
0031
0100
0020
,  // measure 63
2030
0010
3001
1000
0002
0010
1003
0200
,  // measure 64
0320
0100
0031
1000
0020
0130
0001
0000
,  // measure 65
1002
0000
0000
0023
0000
0000
0130
0000
0000
1000
0000
1000
0000
0000
0010
0100
,  // measure 66
0010
0000
1000
0000
0001
0000
0001
0000
0010
0000
0000
0100
0000
0100
0000
0000
,  // measure 67
1200
0000
0000
0010
0000
0000
1300
0000
0201
0000
0000
0010
0000
0000
0301
1000
,  // measure 68
0100
0000
0100
0010
0000
0000
0100
0000
1000
0000
0001
0000
0010
0M00
0010
0000
,  // measure 69
2000
0000
0000
3020
0000
0000
0130
0000
0000
0001
0000
0001
0000
0000
0010
0100
,  // measure 70
0010
0000
0001
0000
1000
0000
1000
0000
0010
0000
0000
0100
0000
0100
0000
0000
,  // measure 71
0201
0000
0000
0010
0000
0000
0301
0000
1200
0000
0000
0010
0000
0000
1300
0001
,  // measure 72
0100
0000
0100
0000
0010
0000
1000
0000
0001
0100
00M0
0100
1000
0000
0000
0000
,  // measure 73
1001
0000
0000
0000
;

//---------------dance-single - FS- JU- RH- SS- XO----------------
#NOTEDATA:;
#CHARTNAME:;
#CHARTSTYLE:;
#CREDIT:Talkion;
#STEPSTYPE:dance-single;
#DESCRIPTION:FS- JU- RH- SS- XO-;
#DIFFICULTY:Challenge;
#METER:15;
#METERF:15;
#RADARVALUES:0,0,0,0,0;
#NOTES:
// measure 0
0000
0000
0000
0000
,  // measure 1
0000
0000
0000
0000
,  // measure 2
0000
0000
0000
0000
,  // measure 3
0000
0000
0000
0000
,  // measure 4
0000
0000
0000
0000
0000
1000
0100
1000
,  // measure 5
0010
0000
0100
0000
0000
0000
0001
0000
1000
0000
0100
0010
0100
0000
1000
0000
,  // measure 6
0010
0000
0100
0000
0000
0000
0001
0000
1000
0000
0100
0000
0100
0000
0010
0001
,  // measure 7
0100
0000
0001
0000
0000
0000
1000
0000
0100
0000
0001
0000
0100
0010
0100
1000
,  // measure 8
0002
0000
0000
0103
0010
0000
1000
0000
0001
0010
0001
0000
1000
0000
0010
0000
,  // measure 9
0100
0000
0010
0000
0000
0000
1000
0000
0001
0000
0010
0100
0010
0000
0001
0000
,  // measure 10
0100
0010
0000
2001
3001
0000
0010
0001
,  // measure 11
0100
0000
0010
0000
0000
0000
0100
0000
1000
0100
0010
0100
0001
0000
1000
0000
,  // measure 12
0200
0000
0000
0310
0001
0000
1000
0000
0010
0100
0001
0100
0010
0000
1000
0000
,  // measure 13
0100
0000
1000
0000
0010
0M00
0020
0000
0031
0000
1000
0100
0010
0000
0001
0000
,  // measure 14
0100
0000
0001
0000
0010
0M00
0020
0000
1030
0000
0010
0000
0100
0000
0001
0000
,  // measure 15
0010
0000
0001
0000
0100
M000
0200
0000
0310
0000
1000
0000
0010
0100
1000
0000
,  // measure 16
0002
0000
0000
0103
0010
M000
0020
0000
0031
1000
0001
0000
0100
0000
0010
0000
,  // measure 17
0100
0000
0001
0000
0010
0M00
0020
0000
1030
0000
0001
0100
0010
0000
1000
0000
,  // measure 18
0100
0000
1000
0000
0010
0M00
0012
0000
1003
0000
0100
0000
0010
0000
0001
0000
,  // measure 19
0100
0000
0001
0000
0010
M000
0020
0000
0130
0010
0001
0010
0100
0010
1000
0000
,  // measure 20
0002
0000
0000
0013
0100
M000
0200
0000
0301
1000
0001
0000
0100
0010
1000
0000
,  // measure 21
0001
0011
1000
1010
,  // measure 22
0001
0000
0010
0000
0100
0000
0010
0000
0001
1000
0001
0000
0100
0000
0010
0000
,  // measure 23
1000
0001
0000
0010
0100
0010
0001
0000
0100
0010
1000
0001
0000
0001
0000
0000
,  // measure 24
0100
0010
2000
0001
0000
0100
0000
0001
0000
0100
0000
3002
0000
0000
0010
0000
,  // measure 25
2003
0000
0010
0000
3100
0010
0001
0000
0200
0000
0301
1000
0100
0010
0001
0000
,  // measure 26
2000
0000
0010
0000
3100
0010
0100
0000
1000
0000
0001
0000
0100
0010
2000
0000
,  // measure 27
3002
0000
0100
0000
0013
0000
0010
0000
0200
0000
1300
0001
0100
0001
0010
0000
,  // measure 28
0200
0000
1300
0001
0100
0010
0100
0000
0001
0000
1000
0000
0100
0010
0001
0000
,  // measure 29
2000
0000
0100
0000
3010
0100
0001
0000
1100
0000
0001
1000
0010
0100
0001
0000
,  // measure 30
1100
1000
0001
1000
0010
0100
0001
0000
0010
0000
0001
0100
0010
1000
0002
0000
,  // measure 31
2003
0000
0100
0000
3010
0000
0010
0000
0200
0000
0301
1000
0100
1000
0010
0000
,  // measure 32
0200
0000
0301
1000
0100
0010
0100
0000
1000
0000
0010
0100
2000
3200
0310
0000
,  // measure 33
2010
0000
0000
0001
0000
0000
3200
0010
0000
1000
0000
0310
0000
0010
0001
1000
,  // measure 34
0010
0100
0000
0001
0100
0010
1000
0000
0100
0010
0100
1000
0000
1000
0000
0001
,  // measure 35
0200
0000
0000
0010
0000
0000
0301
0000
1200
0000
0000
0010
0000
0000
1300
0001
,  // measure 36
0100
0010
0000
1000
0010
0100
0001
0000
1000
0100
0010
0100
0001
M000
0001
0000
,  // measure 37
0012
0000
0000
1000
0000
0000
0203
0010
0000
0001
0000
0310
0000
0010
1000
0001
,  // measure 38
0010
0100
0000
1000
0100
0010
0001
0000
0100
0010
0100
0001
0000
0001
0000
1000
,  // measure 39
0200
0000
0000
0010
0000
0000
1300
0000
0201
0000
0000
0320
0000
1030
0001
1000
,  // measure 40
0100
0010
0000
0001
0010
0100
1000
0000
0010
0001
M000
0001
0100
0000
0010
0000
,  // measure 41
1001
0000
0000
0000
0000
0000
0000
0000
0000
0000
0000
0000
0000
0000
0000
0000
1000
0000
0000
0000
0000
0000
0000
0000
0001
0000
0000
0000
0000
0010
0000
0000
0000
0000
0000
0000
0000
0010
0000
0000
0000
0000
0000
0000
0000
0000
0000
0000
0100
0000
0000
0000
0000
0000
0000
0000
0000
0000
0000
0000
0000
0000
0000
0000
,  // measure 42
1000
0000
0000
0000
0000
0000
0000
0000
0000
0000
0000
0000
0000
0000
0000
0000
0001
0000
0000
0000
0000
0000
0000
0000
0100
0000
0000
0000
0000
0010
0000
0000
0000
0000
0000
0000
0000
0010
0000
0000
0000
0000
0000
0000
0000
0000
0000
0000
1000
0000
0000
0000
0000
0001
0000
0000
0010
0000
0000
0000
0000
0001
0000
0000
,  // measure 43
1000
0000
0000
0000
0000
0000
0000
0000
0000
0000
0000
0000
0000
0000
0000
0000
0010
0000
0000
0000
0000
0000
0000
0000
0100
0000
0000
0000
0000
0001
0000
0000
0000
0000
0000
0000
0000
0001
0000
0000
0000
0000
0000
0000
0000
0000
0000
0000
1000
0000
0000
0000
0000
0000
0000
0000
0000
0000
0000
0000
0000
0000
0000
0000
,  // measure 44
0100
0000
0000
0000
0010
0000
0100
0000
0002
0000
M003
0001
0010
0000
0110
0000
,  // measure 45
1001
0001
0100
0010
2000
0000
3002
0000
,  // measure 46
0013
0000
0000
0000
0000
0000
0000
0000
0100
0000
0000
0000
0000
1000
0000
0000
0100
0000
0000
0000
0000
0000
0000
0000
0010
0000
0000
0000
0000
0000
0000
0000
0001
0000
0000
0000
0000
0000
0000
0000
1000
0000
0000
0000
0000
0000
0000
0000
0010
0000
0000
0000
0000
0100
0000
0000
0001
0000
0000
0000
0000
0100
0000
0000
,  // measure 47
0010
1000
0100
0010
0002
0000
2003
0000
,  // measure 48
3010
0000
0000
0000
0000
0000
0000
0000
0100
0000
0000
0000
0000
0001
0000
0000
0100
0000
0000
0000
0000
0000
0000
0000
0010
0000
0000
0000
0000
0000
0000
0000
1000
0000
0000
0000
0000
0000
0000
0000
0100
0000
0000
0000
0000
0000
0000
0000
0001
0000
0000
0000
M000
0000
0000
0000
0001
0000
0000
0000
0000
0000
0000
0000
,  // measure 49
0010
0000
0100
0000
0010
0000
0001
1000
0001
0000
0100
0010
0002
0003
0010
0100
,  // measure 50
0001
0000
0000
0000
0000
0000
0000
0000
1000
0000
0000
0000
0000
0000
0000
0000
0010
0000
0000
0000
0000
0000
0000
0000
1000
0000
0000
0000
0001
0000
0000
0000
1000
0000
0000
0000
0000
0000
0000
0000
0100
0000
0000
0000
0010
0000
0000
0000
2000
0000
0000
0000
3000
0010
0000
0000
0100
0000
0000
0000
0000
0010
0000
0000
,  // measure 51
0001
0000
1000
0000
0100
0000
1000
0001
1000
0000
0010
0100
2000
3000
0100
0010
,  // measure 52
1000
0000
0001
0000
0100
0000
0001
1000
0001
0000
0010
0100
0002
0103
0010
0000
,  // measure 53
0001
0000
1000
0000
0010
0100
0001
0000
1000
0000
0010
0100
2000
3100
0010
0000
,  // measure 54
1000
0000
0001
0000
0010
0100
1000
0000
0001
0000
0010
0100
0002
0103
0010
0000
,  // measure 55
0001
0000
0100
0010
0002
0013
0100
0000
0001
0000
0010
0100
0002
0103
0010
0000
,  // measure 56
0001
0000
0100
0010
1000
0000
0100
0010
0001
0000
0100
0010
2000
0000
0010
0000
,  // measure 57
3002
0000
0010
0000
0103
0010
1000
0000
0200
0000
1300
0001
0100
0010
1000
0000
,  // measure 58
0002
0000
0010
0000
0103
0010
0100
0000
0001
0000
1000
0000
0100
0010
0002
0000
,  // measure 59
2003
0000
0100
0000
3010
0000
0010
0000
0200
0000
0301
1000
0100
1000
0010
0000
,  // measure 60
0200
0000
0301
1000
0100
0010
0100
0000
1000
0000
0001
0000
0100
0010
1000
0000
,  // measure 61
0002
0000
0100
0000
0013
0100
1000
0000
0101
0000
1000
0001
0010
0100
1000
0000
,  // measure 62
0101
0001
1000
0001
0010
0100
1000
0000
0010
0000
1000
0100
0010
0001
2000
0000
,  // measure 63
3002
0000
0100
0000
0013
0000
0010
0000
0200
0000
1300
0001
0100
0001
0010
0000
,  // measure 64
0200
0000
1300
0001
0100
0010
0100
0000
0001
0000
0010
0100
0002
0203
0310
0000
,  // measure 65
0012
0000
0000
0000
0000
0000
0000
0000
0000
1000
0000
0000
0000
0000
0000
0000
0000
0000
0203
0000
0000
0010
0000
0000
0000
0000
0000
0001
0000
0000
0000
0000
0000
0310
0000
0000
0000
0000
0000
0010
0000
0000
1000
0000
0001
0000
0010
0000
,  // measure 66
0100
0000
0100
1000
0001
0000
0001
0000
0100
0010
0100
0001
0000
0001
0000
1000
,  // measure 67
0200
0000
0000
0000
0000
0000
0000
0000
0000
0010
0000
0000
0000
0000
0000
0000
0000
0000
1300
0000
0000
0000
0000
0000
0201
0000
0000
0000
0000
0000
0000
0000
0000
0010
0000
0000
0000
0000
0000
0000
0000
0000
0301
0000
1000
0000
0001
0000
,  // measure 68
0010
0100
0010
0001
0000
1000
0100
1000
0001
0100
0010
0100
1000
000M
1000
0000
,  // measure 69
2010
0000
0000
0000
0000
0000
0000
0000
0000
0001
0000
0000
0000
0000
0000
0000
0000
0000
3200
0000
0000
0010
0000
0000
0000
0000
0000
1000
0000
0000
0000
0000
0000
0310
0000
0000
0000
0000
0000
0010
0000
0000
0001
0000
1000
0000
0010
0000
,  // measure 70
0100
0000
0100
0001
1000
0000
1000
0000
0100
0010
0100
1000
0000
0001
0000
0001
,  // measure 71
0200
0000
0000
0000
0000
0000
0000
0000
0000
0010
0000
0000
0000
0000
0000
0000
0000
0000
0301
0000
0000
0000
0000
0000
1200
0000
0000
0000
0000
0000
0000
0000
0000
0010
0000
0000
0000
0000
0000
0000
0000
0000
1300
0000
0001
0000
1000
0000
,  // measure 72
0010
0100
0001
0010
0100
0010
0001
0100
2000
0000
300M
1000
0010
0000
0100
0000
,  // measure 73
1001
0000
0000
0000
;
