#VERSION:0.83;
#TITLE:Mellann;
#SUBTITLE:;
#ARTIST:The Flashbulb;
#TITLETRANSLIT:;
#SUBTITLETRANSLIT:;
#ARTISTTRANSLIT:;
#GENRE:;
#CREDIT:Braeden;
#MUSIC:mellann.ogg;
#JACKET:jacket.png;
#BANNER:bn.png;
#BACKGROUND:bg.png;
#CDTITLE:;
#SAMPLESTART:56.624;
#SAMPLELENGTH:18.060;
#SELECTABLE:YES;
#OFFSET:0.508;
#BPMS:0.000=105.000;
#STOPS:;
#SPEEDS:0.000=0.700=0.000=0,
13.000=1.000=3.000=0
;
#BGCHANGES:;
#FGCHANGES:;

//--------------- dance-single - ----------------
#NOTEDATA:;
#STEPSTYPE:dance-single;
#DESCRIPTION:;
#DIFFICULTY:Beginner;
#METER:3;
#RADARVALUES:0,0,0,0,0;
#NOTES:
0000
0000
0000
0000
,
0000
0000
0000
0000
,
0000
1000
0000
0001
,
0000
2000
0000
3000
,
0000
0001
0000
0100
,
0000
0010
0000
1000
,
0000
0100
0000
0010
,
0000
0001
0000
0100
,
0000
0010
0000
1000
,
0000
0001
0000
1000
,
0000
0010
0000
0100
,
0000
0001
0000
1000
,
0000
0010
0000
0100
,
0000
0001
0000
0010
,
0000
0100
0000
1000
,
0000
0001
0000
0000
,
0000
0100
0000
0010
,
0000
0100
0000
0001
,
0000
1000
0000
0010
,
0000
1000
0000
0001
,
0000
0100
0000
0010
,
0000
1000
0000
0001
,
0000
1000
0000
0010
,
0000
0100
0000
0001
,
0000
1000
0000
0010
,
0000
0100
0000
0001
,
0000
0010
0000
0001
,
0000
1000
0000
0010
,
0000
0100
0000
0001
,
0000
0010
0000
0001
,
0000
1000
0000
0010
,
0000
0100
0000
0001
,
0000
0010
0000
0001
,
0000
1000
0000
0010
,
0000
0100
0000
0001
,
0000
1000
0000
0001
,
0000
0100
0000
0010
,
0000
0100
0000
0001
,
0000
0010
0000
0100
,
0000
0010
0000
0001
,
0000
1000
0000
0010
,
0000
0100
0000
0001
,
0000
1000
0000
0010
,
0000
0100
0000
0001
,
0000
1000
0000
0001
,
0000
0100
0000
0010
;

//--------------- dance-single - ----------------
#NOTEDATA:;
#STEPSTYPE:dance-single;
#DESCRIPTION:;
#DIFFICULTY:Easy;
#METER:6;
#RADARVALUES:0.709,0,0.265,0.318,0.89;
#NOTES:
0000
0000
0000
0000
,
0000
0000
0000
0000
,
0000
0001
1000
0010
,
0100
0002
0000
0000
,
0003
0000
1000
0000
0001
0000
1000
0100
,
1000
0000
0001
0000
0100
0000
0010
1000
,
0010
0000
1000
0000
0100
0000
0010
0001
,
1000
0000
0010
0000
0100
0000
0001
1000
,
0200
0000
1300
0000
0010
0000
1000
0001
,
1000
0000
0010
0000
0110
0000
0100
0001
,
1000
0000
0001
0000
0101
0000
0100
0001
,
1000
0000
0100
0000
0011
0000
0010
0100
,
0010
0000
1000
0000
1001
0000
0001
0010
,
0100
0000
1000
0000
1001
0000
0001
0100
,
0002
0000
0103
0000
0110
0000
0010
1000
,
0010
0000
0200
0000
0301
0000
1000
0100
,
1000
0000
0001
0000
0110
0000
0100
0001
,
1000
0000
0002
0000
0103
0000
0010
1000
,
0001
0000
1000
0000
0101
0000
0100
0010
,
1000
0000
0001
0000
0110
0000
0100
0010
,
0100
0000
0001
1000
0001
0000
1000
0100
,
1000
0000
0001
0000
0201
0000
0310
1000
,
0100
0000
0010
0000
1001
0000
0001
0010
,
0100
0000
1000
0000
0101
0000
0100
0010
,
1000
0000
0002
0000
0103
0000
0010
0010
,
0100
0000
0001
1000
0001
1000
0010
0000
,
0200
0000
0301
0000
0101
0000
0010
0001
,
0200
0301
1000
0010
,
0100
0000
0001
0000
1001
0000
1000
0010
,
0100
0000
0002
0000
0103
0000
0001
1000
,
0001
0000
2000
0000
3010
0000
0100
0001
,
1000
0000
0001
0000
0200
0000
0301
1000
,
0001
0000
1000
0000
0110
0000
1000
0010
,
1000
0000
0001
0000
1001
0000
1000
0010
,
0100
0000
0001
0010
0001
0000
1000
0010
,
1000
0000
0002
0000
0103
0000
0010
1000
,
0001
0000
0100
0000
1010
0000
1000
0001
,
1000
0000
0001
0000
1001
0000
1000
0100
,
0010
0000
0002
0000
0103
0000
0010
1000
,
0001
1000
0010
0200
,
0301
0000
1000
0000
0001
0000
1000
0001
,
1000
0000
0001
0000
0101
0000
0001
1000
,
0100
1000
0200
0320
,
0031
1000
0001
0100
,
0010
1000
1100
0100
,
0010
0000
0001
1000
0020
0000
1030
0000
,
0200
0300
0000
0000
0000
0000
0000
0000
;

//--------------- dance-single - XO ----------------
#NOTEDATA:;
#STEPSTYPE:dance-single;
#DESCRIPTION:XO;
#DIFFICULTY:Medium;
#METER:11;
#RADARVALUES:0.709,0,0.265,0.318,0.89;
#NOTES:
0000
0000
0000
0000
,
0000
0000
0000
0000
,
0000
1000
0001
0100
,
0010
2000
0000
0000
,
3000
0000
0000
0000
0001
0000
1000
0100
1000
0000
0001
0000
0100
0000
0100
0000
,
0110
0000
0010
0000
1000
0000
0001
0100
0001
0000
1000
0000
0010
0000
0010
0000
,
1010
0000
1000
0000
0001
0000
0100
0010
0100
0000
0001
0000
1000
0000
0100
0000
,
0110
0000
0000
0000
0010
0000
0001
1000
0001
0000
1000
0000
0100
0000
0010
0000
,
0001
0000
1000
0000
0010
0000
1000
0000
0000
0100
0000
0000
0001
0000
0000
0100
0000
0000
0010
0000
0000
0100
0000
0000
,
1000
0000
0010
0000
1000
0000
0001
0100
0001
0000
1000
0000
0100
0000
0010
0000
,
0011
0000
0001
0000
0100
0000
0010
1000
0001
0000
1000
0000
0020
0000
0100
0000
,
0130
0000
0001
0000
1000
0000
0100
0000
0001
0000
0100
0000
1000
0001
1000
0001
,
0010
0000
0100
0000
1000
0000
0001
0100
0010
0000
1000
0000
0001
0000
0100
0000
,
0110
0000
0010
0000
1000
0000
0100
0010
0100
0000
1000
0000
0001
0000
0100
0000
,
0120
0000
1030
0001
1001
1000
0001
0100
,
1000
0100
0010
2000
3002
0000
1003
0010
,
1000
0000
0100
0000
0010
0000
0001
1000
0001
0000
1000
0000
0001
0000
0100
0000
,
0110
0010
1000
0100
0010
0100
1000
0001
,
1000
0000
0010
0000
1000
0000
0100
0010
0001
0000
1000
0000
0010
0000
0100
0000
,
1000
0000
0100
0000
0010
0000
1000
0001
1000
0000
0001
0000
1000
0000
0100
0000
,
1000
1000
0001
0100
1000
0100
0010
1000
,
0001
0200
0310
1000
0100
0020
0031
1000
,
1001
0000
0002
0000
0103
0000
0001
0010
0100
0000
1000
0000
0001
0000
0100
0000
,
1000
0000
0100
0000
0010
0000
1000
0100
0010
0000
0001
0000
0100
0000
0010
0000
,
2000
0000
3100
0010
1000
0010
0100
1000
,
0001
0000
0000
0100
0000
0000
0001
0000
0000
0010
0000
0000
0100
0000
0000
1000
0000
0000
0001
0000
0010
0000
0001
0000
,
0020
0000
0000
0000
0130
0000
1000
0001
1000
0000
0001
0000
0100
0000
0010
0000
,
2010
0000
0000
0000
3010
0000
1000
0100
0020
0000
0000
0000
0031
0000
1000
0000
,
0010
0000
0100
0000
0001
0000
1000
0100
0010
0000
0001
0000
1000
0000
0100
0000
,
0001
0000
0100
0000
1000
0000
0001
1000
0001
0000
0100
0000
0010
0000
1000
0000
,
1002
0000
0013
0100
0001
0100
1000
0001
,
2001
0000
3010
0100
0001
0000
1000
0000
,
0001
0000
0001
0000
0100
0000
0001
1000
0001
0000
1000
0000
0100
0010
0100
0000
,
0010
0000
0001
0000
1000
0000
0010
0000
1000
0000
0001
0000
0100
0000
0010
1000
,
0010
0000
0100
0001
0100
0010
1000
0100
,
0010
0000
0001
0000
1000
0000
0001
0100
0001
0000
0100
0000
0020
0000
0130
0000
,
0101
0000
0000
0000
0010
0000
1000
0100
0010
0000
0001
0000
0100
0000
0010
1000
,
0001
0000
0200
0000
0301
0000
1000
0100
1000
0000
0001
0000
0100
0010
0100
0010
,
2000
0000
0000
0000
3001
0000
0100
0010
0100
0000
0001
0000
1000
0100
0010
0001
,
1000
0000
0010
0000
0100
0000
0001
0010
0100
0000
1000
0000
0002
0000
0003
0000
,
0101
0000
0100
0000
0010
0000
1000
0100
0010
0000
0001
0000
0100
0010
0100
0010
,
0100
0000
0001
0000
1000
0000
0001
0100
0001
0000
1000
0000
0001
0010
0100
0010
,
0001
1000
1010
0000
2010
0000
3020
0230
,
0320
0000
1030
0100
0010
0001
0100
0010
,
1000
0000
0000
0000
0010
0000
0000
0000
1010
0000
1000
0000
0010
0000
0100
0001
,
0100
0000
0000
0000
0000
0000
0010
0000
0000
0000
0000
0000
1000
0000
0000
0000
0000
0000
0100
0000
0000
0010
0000
0000
0001
0000
0000
0000
1000
0000
0000
0000
0001
0000
0000
0000
0010
0000
0000
0000
0000
0000
0010
0000
0000
0000
0000
0000
,
0002
0003
0000
0000
0000
0000
0000
0000
;

//--------------- dance-single - RH BU FS XO JA ----------------
#NOTEDATA:;
#STEPSTYPE:dance-single;
#DESCRIPTION:RH BU FS XO JA;
#DIFFICULTY:Hard;
#METER:16;
#RADARVALUES:0.709,0,0.265,0.318,0.89;
#NOTES:
0000
0000
0000
0000
,
0000
0000
0000
0000
,
0000
1000
0001
0100
,
0010
2000
0000
0000
,
3000
0000
0000
0000
0000
0000
0000
0000
0001
0000
0000
0000
1000
0000
0100
00M0
0100
0000
0001
0000
1000
0000
0100
0000
0010
0000
0010
0000
0001
0000
0001
0000
,
0100
0000
0000
0M00
1000
0000
0000
0000
0001
0000
0000
0000
1000
0000
0010
0M00
0010
0000
0001
0000
1000
0000
0100
0000
0010
0000
0010
0000
0001
0000
1000
0000
,
2001
0000
0000
0000
3001
0000
0000
0000
0010
0000
0000
0000
0001
0000
0100
00M0
0100
0000
1000
0000
0001
0000
0100
0000
0001
0000
0001
0000
1000
0000
1000
0000
,
0100
0000
0000
0000
0000
0000
0000
0000
0000
0M00
0000
0000
0002
0000
0000
0000
0000
0000
0000
0000
0000
0000
0000
0000
1003
0000
0000
0000
0000
0000
0000
0000
0000
0000
0000
0000
0001
0000
0000
0000
0000
0000
0010
0000
0000
0M00
0000
0000
0010
0000
0000
0000
0000
0000
1000
0000
0000
0000
0000
0000
0100
0000
0000
0000
0000
0000
0010
0000
0000
0000
0000
0000
0001
0000
0000
0000
0100
0000
0000
0000
0010
0000
0000
0000
1000
0000
0000
0000
0000
0000
0001
0000
0000
0000
0000
0000
,
1001
0000
0000
0000
0000
0000
0000
0000
0001
0000
0000
2000
0000
0000
0000
0000
0000
0000
3100
0000
0000
0000
0000
0000
0020
0000
0000
0000
0000
0000
0000
0000
0000
0000
0000
0000
0031
0000
0000
0000
1000
0000
0000
0000
0001
0000
0000
0000
0100
0000
0000
0000
00M0
0000
0000
0000
0100
0000
0000
0000
1000
0000
0000
0000
0000
0000
0001
0000
0000
0000
0000
0000
1000
0000
0000
0000
0010
0000
0000
0000
0100
0000
0000
0000
0001
0000
0000
0000
0000
0000
0000
0000
1000
0000
0000
0000
,
0100
0000
0000
0000
0000
0000
0000
0000
0010
0000
0000
0000
0004
0000
0000
0000
0000
0000
0000
0000
0000
0000
0000
0000
2003
0000
0000
0000
0000
0000
0000
0000
0000
0000
0000
0000
3010
0000
0000
0000
0000
0000
0100
0000
0000
00M0
0000
0000
0100
0000
0000
0000
0000
0000
1000
0000
0000
0000
0000
0000
0001
0000
0000
0000
0000
0000
0010
0000
0000
0000
0000
0000
0100
0000
0000
0000
0000
0000
0100
0000
0000
0000
0000
0000
1000
0000
0000
0000
0000
0000
1000
0000
0000
0000
0000
0000
,
0010
0000
0000
00M0
0001
0000
0000
0000
0020
0000
0000
0000
0031
0000
0010
0M00
0010
0000
1000
0000
0001
0000
0100
0000
0001
0000
0010
0000
0001
0000
0000
0000
,
2001
0000
0000
0000
3020
0000
0000
0000
2030
0000
0000
0000
3001
0000
0010
0M00
0010
0000
1000
0001
1000
0000
0000
0000
0001
0010
0100
1000
0001
0000
0100
0000
,
0002
0000
0000
0000
1003
0000
0000
0000
0200
0000
0000
0000
0310
000M
0010
0000
1000
0000
0100
0000
0010
0000
0001
0000
1000
0000
1000
0000
0001
0000
0001
0000
,
0100
0000
0000
0M00
1000
0000
0000
0000
0200
0000
0000
0000
1300
0000
0100
00M0
0100
0000
0001
0000
0010
0000
0100
0000
1000
0000
0001
0000
1000
0000
0100
0000
,
2100
0000
0000
0000
3001
0000
1000
0000
1010
0000
0010
1000
0001
0001
1000
1000
,
0100
0000
0000
0000
0000
0000
0000
0000
0000
0M00
0000
0000
0001
0000
0000
0000
0000
0000
1000
0000
0000
0000
0000
0000
0002
0000
0000
0000
0000
0000
0000
0000
0000
0000
0000
0000
1003
0000
0000
0100
0000
0000
1000
0000
0000
0100
0000
0000
4000
0000
0000
0000
0000
0000
0000
0000
0000
0000
0000
0000
0000
0000
0000
0000
0000
0000
0000
0000
0000
0000
0000
0000
3001
0000
0000
0000
0000
0000
0100
0000
0000
0000
0000
0000
0010
0000
0000
0000
1000
0000
0000
0000
0001
0000
0000
0000
,
0200
0000
0000
0000
0000
0000
0000
0000
0000
0000
0000
0000
0310
0000
0000
0000
1000
0000
0000
0000
0100
0000
0000
0000
2000
0000
0000
0000
0000
0000
0000
0000
0000
0000
0000
0000
3100
0000
0000
00M0
0000
0000
0100
0000
0000
0000
0000
0000
0001
0000
0000
0000
0000
0000
0000
0000
1000
0000
0000
0000
0100
0000
0000
0000
0000
0000
0010
0000
0000
0000
0000
0000
0001
0000
0000
0000
0000
0000
0010
0000
0000
0000
0000
0000
0100
0000
0000
0000
0000
0000
0100
0000
0000
0000
0000
0000
,
1000
0000
0000
0000
0000
0000
0000
0000
0000
M000
0000
0000
0010
0000
0000
0000
0000
0000
0000
0000
0000
0000
0000
0000
0002
0000
0000
0000
0000
0000
0000
0000
0000
0000
0000
0000
1003
0000
0000
0000
0010
0000
0000
0000
0100
0000
0000
0000
0010
0000
0000
0000
0M00
0000
0000
0000
0010
0000
0000
0000
0001
0000
0000
0000
0000
0000
1000
0000
0000
0000
0000
0000
0001
0000
0000
0000
0100
0000
0000
0000
0001
0000
0000
0000
0100
0000
0000
0000
0000
0000
0000
0000
0010
0000
0000
0000
,
1000
0000
0000
0000
0000
0000
0000
0000
0001
0000
0000
0000
0400
0000
0000
0000
0000
0000
0000
0000
0000
0000
0000
0000
0301
0000
0000
0000
0000
0000
1000
0000
0000
0000
0000
0000
0001
0000
0000
0000
0000
0000
0010
0000
0000
0000
0000
0000
1000
0000
0000
0000
0000
0000
0010
0000
0000
0000
0000
0000
0100
0000
0000
0000
0000
0000
1000
0000
0000
0000
0000
0000
0010
0000
0000
1000
0000
0000
0010
0000
0000
1000
0000
0000
0010
0000
0000
0000
0000
0000
0100
0000
0000
0000
0000
0000
,
0001
0000
0000
0000
0020
0000
0030
0000
0002
0000
0000
0000
1003
0000
0100
0000
0001
0000
0100
0000
1000
0000
0001
0000
2000
3000
0000
0000
0001
0000
0000
0000
,
1001
0000
0000
0000
0000
0000
4000
0000
0000
0000
0000
0000
3010
0000
0000
0000
0000
0000
1000
0000
0100
0000
1000
0000
0100
0000
0000
0000
0010
0000
0001
0000
0000
1000
0000
0000
0001
0000
0100
0000
0010
0000
1000
0000
0000
0000
0001
0000
,
1000
0000
0000
0000
0000
0000
0040
0000
0000
0000
0000
0000
0130
0000
0000
0000
0000
0000
0001
0000
0000
1000
0000
0000
1002
0000
0000
0000
0000
0000
0203
0000
0000
0000
0000
0000
0301
0000
0010
0000
0100
0000
1000
0000
0000
0100
0000
0000
,
2100
0000
3020
0000
0230
0000
0301
0010
1000
0010
0100
1000
0001
0001
1000
1000
,
0100
0000
0000
0M00
0001
0000
0000
0000
2000
0000
0000
0000
3100
0000
0010
0000
1000
0000
0010
0000
0001
0000
1000
0000
0001
0000
0001
0000
1000
0000
0010
0000
,
4010
0000
0000
0000
0000
0000
0000
0000
3002
0000
0000
0000
0103
0000
0000
0000
0101
0000
0001
0000
1000
0000
0010
0000
1000
0001
1000
0001
1000
0000
0100
0000
,
1000
0000
0000
0000
0000
0000
0020
0000
0000
0030
0000
0000
1000
0000
0100
0000
0010
0000
0001
0000
0100
0000
0001
0000
1000
0000
0000
0000
0000
0000
0010
0000
0000
0000
0000
0000
1000
0000
0100
0000
0010
0000
0001
0000
1000
0000
0001
0000
,
1000
0000
0010
0000
0000
0000
0020
0000
0000
0000
0000
0000
2030
0000
0000
0000
0000
0000
3001
0000
0000
0010
0000
0000
1000
0000
0000
0010
0000
0000
0100
0000
0000
1000
0000
0000
0001
0000
0000
0100
0000
0000
0001
0000
0000
0100
0000
0000
,
0004
0000
0000
0000
0000
0000
0000
0000
1003
0000
0010
0000
0001
0000
0010
0000
1000
0000
0100
1000
0200
0000
0000
0000
0310
0000
0001
0000
1000
0000
1000
0000
,
0100
0000
0000
0000
0000
0000
0010
0000
0000
0000
0000
0000
0001
0000
0000
0000
0000
0000
1000
0000
0000
0000
0000
0000
0002
0000
0000
0000
0000
0000
0000
0000
0000
0000
0000
0000
1003
0000
0000
0000
0000
0000
0010
0000
0000
0M00
0000
0000
0010
0000
0000
0000
0000
0000
0001
0000
0000
1000
0000
0000
0001
0000
0000
0000
0000
0000
0000
0000
0200
0000
0000
0000
0000
0000
0000
0000
0000
0000
0000
0000
0000
0000
0000
0000
0310
0000
0000
0000
0000
0000
0000
0000
0000
0000
0000
0000
,
1001
0000
0001
0000
1000
0000
0001
0000
1000
0000
1000
0000
0100
0010
0100
0000
0010
0000
0001
0000
0010
0000
0000
0000
0210
0000
0000
0000
0310
0000
0001
0000
,
1001
0000
0000
0000
0000
0000
0002
0000
0000
0000
1003
0000
0100
0000
0000
1000
0000
0000
0000
0000
0001
0000
0000
0000
1001
0000
0000
1000
0000
0000
0100
0000
0000
1000
0000
0000
0010
0000
0000
0010
0000
0000
0100
0000
0000
0001
0000
0000
,
0200
0000
0000
0000
0310
0000
1000
0000
0001
0010
0001
0000
1000
0000
0000
0000
1001
0000
0000
0000
0002
0000
0000
0000
0103
0000
0010
0000
0100
0000
0010
0000
,
1000
0000
0000
0000
0000
0000
0000
0000
0000
0000
0000
0000
0001
0000
0000
0000
0000
0000
0000
0000
0000
0000
0000
0000
1000
0000
0000
0000
0010
0000
0000
0000
0100
0000
0000
0000
0001
0000
0000
0000
0000
0000
0100
0000
0000
0000
0000
0000
1000
0000
0000
0000
0000
0000
0100
0000
0000
0000
0000
0000
0010
0000
0000
0000
0000
0000
1000
0000
0000
0000
0000
0000
0001
0000
0000
0010
0000
0000
0001
0000
0000
0010
0000
0000
0001
0000
0000
0000
0000
0000
0100
0000
0000
00M0
0000
0000
,
0100
1000
0002
0003
2000
0000
3001
0100
1000
0100
0010
0100
0001
0001
0100
0100
,
0110
0000
0000
0000
0000
0000
0000
0000
0000
0010
0000
0000
1000
0000
0000
0000
0000
0000
0001
0000
1000
0000
0100
0000
0010
0000
000M
0000
0010
0000
0100
0000
0000
0001
0000
0000
1000
0000
0010
0000
0100
0000
0001
0000
0000
0000
1000
0000
,
0010
0000
0000
0000
1000
0000
0040
0000
0000
0000
0000
0000
0130
0000
0000
0000
0000
0000
0001
0000
0000
0100
0000
0000
1000
0000
0000
0100
0000
0000
0020
0000
0000
0000
0000
0000
2030
0000
0000
0000
0000
0000
3001
0000
0000
0000
0000
0000
,
1001
0000
0000
0000
0000
0000
0000
0000
0000
0000
0000
0000
0002
0000
0000
0000
0000
0000
1003
0000
0000
0100
0000
0000
0001
0000
0000
0100
0000
0000
1000
0000
0000
1000
0000
0000
0001
0000
1000
0000
0010
0000
0100
0000
0000
0000
0001
0000
,
1000
0000
0020
0000
2030
0000
3001
0100
1000
0100
0010
1000
0001
0001
1000
1000
,
0002
0000
0000
0003
2000
0000
3010
0100
1000
0100
0001
0100
0001
0001
0100
0100
,
0010
0000
0000
00M0
0001
0000
1000
0000
0001
0000
0000
0000
1000
0000
0100
0000
0001
0000
0100
0000
1000
0000
0001
0000
2000
0000
0000
0000
3001
0000
0000
0000
,
0011
0000
0000
0000
0000
0000
0000
0000
0000
0000
0000
0000
0001
0000
0000
0000
0100
0000
0000
0000
0010
0000
0000
0000
0200
0000
0000
0000
0000
0000
0000
0000
0000
0000
0000
0000
0310
0000
0000
0000
0000
0000
0100
0000
0000
0000
0000
0000
1000
0000
0000
0000
0000
0000
0100
0000
0000
0000
0000
0000
0010
0000
0000
0000
0000
0000
1000
0000
0000
0000
0000
0000
0001
0000
0000
0010
0000
0000
0001
0000
0000
0010
0000
0000
0001
0000
0000
0000
0000
0000
1000
0000
0000
0000
0000
0000
,
0010
0000
0000
0000
0000
0000
2000
0000
3000
0000
0000
0000
0002
0000
0000
0000
0000
0000
1003
0000
0000
0010
0000
0000
0001
0000
0000
0010
0000
0000
0100
0000
0000
0001
0000
0000
1000
0000
0000
1000
0000
0000
0001
0000
0000
0001
0000
0000
,
1000
0000
0000
M000
0100
0000
0000
0000
1001
0000
0000
0000
0000
0000
0000
0000
0102
0000
0000
0000
2003
0000
0000
0000
3200
0000
0000
0000
1000
0000
0000
0000
,
0310
0000
0000
0001
0000
0000
1000
0000
0000
0001
0000
0000
1000
0000
0000
0000
0100
0000
0000
0000
1000
0000
0000
0000
0004
0000
0000
0000
0000
0000
0000
0000
0000
0000
0000
0000
0013
0000
0000
0000
0001
0000
0000
0000
0010
0000
0000
0000
0001
0000
0000
0000
0000
0000
0000
0000
1000
0000
0000
0000
0001
0000
0000
0000
0000
0000
0010
0000
0000
0000
0000
0000
0100
0000
0000
0000
1000
0000
0000
0000
0100
0000
0000
0000
0010
0000
0000
0000
0000
0000
0000
0000
0001
0000
0000
0000
,
0200
0000
0000
0000
0000
0000
0000
0000
0000
0000
0000
0000
0310
0000
0000
0000
1000
0000
0000
0000
0100
0000
0000
0000
0010
0000
0000
0000
0000
0000
0001
0000
0000
0000
0000
0000
1000
0000
0000
0000
0000
0000
0100
0000
0000
0000
0000
0000
0001
0000
0000
0000
0000
0000
0000
0000
0000
0000
0000
0000
0200
0000
0000
0000
0000
0000
0300
0000
0000
0000
0000
0000
1000
0000
0000
0000
0000
0000
0100
0000
0000
0000
0000
0000
1000
0000
0000
0001
0000
0000
1000
0000
0000
0001
0000
0000
,
0010
0000
0100
0000
2000
0000
3000
0000
0001
0000
0100
0010
0100
0000
0001
1000
0010
0000
0000
1000
0000
0000
0001
0100
0001
0000
0000
0000
0100
0000
0010
0000
,
0020
0030
0000
0000
0000
0000
0000
0000
;

//--------------- dance-double - ----------------
#NOTEDATA:;
#STEPSTYPE:dance-double;
#DESCRIPTION:;
#DIFFICULTY:Hard;
#METER:15;
#RADARVALUES:0,0,0,0,0;
#NOTES:
00000000
00000000
00000000
00000000
,
00000000
00000000
00000000
00000000
,
00000000
00001000
00010000
00001000
,
00010000
00000020
00000000
00000000
,
00000030
00000000
00000000
00000000
00001000
00000000
00000001
00000100
00001000
00000100
00000010
00001000
00000100
00010000
00000100
00010000
,
00001000
00000000
00010000
00000000
00001000
00000000
01000000
00100000
01000000
00010000
10000000
01000000
00100000
00010000
00100000
00010000
,
10000000
00000000
01000000
00000000
00100000
00000000
00001000
00010000
00001000
00010000
00000100
00001000
00000001
00000010
00000001
00001000
,
00000001
00000000
00000100
00000000
00000001
00000000
00001000
00000010
00000001
00000010
00000100
00000001
00001000
00000000
00000100
00000000
,
00020100
00000000
00031000
01000000
00100000
10000000
01000000
00010000
,
00001000
00000000
00020000
00000000
00030100
00000000
00001000
00000100
00000001
00000100
00000010
00000001
00001000
00000010
00000100
00000001
,
00001000
00000000
00000010
00000000
00010000
00000000
00001000
00010000
00100000
00010000
00001000
00010000
00001000
01000000
00010000
01000000
,
00200000
00000000
00000000
00000000
10300000
00000000
00010000
00000000
10000000
01000000
10000000
00000000
00010000
00100000
01000000
10000000
,
00010000
00000000
00100000
00000000
00001000
00000000
00010000
00001000
00000100
00001000
00010000
00001000
00100000
00010000
00100000
00001000
,
00010000
00000000
00000010
00000000
00001000
00000000
00000001
00000100
00001000
00000100
00000010
00001000
00000001
00000000
00000100
00000000
,
00000012
00000000
00000000
00000000
00001003
00000000
00000100
00000000
00000001
00000000
00000100
00001000
00000010
00000010
00001000
00001000
,
00000100
00010000
00001000
00100000
00020000
00000000
10030000
01000000
,
00200000
00000000
00300000
00000000
00010000
00000000
10000000
01000000
00010000
00000000
01000000
00000000
10000000
00100000
01000000
00001000
,
00010000
00001000
00010000
00000010
00001000
00000001
00001000
00000100
,
00001100
00000000
00001000
00000000
00000010
00000000
00000100
00001000
00000100
00000010
00001000
00000100
00010000
00001000
00010000
00010000
,
00001000
00000000
01000000
00000000
00010000
00000000
00100000
01000000
10000000
01000000
00100000
00010000
00100000
00000000
00001000
00000000
,
00011000
00020000
00030010
00000100
00000101
00000001
00001000
00000100
,
00001100
00000000
00002000
00000000
00003100
00000000
00010000
00001000
00000200
00000000
00000000
00000000
00001300
00000000
00010000
00000000
,
00001000
00000000
01000000
00000000
00100000
00000000
10000000
01000000
00010000
00001000
00010000
00000000
00000100
00001000
00000001
00000010
,
00000100
00000000
00010000
00000000
00001000
00000000
01000000
00100000
01000000
00010000
00100000
00001000
00010000
00000100
00010000
00000100
,
00002000
00000000
00000000
00000000
00003001
00000000
00000100
00000000
00001001
00000000
00000001
00000000
00001000
00000100
00010000
00010000
,
00000100
00000000
00000000
00010000
00000000
00000000
00001000
00000000
00000000
00001000
00000000
00000000
01001000
00000000
00000000
01000000
00000000
00000000
00100000
00000000
10000000
00000000
00010000
10000000
,
00010000
00000000
01000000
00000000
00001000
00000000
00100000
00010000
00001000
00010000
00100000
00010000
01000000
00001000
01000000
00001000
,
00020000
00000000
00000000
00000000
00000000
00000000
00000000
00000000
00000000
00000000
00000000
00000000
00030010
00000000
00000000
00000000
00000000
00000000
00001000
00000000
00000000
00000010
00000000
00000000
00000001
00000000
00000000
00000000
00000010
00000000
00000000
00000000
00001000
00000000
00000000
00000000
00000100
00000000
00000000
00010000
00000000
00000000
00001000
00000000
00000000
00001000
00000000
00000000
,
00010000
00000000
00000000
00000000
00000000
00000000
00001000
00000000
00000000
00000000
00000000
00000000
10000000
00000000
00000000
00000000
00000000
00000000
00010000
00000000
00000000
01000000
00000000
00000000
10000000
00000000
00000000
00000000
01000000
00000000
00000000
00000000
00000000
00000000
00000000
00000000
00010000
00000000
00000000
00100000
00000000
00000000
00010000
00000000
00000000
00100000
00000000
00000000
,
00002000
00000000
00000000
00000000
00013000
00000000
00000010
00000100
00001000
00000100
00000010
00001000
00000001
00000000
00001000
00000000
,
00000102
00000000
00000000
00000000
00000103
00000000
00000001
00000000
00000010
00000100
00010000
00000000
00002000
00000000
01003000
00000000
,
20010000
00000000
00000000
00000000
00000000
00000000
30100000
00000000
00000000
01000000
00000000
00000000
00001000
00000000
00000000
00010000
00000000
00000000
00001000
00000000
00010000
00000000
00000100
00000000
,
00001000
00000000
00000010
00000000
00001000
00000000
00000001
00000100
00001000
00000100
00000010
00001000
00000100
00010000
00000100
00010000
,
00001000
00000000
01000000
00000000
00010000
00000000
10000000
00000000
10010000
00000000
00010000
00000000
01000000
00100000
01000000
01000000
,
00001000
00000000
00000000
00000000
00010000
00000000
00000100
00000000
00002000
00003000
00000001
00000000
00001000
00000000
00000100
00000000
,
00001000
00000000
00000002
00000000
00010003
00000000
00001000
00010000
00100000
00010000
00001000
00100000
00010000
00000000
01000000
00000000
,
01100000
00000000
00000000
00000000
00100000
00000000
10000000
01000000
00010000
01000000
00100000
01000000
10000000
00000000
00010000
00000000
,
01010000
00000000
00200000
00000000
00301000
00000000
01000000
00100000
00010000
00100000
01000000
00010000
10000000
01000000
00100000
00010000
,
00100000
00000000
00001000
00000000
00010000
00000000
00000010
00000100
00000010
00001000
00000001
00000010
00000100
00001000
00000100
00010000
,
00001000
00000000
00200000
00000000
00310000
00000000
10000000
01000000
00100000
01000000
10000000
00010000
01000000
00010000
01000000
00001000
,
01000000
00000000
00020000
00000000
00130000
00000000
00001000
00010000
00001000
00000000
00000000
00000000
00010000
00000010
00001000
00001000
,
00000100
00000000
00010000
00000000
00000010
00000000
00001000
00000100
00000001
00000100
00001000
00000010
00001000
00000100
00001000
00000100
,
00010000
00000000
00002000
00003000
00200000
00000000
00000000
00000000
00320000
00000000
00000000
00000000
20030000
00000000
30100000
00000000
,
02100000
00000000
00000000
00000000
03010000
00000000
00100000
00000000
00020000
00030000
00100000
00000000
00001000
00000000
00010000
00000000
,
00000100
00000000
00000000
00000000
00001000
00000000
00000001
00000100
00001000
00000000
00000200
00000300
00000010
00001000
00000010
00001000
,
00000001
00000000
00000000
00000000
00000000
00000000
00020000
00000000
00000000
00030000
00000000
00000000
00001000
00000000
00000000
00100000
00000000
00000000
00001000
00000000
00000000
01000000
00000000
00000000
00200000
00000000
00000000
00300000
10000000
00000000
00000000
00000000
00010000
00000000
10000000
00000000
00010000
00000000
00000000
00000000
00000000
00000000
00100000
00000000
00000000
00000000
00000000
00000000
,
00000020
00000000
00000000
00000000
00000000
00000000
00000000
00000000
00000000
00000000
00000000
00000000
00000000
00000000
00000000
00000000
00000000
00000000
00000000
00000030
00000000
00000000
00000000
00000000
00000000
00000000
00000000
00000000
00000000
00000000
00000000
00000000
00000000
00000000
00000000
00000000
00000000
00000000
00000000
00000000
00000000
00000000
00000000
00000000
00000000
00000000
00000000
00000000
00000000
00000000
00000000
00000000
00000000
00000000
00000000
00000000
00000000
00000000
00000000
00000000
00000000
00000000
00000000
00000000
00000000
00000000
00000000
00000000
00000000
00000000
00000000
00000000
00000000
00000000
00000000
00000000
00000000
00000000
00000000
00000000
00000000
00000000
00000000
00000000
00000000
00000000
00000000
00000000
00000000
00000000
00000000
00000000
00000000
00000000
00000000
00000000
00000000
00000000
00000000
00000000
00000000
00000000
00000000
00000000
00000000
00000000
00000000
00000000
00000000
00000000
00000000
00000000
00000000
00000000
00000000
00000000
00000000
00000000
00000000
00000000
00000000
00000000
00000000
00000000
00000000
00000000
00000000
00000000
00000000
00000000
00000000
00000000
00000000
00000000
00000000
00000000
00000000
00000000
00000000
00000000
00000000
00000000
00000000
00000000
00000000
00000000
00000000
00000000
00000000
00000000
00000000
00000000
00000000
00000000
00000000
00000000
00000000
00000000
00000000
00000000
00000000
00000000
00000000
00000000
00000000
00000000
00000000
00000000
00000000
00000000
00000000
00000000
00000000
00000000
00000000
00000000
00000000
00000000
00000000
00000000
00000000
00000000
00000000
00000000
00000000
00000000
00000000
00000000
00000000
00000000
00000000
00000000
;
