#TITLE:Mama Used To Say;
#SUBTITLE:;
#ARTIST:Jupiter;
#TITLETRANSLIT:;
#SUBTITLETRANSLIT:;
#ARTISTTRANSLIT:;
#GENRE:;
#CREDIT:;
#MUSIC:Mama Used To Say.ogg;
#BANNER:Mama Used To Say-bn.png;
#BACKGROUND:Mama Used To Say-bg.png;
#CDTITLE:;
#SAMPLESTART:29.224;
#SAMPLELENGTH:15.652;
#SELECTABLE:YES;
#OFFSET:1.037;
#BPMS:0.000=115.000
,156.000=57.500
,172.000=115.000
,187.000=230.000
,188.000=115.000
;
#STOPS:187.000=0.261;
#DISPLAYBPM:57.500:115.000;
#BGCHANGES:;
#FGCHANGES:;

//--------------- dance-single - OrangeRight ----------------
#NOTES:
     dance-single:
     OrangeRight:
     Beginner:
     2:
     0,0,0,0,0,0,0,0,0,0,0,0,0,0,0,0,0,0,0,0,0,0:
0000
0000
0000
0000
,
0000
0000
0000
0000
,
0000
0000
0000
0000
,
2000
3000
0000
0000
,
0002
0003
0000
0000
,
1000
0000
0001
0000
,
0200
0300
0000
0000
,
0001
0000
0100
0000
,
0001
0000
0000
0000
,
1000
0000
0100
0000
,
0010
0000
0000
0000
,
0001
0000
1000
0000
,
0100
0000
0010
0000
,
0001
0000
0100
0000
,
0010
0000
0000
0000
,
1000
0000
1000
0001
,
2000
3000
0000
0000
,
0001
0000
0001
1000
,
0002
0003
0000
0000
,
1000
0000
1000
0010
,
2000
3000
0000
0000
,
0001
0000
0001
0010
,
0002
0003
2000
3000
,
0001
0000
1000
0000
,
0100
0000
0000
0000
,
1000
0000
0010
0000
,
0100
0000
0001
0000
,
1000
0000
0001
0000
,
0010
0000
0000
0000
,
0001
0000
0100
0000
,
0010
0000
1000
0000
,
0002
0003
0001
1000
,
0001
0000
0001
0000
,
2000
3000
1000
0001
,
1000
0000
1000
0000
,
0002
0003
0001
0100
,
0001
0000
0001
0000
,
2000
3000
1000
0100
,
2000
3000
0002
0003
,
2002
3003
2000
3000
,
0002
0003
0200
0300
,
2002
3003
0002
0003
,
2000
3000
0200
0300
,
1000
1000
1000
0000
,
0001
0001
0001
0000
,
1000
0001
1000
0000
,
0002
0003
2000
3000
,
0001
0001
0001
0000
,
0100
0100
0100
0000
,
0010
1000
0010
0000
,
1000
0000
2002
0000
,
3003
0000
0000
0000
;

//--------------- dance-single - OrangeRight ----------------
#NOTES:
     dance-single:
     OrangeRight:
     Easy:
     4:
     0,0,0,0,0,0,0,0,0,0,0,0,0,0,0,0,0,0,0,0,0,0:
0000
0000
0000
0000
,
0000
0000
0000
0000
,
0000
0000
0000
0000
,
1000
0100
1000
1000
,
0001
0100
0001
0001
,
1000
0010
0100
0001
,
0010
0100
1000
1000
,
0001
0100
0001
0000
,
1000
0100
1000
0000
,
0001
0010
0100
1000
,
0020
0030
0010
0000
,
1000
0010
1000
0000
,
0001
0010
0001
0000
,
1000
0010
0100
0001
,
2000
3000
1000
0001
,
2000
3000
0200
0300
,
0020
0030
0001
1000
,
0002
0003
0200
0300
,
0020
0030
1000
0001
,
2000
3000
0002
0003
,
0200
0300
0010
1000
,
0002
0003
2000
3000
,
0001
1000
2002
3003
,
1000
0001
0010
0000
,
0001
1000
0010
0000
,
1000
0100
0010
0001
,
0200
0300
0100
0000
,
0001
1000
0100
0000
,
1000
0001
0100
0000
,
0010
1000
0100
0001
,
0200
0300
1000
0001
,
2002
3003
1000
0100
,
0020
0030
0001
1000
,
2002
3003
0001
0100
,
0020
0030
1000
0100
,
2200
3300
1000
0001
,
0200
0300
0001
0100
,
0202
0303
0001
0100
,
0001
1000
2002
3003
,
2000
3002
0203
0300
,
0002
2003
3200
0300
,
0020
0032
0203
0320
,
2030
0000
3002
0000
1003
1000
2002
3003
,
1000
0100
0010
0010
,
0001
0100
0010
0010
,
1000
0001
0010
0010
,
0001
0000
1000
0000
0001
0000
2002
3003
,
0001
0100
0010
0010
,
1000
0100
0010
0010
,
0001
0100
1000
0100
,
0001
0000
1000
0000
0000
1000
0000
0000
2000
0000
0000
0000
0000
0000
0000
0000
,
3000
0000
0000
0000
;

//--------------- dance-single - OrangeRight ----------------
#NOTES:
     dance-single:
     OrangeRight:
     Medium:
     8:
     0,0,0,0,0,0,0,0,0,0,0,0,0,0,0,0,0,0,0,0,0,0:
0000
0000
0000
0000
,
0000
0000
0000
0000
,
0000
0000
0000
0000
0000
0001
0001
0000
,
1000
0001
0100
0001
1000
1000
0100
0000
,
0010
0001
1000
0010
0100
0100
0001
0000
,
2000
0000
3200
0000
0310
0001
1000
0001
,
0100
0010
1000
0100
1000
0001
1001
0000
,
1000
0010
0100
0000
0001
0000
0010
0100
,
1000
0001
0100
0000
0001
1000
0001
0000
,
0010
0001
0100
0010
1000
0100
0010
0000
,
0011
0000
0001
1000
0100
1000
0001
0000
,
1000
0010
0001
0010
1000
0000
0010
0100
,
0001
0010
1000
0010
0001
0000
0100
0010
,
1000
0100
0010
0100
1000
0001
0100
0001
,
0010
0000
0001
0000
1000
0010
0100
0001
,
1000
0000
0000
0000
1000
0000
0001
0000
0010
0000
0000
0000
0100
0000
0000
1000
,
0000
0010
0100
0000
0001
0010
0100
1000
,
0001
0000
0000
0000
0001
0000
1000
0000
0010
0000
0000
0000
0100
0000
0000
0001
,
0000
1000
0100
0000
1000
0001
0100
0010
,
1000
0000
0000
0000
1000
0000
0001
0000
0010
0000
0000
0000
0100
0000
0000
1000
,
0000
0010
0100
0000
0001
1000
0010
0100
,
0001
0000
0000
0000
1000
0000
0001
0000
1001
0000
0000
0000
0001
0000
0000
0100
,
0000
0000
0010
0000
0000
1000
0000
0000
0100
0000
0000
0000
1000
0000
0000
0000
,
0001
0100
0010
1000
0100
0000
1000
0001
,
0100
0001
0010
0100
1000
0000
0001
0100
,
0020
0000
2030
0000
3001
0010
0100
1000
,
0010
0000
0110
0000
0100
0001
1000
0000
,
0001
0100
1000
0100
0001
0000
1000
0001
,
1000
0100
0001
0100
1000
0000
0010
0100
,
0002
0000
2003
0000
3001
0100
0010
1000
,
0100
0010
0001
0000
0001
0100
0010
0100
,
0001
0000
0000
0000
0010
0000
0100
0000
1000
0000
0000
0000
0010
0000
0000
0100
,
0000
0001
1000
0000
1000
0100
0010
0100
,
1000
0000
0000
0000
0010
0000
0100
0000
0001
0000
0000
0000
0010
0000
0000
0100
,
0000
1000
0001
0000
0001
0100
0010
1000
,
0001
0000
0000
0000
0010
0000
0100
0000
1000
0000
0000
0000
0010
0000
0000
0100
,
0000
0001
1000
0000
1000
0001
0100
0010
,
1000
0000
0000
0000
0001
0000
1000
0000
1001
0000
0000
0000
1000
0000
0000
0001
,
0000
0000
0010
0000
0000
0100
0000
0000
1000
0000
0000
0000
0001
0000
0000
0000
,
2000
3200
0302
0203
,
1300
0000
0000
0010
0000
0000
0100
0000
0002
0000
0000
0000
0000
0000
0000
0000
2003
0000
0000
0000
0000
0000
0000
0000
0100
0000
0000
0000
0000
0000
0000
0000
,
3002
0023
0230
2300
,
3010
0000
0000
0100
0000
0000
0010
0000
1000
0000
0000
0001
0000
0000
1000
0000
0100
0000
0000
0010
0000
0000
0001
0000
2000
0000
0000
0000
0000
0000
0000
0000
,
3001
0000
1000
0000
0001
1000
0000
0000
1000
0000
0100
0000
1000
0000
0000
0000
,
1000
0000
0001
0000
1000
0001
0000
0000
0100
0000
0001
0000
0100
0000
0000
0000
,
0010
0000
0100
0000
0010
0100
0000
0000
0010
0000
1000
0000
0010
0000
0000
0000
,
1000
0000
0100
0000
0010
0001
0000
0000
1000
0000
0001
0000
2002
0000
3003
0000
,
1000
0000
0010
0000
0100
0001
0000
0000
0010
0000
0100
0000
0010
0000
0000
0000
,
0001
0000
0100
0000
0010
1000
0000
0000
0100
0000
0010
0000
0100
0000
0000
0000
,
1000
0000
0100
0000
0010
0001
0000
0001
0010
0000
0100
0000
1000
0000
0000
0000
,
0001
0000
1000
0000
0000
0001
0000
0000
2002
0000
0000
0000
0000
0000
0000
0000
,
3003
0000
0000
0000
;

//--------------- dance-single - OrangeRight ----------------
#NOTES:
     dance-single:
     OrangeRight:
     Hard:
     12:
     0,0,0,0,0,0,0,0,0,0,0,0,0,0,0,0,0,0,0,0,0,0:
0000
0000
0000
0000
,
0000
0000
0000
0000
,
0000
0000
0000
0000
0000
0000
0000
0000
0000
0000
0001
0000
0001
1000
0000
0000
,
1000
0000
0100
0000
0010
0000
0100
0000
1000
0010
0000
0010
0000
0000
0100
0000
,
0001
0000
0010
0000
0100
0000
0010
0000
0001
0100
0000
0100
0000
0000
0010
0000
,
2000
0000
0100
0000
3002
0000
0100
0000
1003
0001
0000
0001
0100
0000
0010
0000
,
1000
0000
0100
0000
0010
0000
0001
0000
1000
0001
0000
0001
1000
0100
0000
0020
,
0000
0000
0031
0000
0100
0000
0010
0000
0100
0000
0001
0000
0010
0000
0100
1000
,
0000
0000
1000
0000
1010
0000
0000
0000
1000
0100
0000
0100
0010
0000
0001
0000
,
2000
0000
0010
0000
3002
0000
0010
0000
1003
0000
0100
0000
0010
0000
0001
0100
,
0000
0000
0010
0000
1000
0000
0100
0000
1000
0001
1000
0000
0001
0100
0000
0002
,
0000
0000
1003
0000
1000
0100
0000
2000
0000
0000
3001
0000
0001
0100
0000
0020
,
0000
0000
1030
0000
0001
0000
0010
0100
0000
0000
0100
0000
1000
0001
0000
0020
,
0000
0000
0031
0000
1000
0000
0100
0000
1000
0010
0000
0010
0100
0000
0001
0000
,
1000
0000
0000
0000
1001
0000
0000
0000
0001
0100
0000
0100
0000
0010
0000
0010
,
2000
0000
0000
0000
3010
0000
0100
0000
0002
0000
0000
0000
1003
0000
0000
0001
,
0010
0000
0100
0000
1000
0001
0000
0000
1000
0100
0000
0100
0000
0010
0000
0010
,
0002
0000
0000
0000
0103
0000
0010
0000
2000
0000
0000
0000
3001
0000
0000
1000
,
0100
0000
0010
0000
0001
1000
0000
0000
0001
0010
0000
0010
0000
0100
0000
0100
,
2000
0000
0000
0000
3100
0000
1000
0000
0002
0000
0000
0000
0103
0000
0000
0001
,
1000
0000
0100
0000
0010
0001
0000
0000
1000
0010
0000
0100
0000
0001
0000
0010
,
0002
0000
0000
0000
0103
0000
0001
0000
0101
0000
0000
0001
1000
0000
0000
0100
,
0000
0000
1100
0000
0000
1001
0000
0000
0101
0000
0000
0001
1000
0000
0001
0000
,
1000
0000
0100
0000
0010
0000
0100
0000
1000
0001
0000
0001
0000
0000
0010
0000
,
0001
0000
0100
0000
1000
0000
0100
0000
0001
1000
0000
1000
0001
0000
0010
0000
,
0002
0000
0100
0000
2003
0000
0100
0000
3001
1000
0000
0001
0000
0010
0000
0100
,
1000
0100
1100
0000
0001
0100
0101
0000
,
0001
0000
0010
0000
1000
0000
0010
0000
0001
0100
0000
0100
0000
0000
0010
0000
,
1000
0000
0100
0000
0001
0000
0100
0000
1000
0010
0000
0010
0100
0000
0001
0000
,
2000
0000
0100
0000
3002
0000
0100
0000
1003
0001
0000
0001
0100
0010
0000
0010
,
1000
0000
0000
0000
1001
0000
0000
0000
1000
0010
0000
0100
0000
0001
0000
0010
,
0002
0000
0000
0000
0103
0000
0010
0000
2000
0000
0000
0000
3001
0000
0000
1000
,
0010
0000
0100
0000
0001
1000
0000
0000
0001
0010
0000
0100
0000
1000
0000
0001
,
2000
0000
0000
0000
3010
0000
0100
0000
0002
0000
0000
0000
1003
0000
0000
0001
,
0010
0000
0100
0000
1000
0001
0000
0000
1000
0010
0000
0100
0000
0010
0000
1000
,
0200
0000
0000
0000
0310
0000
0001
0000
2000
0000
0000
0000
3010
0000
0000
0010
,
0100
0000
0001
0000
1000
0001
0000
0000
1000
0010
0000
0100
0000
0001
0000
0010
,
0002
0000
0000
0000
1003
0000
0010
0000
1010
0000
0000
1000
0001
0000
0000
0011
,
0000
0000
0101
0000
0000
0110
0000
0000
1010
0000
0000
1000
0100
0000
0010
0000
,
0002
0000
0000
0000
0000
0000
0000
0000
0203
0000
0000
0000
0000
0000
0000
0000
1300
0000
0000
0100
0000
0000
0002
0000
0000
0000
0000
0000
0000
0000
0000
0000
,
0013
0000
0000
0100
0000
0000
1000
0000
0020
0000
0000
0000
0230
0000
0000
0000
0302
0000
0000
0000
0000
0000
0000
0000
1003
0000
0000
0000
0001
0000
0000
0000
,
2001
0000
0000
0000
0000
0000
0000
0000
3200
0000
0000
0000
0000
0000
0000
0000
0301
0000
0000
0100
0000
0000
2000
0000
0000
0000
0000
0000
0000
0000
0010
0000
,
3010
0000
0000
0100
0000
0000
0001
0000
0010
0000
0000
0100
0000
0000
1000
0000
0001
0000
0000
1000
0000
0000
0002
0000
2000
0000
0000
0000
3003
0000
0000
0000
,
0001
0000
1000
0100
0010
0001
0000
0001
0100
0000
0010
0000
1010
0000
0000
0000
,
1000
0000
0001
0100
0010
1000
0000
1000
0100
0000
0010
0000
0011
0000
0000
0000
,
0001
0000
1000
0010
0100
0001
0000
0001
1000
0000
0100
0000
0001
0000
0100
0000
,
1000
0000
0010
0000
0100
0001
0000
0000
1000
0001
1000
0001
2000
0000
0000
0000
,
3010
0000
1000
0100
0010
0001
0000
0001
0100
0000
0001
0000
0101
0000
0000
0000
,
0100
0000
0001
0010
0100
1000
0000
1000
0001
0000
1000
0000
1010
0000
0000
0000
,
1000
0000
0010
1000
0100
0010
0000
0010
0001
0000
1000
0000
0010
0100
0000
0000
,
0001
0000
1001
0000
0000
0110
0000
0000
2002
0000
0000
0000
0000
0000
0000
0000
,
3003
0000
0000
0000
;

//--------------- dance-single - OrangeRight ----------------
#NOTES:
     dance-single:
     OrangeRight:
     Challenge:
     15:
     0.642093,0.648756,0.313777,0.271375,0.90317,530,493,37,32,7,0,0.642093,0.648756,0.313777,0.271375,0.90317,530,493,37,32,7,0:
0000
0000
0000
0000
,
0000
0000
0000
0000
,
0000
0000
0000
0000
0000
0000
0000
0000
0000
0000
0001
0000
0001
1000
0000
0000
,
1000
0000
0010
0000
1000
0000
0001
0000
1000
0100
0000
0100
0010
0000
0001
1000
,
0001
0000
0100
0000
0001
0000
1000
0000
0001
0010
0100
1000
0010
0100
0010
0000
,
2000
0000
0010
0000
3002
0000
0100
0000
1003
0100
0000
0100
0010
0001
0000
0001
,
1000
0000
0010
0000
0100
0000
0001
0000
0010
0100
0010
0001
0100
0010
0000
0010
,
1000
0000
0100
0000
0001
0000
0100
0000
0010
0000
0100
0000
1000
0000
0001
0100
,
0000
0000
0001
0000
0011
0000
0000
0000
0001
0100
0010
1000
0001
0010
0000
0010
,
0002
0000
0100
0000
2003
0000
0010
0000
3001
0000
1000
0000
1001
0000
0000
1000
,
0001
0000
0010
0000
0100
0000
1000
0000
0010
1000
0001
1000
0100
0010
0000
0010
,
0001
0000
1000
0000
0010
0100
0000
0100
0001
0000
1000
0000
0001
1000
0000
1000
,
0100
0000
0010
0000
0001
0000
1000
0001
0100
0010
1000
0100
0010
0001
0000
0001
,
2000
0000
0010
0000
3002
0000
0100
0000
1003
0100
0000
0010
0001
0100
0000
0100
,
0010
0000
1000
0000
1100
0000
0000
0000
1000
0010
0000
1010
0000
0110
0000
0100
,
0002
0000
0000
0000
0013
0000
0001
0000
0201
0000
0000
0000
0310
0000
0000
0010
,
1000
0000
1001
0000
0000
0011
0000
0000
0001
0010
0000
0110
0000
1100
0000
0100
,
2000
0000
0000
0000
3010
0000
1000
0000
1010
0000
0000
0010
0100
0000
0000
0100
,
0001
0000
1001
0000
0000
1100
0000
0000
1000
0001
0000
0011
0000
0110
0000
0100
,
2000
0000
0000
0000
3010
0000
0100
0000
0101
0000
0001
0010
0100
0000
1000
0001
,
0000
0000
0101
0000
0000
0110
0000
0000
0010
1000
0000
1100
0000
0110
0000
0010
,
0002
0000
0000
0000
0103
0000
0010
0000
1010
0000
1000
0100
0010
0000
0001
1000
,
0000
1000
0010
0000
0010
0100
0001
0000
2000
0000
3000
0001
1000
0000
0010
0000
,
1000
0000
0100
0000
0001
0000
0100
0000
1000
0010
0000
0100
0001
1000
0000
1000
,
0001
0000
0010
0000
1000
0000
0010
0000
0001
0100
0010
1000
0100
0010
0000
0010
,
0002
0000
0100
0000
2003
0000
0100
0000
3001
0010
0000
0100
0000
1000
0000
1010
,
0000
0000
1000
0000
0010
0000
0100
0000
0001
0010
0100
1000
0001
0100
0010
1000
,
0001
0000
0010
0000
1000
0000
0010
0000
0001
0100
0000
0010
1000
0100
0010
0001
,
1000
0000
0100
0000
0001
0000
0100
0000
1000
0010
0100
0010
1000
0001
0000
0010
,
0002
0000
0100
0000
2003
0000
0010
0000
3001
0100
0000
0010
1000
0100
0000
0010
,
0001
0000
1000
0000
0010
0000
0001
0000
0010
1000
0000
1000
0100
0010
0001
0100
,
0002
0000
0000
0000
0013
0001
0000
0001
1000
0010
0100
0001
0010
0001
0000
1001
,
0000
0001
0100
00M0
0100
1000
0000
0000
0001
0010
0000
0110
0000
0100
1000
0001
,
2000
0000
0000
0000
3100
1000
0000
1000
0001
0100
0010
1000
0001
1000
0000
1001
,
0000
1000
0010
0M00
0010
0001
0000
0000
1000
0001
0000
1001
0000
1000
0100
0010
,
0002
0000
0000
0000
1003
0001
0000
0001
0010
0100
1000
0010
0100
0001
0000
0011
,
0000
0001
0100
00M0
0100
1000
0000
0000
0001
1000
0000
1001
0000
0001
0100
0010
,
2000
0000
0000
0000
3100
1000
0000
1000
0010
0100
0001
1000
0100
0010
0000
0011
,
0000
0001
0100
0000
0100
0010
1000
0000
0200
0000
0000
1300
0001
0000
1000
0000
,
2002
0000
0000
0000
3003
0000
0001
0010
0200
0000
0000
0000
0000
0000
1000
0000
1300
0000
0000
0001
0000
0000
0100
0000
0002
0000
0000
0000
1000
0000
0000
0000
,
0013
0000
0000
0001
0000
0000
0100
0000
0010
0000
0000
0000
1000
0000
0000
0000
1010
0000
0000
0000
0000
0000
0000
0000
0101
0000
0000
0000
0001
1000
0100
0010
,
0001
0000
0000
0000
0000
1000
0001
0000
1000
0000
0000
0000
0000
0000
0001
0000
0010
0000
0000
0100
0000
0000
1000
0000
0001
0000
0000
0000
0100
0000
0010
0000
,
1000
0000
0000
0100
0000
0000
0001
0000
0100
0000
0000
1000
0000
0000
0010
0000
0100
0000
0000
0001
0000
0000
0010
0000
0100
0000
1000
0000
0001
1000
0000
0000
,
1001
0000
0001
0100
0010
1000
0100
1000
0001
0010
0M00
0010
1000
0001
0100
0001
,
1000
0000
0001
0010
0100
1000
0010
1000
0001
0100
00M0
0100
1000
0001
0100
0010
,
1000
0000
0001
1000
0010
0100
0010
1000
0100
0010
0002
0000
0103
0010
2000
0000
,
3001
0000
1001
0000
1000
0100
0000
0000
0010
0001
0010
0001
2000
0000
3000
0000
,
1001
0000
1000
0010
0001
0010
0100
0001
0010
0100
00M0
0100
0001
0010
0100
1000
,
0001
0000
1000
0100
0001
0100
0010
0001
1000
0100
00M0
0100
0001
0010
0100
1000
,
0100
0000
1000
0010
0001
0010
0100
0001
0010
0100
2000
0000
3010
0100
0002
0000
,
1003
0000
1001
0000
0001
0010
0000
0000
0220
0000
0000
0000
0000
0000
0000
0000
,
0330
0000
0000
0000
;
