#VERSION:0.83;
#TITLE:まかせて★スプラッシュ☆スター★;
#SUBTITLE:Pretty Cure Splash Star OP;
#ARTIST:Yuka Uchiyae · Splash Stars;
#TITLETRANSLIT:Makasete Splash Star;
#SUBTITLETRANSLIT:;
#ARTISTTRANSLIT:Yuka Uchiyae & Splash Stars;
#GENRE:;
#CREDIT:;
#MUSIC:makasete_splash_star.ogg;
#BANNER:bn.png;
#BACKGROUND:bg.png;
#CDTITLE:create_cdtitle.png;
#SAMPLESTART:1.093;
#SAMPLELENGTH:16.552;
#SELECTABLE:YES;
#OFFSET:0.286;
#BPMS:0.000=174.000;
#STOPS:;
#BGCHANGES:0.000=bgvideo.avi=1.000=1=0=0=StretchNoLoop==CrossFade==,
99999.000=-nosongbg-=1.000=0=0=0=StretchNoLoop====
;
#FGCHANGES:;

//--------------- dance-single - FS JU XO Mines ----------------
#NOTEDATA:;
#STEPSTYPE:dance-single;
#DESCRIPTION:FS JU XO Mines;
#DIFFICULTY:Hard;
#METER:13;
#RADARVALUES:0,0,0,0,0;
#CHARTNAME:No 16ths;
#CREDIT:Create!;
#NOTES:
0000
0000
0000
0000
,
1001
0000
1010
0000
,
1001
0000
0000
0011
0000
0000
0000
0000
,
0000
0000
0000
0000
,
0000
0000
1000
0000
0010
0000
0100
0001
1000
0000
0100
0000
0020
0000
0000
0000
,
0031
0000
0100
0000
0001
0000
0100
0000
0001
0000
1000
0000
0000
0000
0100
00M0
,
0100
0001
1000
0100
0001
0000
MMMM
0000
,
1000
0100
0010
0001
1000
0100
0010
0001
,
1001
0000
1010
0000
0110
0101
0000
0000
,
1000
0000
0100
0000
1000
0000
0100
0000
0010
0000
0001
0000
1000
0000
0010
0M00
,
0010
0001
1000
0010
0001
0000
MMMM
0000
,
1000
0000
0100
1000
0001
0000
0100
0001
,
1001
0000
1100
0000
0110
0011
0000
0000
,
0000
M000
0M00
0000
00M0
000M
0000
0M00
00M0
M000
0000
0000
0000
0000
0000
0000
,
MMMM
0MM0
MMMM
0000
,
0001
0000
0100
0000
0010
1000
0100
0010
,
0000
0000
0100
M000
0100
0000
0001
0000
0000
0000
0100
0000
0001
0000
1000
0000
,
0100
0000
0010
000M
0010
0000
1000
0000
0000
0000
0001
0000
0100
0000
0010
0000
,
1010
0000
1001
0000
0011
0011
0000
0000
,
1000
0000
0010
0000
0100
0001
0010
0100
,
0000
0000
0010
000M
0010
0000
1000
0000
0000
0000
0010
0000
1000
0000
0001
0000
,
0010
0000
0100
M000
0100
0000
0001
0000
0000
0000
1000
0000
0010
0000
0100
0000
,
0101
0000
1001
0000
1100
1100
0000
0000
,
0001
1000
0010
1000
0001
0000
0010
0000
,
0100
0000
0000
1000
0000
0000
0001
0000
,
0100
0001
1000
0001
0100
0000
0010
1000
,
0100
0020
0000
0000
0030
0000
0000
0000
,
0001
0000
1000
0000
0010
0100
0010
1000
,
0000
0000
0001
0000
0010
1000
0010
0001
,
0000
0000
1000
0010
0100
0001
0100
0010
,
0000
0000
1000
0100
0001
0100
0000
1000
,
0000
0000
0001
0000
0100
0010
0100
0001
,
0000
0000
1000
0000
0100
0010
0000
0001
,
1000
1000
0010
0010
0100
0100
0001
0001
,
0010
0000
0100
1000
0001
0000
0100
0010
,
1010
0000
1100
0000
0101
0000
1010
0010
,
0000
0100
0000
0001
0001
0010
0100
0000
,
0110
0000
1000
0010
0100
1000
0100
0001
,
0010
0100
1000
0010
0100
0001
1000
0100
,
0011
0000
0101
0000
1100
0000
0011
0010
,
0000
0100
0000
1000
1000
0010
0100
0000
,
0110
0000
0001
0010
0100
0001
0100
1000
,
0010
0100
0001
0010
0100
1000
0010
1000
,
0100
MMMM
0000
MMMM
,
1000
0000
0100
0000
1000
0000
0100
0000
1000
0000
0001
0000
0000
0000
0100
00M0
,
0100
1000
0001
0100
1000
0000
0001
0000
,
0010
0100
0001
1000
0010
0100
0001
1000
,
1100
0000
0110
0000
0011
1001
0000
0000
,
0001
0000
0100
0000
0001
0000
0100
0000
0010
0000
1000
0000
0001
0000
0010
0M00
,
0010
1000
0001
0010
1000
0000
0001
0000
,
0100
0000
0010
0100
1000
0000
0001
1000
,
1010
0000
0110
0000
0101
1001
0000
0000
,
0000
0000
0000
000M
0M00
0000
00M0
M000
0000
0M00
00M0
000M
0000
0000
0000
0000
,
0000
MMMM
0000
0MM0
0000
MMMM
0000
0000
,
1001
1000
0100
0010
0011
0010
0100
1000
,
1001
0000
1000
0000
1010
1010
0000
0101
,
0000
0000
0000
1001
,
1100
0000
0000
0000
0001
0100
0010
1000
,
0000
1001
0000
0000
0000
0000
0000
0000
,
0000
0000
0000
MMMM
;
