#VERSION:0.83;
#TITLE:Majoram Therapie;
#SUBTITLE:;
#ARTIST:ももいろクローバーZ;
#TITLETRANSLIT:;
#SUBTITLETRANSLIT:;
#ARTISTTRANSLIT:Momoiro Clover Z;
#GENRE:;
#ORIGIN:;
#CREDIT:;
#BANNER:;
#BACKGROUND:;
#PREVIEWVID:;
#JACKET:;
#CDIMAGE:;
#DISCIMAGE:;
#LYRICSPATH:;
#CDTITLE:;
#MUSIC:Majoram Therapie.ogg;
#OFFSET:-0.224558;
#SAMPLESTART:62.619999;
#SAMPLELENGTH:15.000000;
#SELECTABLE:YES;
#BPMS:0.000=175.000;
#STOPS:;
#DELAYS:;
#WARPS:;
#TIMESIGNATURES:0.000=4=4;
#TICKCOUNTS:0.000=4;
#COMBOS:0.000=1;
#SPEEDS:0.000=1.000=0.000=0;
#SCROLLS:0.000=1.000;
#FAKES:;
#LABELS:0.000=Song Start;
#BGCHANGES:;
#KEYSOUNDS:;
#ATTACKS:
;

//---------------dance-single - ----------------
#NOTEDATA:;
#CHARTNAME:;
#STEPSTYPE:dance-single;
#DESCRIPTION:;
#CHARTSTYLE:;
#DIFFICULTY:Hard;
#METER:14;
#RADARVALUES:0.703123,0.810805,0.287408,0.458056,0.282917,548.000000,516.000000,32.000000,51.000000,0.000000,0.000000,0.000000,0.000000,0.000000,0.703123,0.810805,0.287408,0.458056,0.282917,548.000000,516.000000,32.000000,51.000000,0.000000,0.000000,0.000000,0.000000,0.000000;
#CREDIT:nobarben;
#NOTES:
0000
0000
0000
0000
,
0000
0000
0000
0000
,
0000
0000
0000
0000
,
0000
0000
0000
0000
,
1000
0001
0010
0000
0110
0000
0100
1000
,
0001
0000
0101
0000
1000
0010
0200
0310
,
1000
0100
0010
0000
0011
0000
0001
1000
,
0010
0100
0010
1000
0010
0100
0010
1000
,
0001
0100
0010
1000
0100
1000
0001
0001
,
1000
0100
0010
0001
0100
0001
1000
1000
,
0001
0010
0001
0010
0001
0010
0001
0010
0002
0000
0000
0000
0003
0000
0000
0000
,
1000
0010
1000
0010
1000
0010
1000
0010
2000
0000
0000
0000
3000
0000
0000
0000
,
0001
1000
0010
0100
0001
0100
0010
0100
,
0000
0100
0010
1000
0001
0010
0100
0010
,
0000
0001
0010
0001
0100
0010
1000
0001
,
0000
0010
0100
0010
1000
0010
0001
1000
,
0000
0010
1000
0100
0010
0100
1000
0010
,
0000
0010
0100
0010
0001
0010
0100
0001
,
0000
0001
0010
0100
0001
0100
0010
0001
,
0000
0000
1000
0000
0010
0000
0001
0000
0010
0100
0010
0100
0010
0000
1000
0000
,
0001
0000
1000
0000
0010
0000
0100
0000
0010
1000
0010
0000
0100
0000
0001
0000
,
0000
0000
0010
0000
0100
0000
0010
0000
0001
1000
0001
0000
0010
0000
0100
0000
,
0000
0000
1000
0000
0100
0000
0001
0000
0100
0010
0100
0000
1000
0000
0001
0000
,
0000
0000
0100
0000
0010
0000
0001
0000
0010
0100
0010
0000
1000
0000
0001
0000
,
0000
0000
1000
0000
0010
0000
0100
0000
0010
1000
0001
0000
0010
0000
0100
0000
,
0000
0000
0001
0000
0100
0000
0010
0000
0100
1000
0001
0000
0100
0000
0010
0000
,
0000
0000
0100
0000
1000
0000
0100
0000
0010
1000
0001
0000
0010
0000
0100
0000
,
1000
0000
0100
0000
0001
0000
0100
0000
2000
0000
0000
0000
3001
0100
0001
0100
,
0002
0000
2003
0001
0000
0100
0000
3010
,
0200
0000
0320
0001
0000
0100
0000
2030
,
0000
0000
0000
0000
3001
0000
0100
0000
0010
0000
2000
0000
0000
0000
3100
0010
,
0002
0000
0023
0230
0000
2300
0000
3002
,
0203
0000
0320
1000
0000
0100
0000
0031
,
0020
0000
0230
1000
0000
0010
0000
0302
,
0000
0000
0000
0000
2003
0000
0100
0000
0000
0000
0010
0000
0000
0000
3001
0100
,
0020
0000
0000
0000
0100
0000
0000
0000
1030
0001
1000
0001
1000
0000
0002
0000
,
0000
0013
0100
1000
0001
0100
0010
0002
,
0000
0013
0100
0001
1000
0100
0010
2000
,
0000
3001
0100
0010
0001
0100
0010
1010
,
0000
1100
0000
0101
0000
0011
0000
2001
,
0000
3010
0100
0001
1000
0100
0010
1020
,
0000
0000
0130
0000
0010
0000
0001
0000
1000
0010
1000
0010
1000
0000
0001
0100
,
0020
0000
0000
0000
0000
0000
1030
0001
0020
0000
0000
0000
0130
0000
1000
0000
,
0001
0000
0000
0001
0000
0000
0100
0010
2000
0000
0000
0000
3001
0000
1000
0000
,
0100
0000
0110
0000
1000
0001
0100
0010
,
0000
2002
0000
3003
,
1000
0000
0000
1000
0100
0000
0000
0100
0001
0000
0000
0001
0100
0000
0000
0100
,
0010
0000
0000
0010
0001
0000
0000
0001
1000
0000
0000
1000
0010
0000
0000
0010
,
1000
0100
0011
0000
0001
0100
1010
0000
,
1000
0010
0101
0000
0001
0010
1100
2001
,
0000
3001
0100
0000
0010
1000
0100
1000
,
0001
0001
0010
0010
0100
0100
1000
1000
,
0002
0100
0103
0010
0100
1000
0100
0002
,
0000
0000
0010
0000
0013
0000
0100
0000
1000
0001
1000
0001
1000
0000
0001
0100
,
0010
0000
0000
0010
1000
0000
0000
1000
0001
0000
0000
0001
0100
0000
0000
0100
,
1000
0000
0000
1000
0100
0000
0000
0100
0010
0000
0000
0010
1000
0000
0000
1000
,
0001
0010
1100
0000
1000
0010
0101
0000
,
0001
0100
1010
0000
1000
0100
0011
1002
,
0000
0013
0100
0000
0010
0001
0100
0001
,
1000
1000
0010
0010
0100
0100
0001
0001
,
0020
0000
0130
0001
0100
1000
0100
0020
,
0000
0000
0031
0000
0100
0000
0010
0000
1000
0001
1000
0001
2000
0000
0000
0000
,
3100
1000
0100
0020
0000
0031
0100
0020
,
0000
1030
0001
0020
0000
0130
1000
0020
,
0000
0031
0010
0200
0000
1300
0100
0002
,
0000
0013
0100
2000
0000
3001
0100
0010
,
1000
0000
0001
0000
0110
0000
0000
1002
,
0000
0000
0013
0000
0100
0000
1000
0000
0001
0100
0001
0100
0001
0000
0010
0000
,
0220
0000
0000
0330
,
0000
1100
0000
0101
0011
0000
0000
0000
,
0001
1000
0010
0000
0110
0000
0100
0001
,
0010
0000
0110
0000
1000
0100
0001
0100
,
1000
0010
0100
0000
0110
0000
0010
1000
,
0100
0000
0110
0000
0001
0100
1000
0100
,
0001
0010
0100
0001
0100
1000
0001
0001
,
1000
0010
0100
1000
0100
0001
1000
1000
,
0001
1000
0010
1000
0001
1000
0010
1000
0002
0000
0000
0000
0003
0000
0000
0000
,
1000
0001
0010
0001
1000
0001
0010
0001
2000
0000
0000
3001
0010
0100
1000
0001
,
0000
0000
0110
0000
;

//---------------dance-double - ----------------
#NOTEDATA:;
#CHARTNAME:;
#STEPSTYPE:dance-double;
#DESCRIPTION:;
#CHARTSTYLE:;
#DIFFICULTY:Hard;
#METER:14;
#RADARVALUES:0.689009,0.810805,0.269445,0.413149,0.175139,537.000000,507.000000,30.000000,46.000000,0.000000,0.000000,0.000000,0.000000,0.000000,0.689009,0.810805,0.269445,0.413149,0.175139,537.000000,507.000000,30.000000,46.000000,0.000000,0.000000,0.000000,0.000000,0.000000;
#CREDIT:nobarben;
#NOTES:
// measure 0
00000000
00000000
00000000
00000000
,  // measure 1
00000000
00000000
00000000
00000000
,  // measure 2
00000000
00000000
00000000
00000000
,  // measure 3
00000000
00000000
00000000
00000000
,  // measure 4
10000000
00010000
00100000
00000000
01000000
00000000
00100000
00001000
,  // measure 5
00010000
00000000
00001000
00000000
00000100
00000001
00001000
00000001
,  // measure 6
00000010
00000100
00001000
00000000
00000001
00000000
00000100
00001000
,  // measure 7
00010000
00000100
00010000
00001000
00010000
00000100
00010000
00001000
,  // measure 8
00100000
00010000
01000000
00001000
00010000
00000100
00001000
00001000
,  // measure 9
00000010
00001000
00000100
00010000
00001000
01000000
00010000
00010000
,  // measure 10
10000000
00010000
10000000
00010000
10000000
00010000
10000000
00010000
20000000
00000000
00000000
00000000
00000000
30000000
00000000
00000000
,  // measure 11
01000000
00100000
01000000
00100000
01000000
00100000
01000000
00100000
02000000
00000000
00000000
00000000
03000000
00000000
00000000
00000000
,  // measure 12
10000000
01000000
00100000
00010000
00100000
00001000
00010000
00001000
,  // measure 13
00000000
00010000
00000100
00001000
00000010
00001000
00000100
00000010
,  // measure 14
00000000
00000001
00000010
00000100
00001000
00000001
00000100
00001000
,  // measure 15
00000000
00010000
00100000
10000000
00010000
00100000
00001000
00010000
,  // measure 16
00000000
00000100
00000010
00000001
00000100
00001000
00000100
00000001
,  // measure 17
00000000
00000010
00000100
00010000
00001000
00000100
00001000
00010000
,  // measure 18
00000000
00100000
01000000
00010000
00100000
10000000
00100000
00010000
,  // measure 19
00000000
00000000
01000000
00000000
00100000
00000000
00010000
00000000
00001000
00010000
00001000
00010000
00001000
00000000
00010000
00000000
,  // measure 20
00001000
00010000
00000010
00000100
00001000
00010000
00100000
00010000
,  // measure 21
00000000
00001000
00100000
01000000
00010000
00001000
00000010
00001000
,  // measure 22
00000000
00010000
01000000
10000000
00100000
00010000
00001000
00010000
,  // measure 23
00000000
00001000
00000100
00000001
00000010
00001000
00010000
00001000
,  // measure 24
00000000
00000000
00010000
00000000
01000000
00000000
00100000
00000000
00010000
10000000
00010000
00000000
01000000
00000000
00100000
00000000
,  // measure 25
00000000
00000000
00010000
00000000
00001000
00000000
00000100
00000000
00000001
00001000
00000001
00000000
00000010
00000000
00000100
00000000
,  // measure 26
00000000
00000000
00000010
00000000
00001000
00000000
00010000
00000000
00000100
00010000
00000100
00000000
00001000
00000000
00000010
00000000
,  // measure 27
00000001
00000000
00000010
00000000
00001000
00000000
00000100
00000000
00010000
00000000
00000000
00000000
00001000
00010000
00001000
00010000
,  // measure 28
00002000
00000000
00023000
00001000
00000000
00000010
00000000
00030200
,  // measure 29
00000010
00000000
00002300
00000010
00000000
00000001
00000000
00003200
,  // measure 30
00000000
00000000
00000000
00000000
00000301
00000000
00000100
00000000
00001000
00000000
00000200
00000000
00000000
00000000
00000310
00000001
,  // measure 31
00002000
00000000
00003002
00000203
00000000
00002300
00000000
00010000
,  // measure 32
00023000
00000000
00032000
00010000
00000000
00100000
00000000
02003000
,  // measure 33
00100000
00000000
03020000
00100000
00000000
10000000
00000000
02030000
,  // measure 34
00000000
00000000
13000000
02000000
00000000
00010000
00000000
03200000
,  // measure 35
01000000
00000000
00000000
00000000
10000000
00000000
00000000
00000000
01300000
00010000
01000000
00010000
01000000
00000000
00002000
00000000
,  // measure 36
00000000
00013000
00000100
00000010
00001000
00000010
00000001
00000200
,  // measure 37
00000000
00001300
00010000
00100000
01000000
00010000
00100000
20000000
,  // measure 38
00000000
30100000
01000000
00010000
00001000
00000010
00000001
00000101
,  // measure 39
00000000
00001100
00000000
00010100
00000000
00011000
00000000
02001000
,  // measure 40
00000000
03100000
10000000
00010000
01000000
00100000
00010000
00012000
,  // measure 41
00000000
00000000
00003010
00000000
00000001
00000000
00000100
00000000
00000010
00001000
00000010
00001000
00000010
00000000
00000100
00000000
,  // measure 42
00000001
00000000
00000010
00000000
00001000
00000000
00010000
00001000
00020000
00000000
00000000
00000000
01030000
00000000
10000000
00000000
,  // measure 43
00100000
00000000
00010000
00000000
00001000
00000000
00010000
00001000
00020000
00000000
00000000
00000000
00031000
00000000
00000010
00000000
,  // measure 44
00000110
00000000
00001100
00000000
00000001
00000100
00001000
00010000
,  // measure 45
00000000
00022000
00000000
00033000
,  // measure 46
00001000
00010000
00001000
00010000
00000100
00000010
00000001
00000100
,  // measure 47
00000010
00000100
00000010
00000100
00001000
00010000
00100000
01000000
,  // measure 48
00010000
00100000
00110000
00000000
10000000
01000000
11000000
00000000
,  // measure 49
00010000
01000000
01010000
00000000
10000000
01000000
11000000
20010000
,  // measure 50
00000000
01000000
31000000
00000000
00100000
00001000
00010000
00000010
,  // measure 51
00000100
00000100
00001000
00001000
00010000
00010000
00100000
00100000
,  // measure 52
20000000
00000000
00010000
00000000
31000000
00100000
00001000
00020000
,  // measure 53
00000000
00000000
00001000
00000000
00031000
00000000
00000000
00000000
00001000
00010000
00001000
00010000
00001000
00000000
00000000
00000000
,  // measure 54
00010000
00001000
00010000
00001000
00100000
01000000
10000000
00100000
,  // measure 55
01000000
00100000
01000000
00100000
00010000
00001000
00000100
00000010
,  // measure 56
00001000
00000100
00001100
00000000
00000001
00000010
00000011
00000000
,  // measure 57
00001000
00000010
00001010
00000000
00000001
00000010
00000011
00001002
,  // measure 58
00000000
00000010
00000013
00000000
00000100
00010000
00001000
01000000
,  // measure 59
00100000
00100000
00010000
00010000
00001000
00001000
00000100
00000100
,  // measure 60
00000002
00000000
00001003
00000001
00000010
00000100
00010000
00002000
,  // measure 61
00000000
00000000
00010000
00000000
00013000
00000000
00000000
00000000
00010000
00001000
00010000
00001000
00010000
00000000
00000000
00000000
,  // measure 62
01000000
10000000
01000000
00200000
00000000
00301000
00010000
00000200
,  // measure 63
00000000
00000310
00000001
00002000
00000000
00003001
00000100
00000020
,  // measure 64
00000000
00000031
00000010
00000200
00000000
00001300
00010000
02000000
,  // measure 65
00000000
03100000
00010000
00002000
00000000
00003100
00000010
00000001
,  // measure 66
00001000
00000000
00000001
00000000
00000110
00000000
00000000
00001002
,  // measure 67
00000000
00000000
00000103
00000000
00000010
00000000
00010000
00000000
00001000
00010000
00001000
00010000
00001000
00000000
00100000
00000000
,  // measure 68
00202000
00000000
00000000
00303000
,  // measure 69
00000000
00011000
00000000
00001100
00001001
00000000
00000000
00000000
,  // measure 70
00000001
00001000
00000010
00000000
00000110
00000000
00000100
00001000
,  // measure 71
00010000
00000000
00011000
00000000
00001000
00010000
01000000
10000000
,  // measure 72
00010000
01000000
00100000
00000000
01100000
00000000
10000000
00100000
,  // measure 73
00010000
00000000
00011000
00000000
00001000
00000010
00000001
00001000
,  // measure 74
00000001
00000100
00001000
00010000
00000100
00010000
01000000
01000000
,  // measure 75
10000000
00100000
00010000
00001000
01000000
00001000
00000100
00000100
,  // measure 76
00000001
00001000
00000001
00001000
00000001
00001000
00000001
00001000
00000200
00000000
00000000
00000000
00000300
00000000
00000000
00000000
,  // measure 77
00000010
00000100
00000010
00000100
00000010
00000100
00000010
00000100
00002000
00000000
00000000
00003001
00000100
00000010
00001000
00000010
,  // measure 78
00000000
00000000
00011000
00000000
;

//---------------dance-single - ----------------
#NOTEDATA:;
#CHARTNAME:;
#STEPSTYPE:dance-single;
#DESCRIPTION:;
#CHARTSTYLE:;
#DIFFICULTY:Medium;
#METER:11;
#RADARVALUES:0.504247,0.564038,0.170648,0.485001,0.004491,393.000000,374.000000,19.000000,54.000000,0.000000,0.000000,0.000000,0.000000,0.000000,0.504247,0.564038,0.170648,0.485001,0.004491,393.000000,374.000000,19.000000,54.000000,0.000000,0.000000,0.000000,0.000000,0.000000;
#CREDIT:nobarben;
#NOTES:
0000
0000
0000
0000
,
0000
0000
0000
0000
,
0000
0000
0000
0000
,
0000
0000
0000
0000
,
1000
0100
1000
0001
,
0100
0000
0100
0000
0010
1000
0010
1000
,
0001
0100
0001
0010
,
0100
0000
0100
0000
0010
0001
0010
0001
,
1000
0001
0100
0000
0010
0000
1000
0000
,
0001
1000
0100
0000
0010
0000
0001
0000
,
0200
0000
0300
0100
0010
0000
0000
0000
,
1000
0000
0000
1000
0000
0000
1000
0000
0001
0000
0000
0000
0000
0000
0000
0000
,
1000
0000
0001
0000
0010
0000
0100
1000
,
0000
0100
0010
0000
0001
0000
0100
0001
,
1000
0000
0010
0000
0100
0000
0001
0100
,
0000
0001
0010
0000
0100
1000
0001
1000
,
0001
0000
0100
0000
0010
0000
1000
0010
,
0000
0100
0010
0000
0100
0000
0001
0010
,
0100
0000
1000
0000
0001
0000
0100
0010
,
0000
1000
0010
0000
0100
0001
1000
0000
,
0001
0000
1000
0000
0001
0010
0100
0010
,
0000
0010
0001
0000
1000
0010
0100
0010
,
0100
0000
0100
0000
0001
1000
0100
0010
,
0000
0010
0100
0000
0010
0001
1000
0001
,
1000
0000
0001
0000
1000
0100
0010
0001
,
0000
0001
1000
0000
0001
0100
0010
1000
,
0010
1000
0001
0000
0010
0100
1000
0000
,
0001
0100
1000
0100
0002
0000
0003
0000
,
2000
0000
3001
0100
0002
0000
0103
0010
,
0200
0000
0310
1000
0000
0001
0000
0020
,
0000
0000
0130
0010
0100
0010
0000
0002
,
1000
1000
0100
0103
,
0002
0000
1003
0100
2000
0000
3100
0010
,
0200
0000
0310
0001
0000
1000
0000
0020
,
0000
0000
0130
0010
0000
0010
0000
2000
,
0001
0000
0001
0000
0100
0000
3100
0100
,
0000
0010
0001
1000
0002
0000
0000
0103
,
0000
0010
1000
0001
2000
0000
0100
3100
,
0000
0010
0100
1000
0001
1000
0001
0200
,
0000
2300
0000
3200
0000
0302
0000
0013
,
0000
0010
0100
1000
0002
0000
0000
0103
,
0000
0100
0010
1000
0002
0000
0003
0000
,
0010
0100
2000
0000
0000
3001
0100
0010
,
0100
0001
0020
0000
0000
0030
0000
0100
,
0010
0000
0110
0000
1000
0001
0100
0010
,
0000
2002
0000
3003
,
0002
0010
0103
0110
,
2000
0010
3100
0110
,
0001
0011
1000
1010
,
0001
0000
0101
0000
1000
0000
1100
2100
,
0000
0000
3001
0000
1000
0100
0001
0100
,
2000
3020
0230
0302
,
0023
0000
0100
0000
0130
0010
0001
2000
,
0000
0001
3002
0000
0100
0000
0103
0000
,
0200
0010
0301
0011
,
0200
0010
1300
1100
,
1000
1010
0001
0011
,
1000
0000
1100
0000
0001
0000
0101
0102
,
0000
0000
1003
0000
0001
0100
1000
0100
,
0002
0023
0230
2300
,
3010
0000
0010
0100
0001
0010
0100
0020
,
0000
0001
0031
0000
1000
0001
0100
0000
,
0010
1000
0010
2000
0000
3001
0010
0200
,
0000
0310
0001
2000
0000
3001
0100
0020
,
0000
1030
0001
0020
0000
0130
1000
0200
,
0000
0310
0001
2000
0000
0000
3000
0000
,
0001
0000
1000
0000
0110
0000
0000
1002
,
0000
0013
0100
1000
0001
0100
1000
0100
,
0002
0000
0000
0003
,
0000
1000
0000
0100
0010
0000
0000
0000
,
0001
0010
0100
0000
0010
0000
0001
1000
,
0010
0000
0100
0000
0010
0100
0001
0100
,
0010
1000
0001
0000
0010
0000
0100
1000
,
0100
0000
0010
0000
0001
1000
0100
0010
,
0100
1000
0100
1000
0001
0100
0001
0000
,
0010
0001
0010
0001
1000
0100
1000
0000
,
0010
1000
0100
1000
0020
0000
0030
0000
,
0100
0001
0010
0001
0200
0000
0020
0000
,
0330
0000
1001
0000
;

//---------------dance-single - ----------------
#NOTEDATA:;
#CHARTNAME:;
#STEPSTYPE:dance-single;
#DESCRIPTION:;
#CHARTSTYLE:;
#DIFFICULTY:Easy;
#METER:6;
#RADARVALUES:0.270728,0.352524,0.116759,0.170648,0.000000,211.000000,198.000000,13.000000,19.000000,0.000000,0.000000,0.000000,0.000000,0.000000,0.270728,0.352524,0.116759,0.170648,0.000000,211.000000,198.000000,13.000000,19.000000,0.000000,0.000000,0.000000,0.000000,0.000000;
#CREDIT:nobarben;
#NOTES:
0000
0000
0000
0000
,
0000
0000
0000
0000
,
0000
0000
0000
0000
,
0000
0000
0000
0000
,
0001
0000
0001
0000
,
0010
0010
0100
0000
,
1000
0000
1000
0000
,
0010
0010
0100
0000
,
0001
0100
0001
0000
,
1000
0100
1000
0000
,
0200
0000
0310
0000
,
0020
0000
0130
0000
,
1000
0000
0000
0000
0100
0000
0000
1000
,
0000
0000
0001
0000
,
0100
0000
0000
0000
0010
0000
0000
0100
,
0000
0100
0100
0000
,
0001
0000
0000
0000
0010
0000
0000
0001
,
0000
0000
1000
0000
,
0010
0000
0000
0000
0100
0000
0000
0001
,
0000
0001
0001
0000
,
1000
0000
0100
0000
1000
0000
0000
0001
,
0000
1000
0001
0000
,
0100
0000
0001
0000
0100
0000
0000
0010
,
0000
0100
0010
0000
,
1000
0000
0010
0000
0100
0000
0000
0001
,
0000
1000
0001
0000
,
0010
0001
1000
0000
,
0001
1000
2002
3003
,
0001
0100
0000
0100
,
0010
0000
0000
1000
0000
1000
0000
1000
,
0000
0001
0000
1000
,
0000
0001
0000
0001
,
1000
0001
0000
0001
,
0010
0000
0000
0001
0000
0001
0000
0001
,
0000
0100
0000
0001
,
1000
0000
0000
0000
2000
0000
0000
3001
,
0000
0000
1000
0000
0010
0000
0000
1000
,
0000
0000
0001
0000
0010
0000
0000
0001
,
0000
0000
1000
0000
0100
0000
0000
0010
,
0000
0010
0000
0010
0000
0000
0000
0001
,
0000
0000
1000
0000
0010
0000
0000
0100
,
0000
0001
1000
0000
,
0200
0000
0310
0000
,
0002
0000
1003
0000
,
0010
0000
0010
0000
1000
0000
0001
1000
,
0000
0000
0000
0000
,
0001
0100
0001
0100
,
0010
1000
0010
1000
,
0000
1001
0000
1001
,
0000
0110
0000
0220
,
0330
0001
1000
0001
,
0010
0010
0100
0100
,
2000
0000
0000
0000
0000
0000
3000
0002
,
0000
0000
0000
0000
,
1003
0100
1000
0100
,
0010
0001
0010
0001
,
0000
1001
0000
1001
,
0000
0110
0000
0220
,
0330
1000
0001
1000
,
0010
0010
0100
0100
,
0001
0001
1000
2000
,
0000
0000
3000
0000
,
1000
0000
0000
0001
0000
0000
0000
0100
,
0000
0000
0000
0001
0000
0000
0000
1000
,
0000
0000
0000
0001
0000
0000
0000
0010
,
0000
0000
0000
0200
0000
0000
0000
0000
,
1300
0000
0001
0000
1001
0000
0000
0110
,
0000
0000
0001
1000
,
2002
0000
0000
3003
,
0000
1000
0000
0001
1000
0000
0000
0000
,
1000
0010
1000
0000
,
0010
0010
0100
0000
,
0001
1000
0001
0000
,
0010
0010
0100
0000
,
1000
0100
1000
1000
,
0001
0100
0001
0001
,
0200
0000
0310
0000
,
0020
0000
0130
0000
,
0000
0000
1001
0000
;
