#VERSION:0.83;
#TITLE:Magical electrica;
#SUBTITLE:;
#ARTIST:こふ;
#TITLETRANSLIT:;
#SUBTITLETRANSLIT:;
#ARTISTTRANSLIT:;
#GENRE:;
#ORIGIN:;
#TAGS:;
#CREDIT:;
#BANNER:Magical electrica-bn.png;
#BACKGROUND:Magical electrica-bg.png;
#PREVIEWVID:;
#JACKET:Magical electrica-jacket.png;
#CDIMAGE:;
#DISCIMAGE:;
#LYRICSPATH:;
#CDTITLE:;
#MUSIC:Magical electrica.ogg;
#OFFSET:1.517000;
#SAMPLESTART:89.251999;
#SAMPLELENGTH:15.000000;
#SELECTABLE:YES;
#DISPLAYBPM:78.000000:156.000000;
#BPMS:0.000000=156.000000
,132.000000=78.000000
,148.000000=156.000000
,167.000000=312.000000
,168.000000=156.000000
,171.000000=312.000000
,172.000000=156.000000
,175.000000=312.000000
,176.000000=156.000000
,180.750000=312.000000
,181.750000=156.000000
,182.750000=312.000000
,183.750000=156.000000
;
#STOPS:167.000000=0.192000
,171.000000=0.192000
,175.000000=0.192000
,180.750000=0.192000
,182.750000=0.192000
;
#DELAYS:;
#WARPS:;
#TIMESIGNATURES:0.000000=4=4
;
#TICKCOUNTS:0.000000=4
;
#COMBOS:0.000000=1
;
#SPEEDS:0.000000=1.000000=0.000000=0
;
#SCROLLS:0.000000=1.000000
;
#LABELS:0.000000=Song Start
;
#BGCHANGES:;
#KEYSOUNDS:;
#ATTACKS:
;

//---------------dance-single - ----------------
#NOTEDATA:;
#CHARTNAME:;
#CHARTHASH:2147483647;
#STEPSTYPE:dance-single;
#BANNER:;
#DESCRIPTION:;
#CHARTSTYLE:;
#DIFFICULTY:Hard;
#METER:13;
#METERF:0.000000;
#LASTSECONDHINT:115.019928;
#RADARVALUES:0.518840,0.806865,0.066640,0.524790,0.274890,436.000000,428.000000,8.000000,63.000000,0.000000,0.000000,0.000000,0.000000,0.000000,0.518840,0.806865,0.066640,0.524790,0.274890,436.000000,428.000000,8.000000,63.000000,0.000000,0.000000,0.000000,0.000000,0.000000;
#CREDIT:;
#DISPLAYBPM:78.000000:156.000000;
#NOTES:
0000
0000
0000
0000
,
0000
0000
0000
0000
,
0000
0000
0000
0000
,
0000
0000
0000
0000
,
0000
0000
0000
0000
,
1002
0000
0000
0000
0000
0000
0003
0100
,
0220
0000
0000
0000
0000
0000
0000
0000
0000
0000
0000
0000
0330
0000
0001
1000
,
0200
0000
0000
0000
,
0010
0000
0000
0010
0000
0000
0310
0000
0001
0000
0100
0000
0010
0000
0000
0000
,
0100
0100
0001
0001
,
0010
0010
0100
0100
,
1000
1000
0010
0010
,
0100
0100
0001
0001
,
0010
0010
0001
0001
0100
0100
0010
0010
,
0100
0100
0010
0010
1000
1000
0100
0100
,
0010
0000
0001
0000
0100
0000
0010
0000
1000
0000
0100
0000
0010
0001
0010
0001
,
0020
0000
0100
0031
,
1000
0010
0100
0001
0010
0100
1000
0001
,
0100
1000
0100
0001
0010
0100
1000
0000
,
0001
0010
0100
1000
0010
0100
0001
1000
,
0100
0000
0001
0000
0100
0000
1000
0010
1000
0000
0100
0000
0010
0000
0000
0000
,
0001
0010
0100
1000
0010
0100
0001
1000
,
0100
0000
0010
0001
0010
0000
0001
0100
0001
0000
0100
0000
0010
0000
0000
0000
,
1000
0100
0010
0001
0100
0010
1000
0001
,
0020
0000
0100
0100
0130
1000
1001
0000
,
0002
0000
0000
0010
0000
0000
0013
0000
0001
0000
0100
0000
1000
0000
0100
0000
,
0020
0000
0000
1000
0000
0000
1030
0000
0100
0000
0010
0000
0100
0000
0000
0000
,
2000
0000
0000
0010
0000
0000
3010
1000
0001
0000
0010
0000
1000
0000
0010
0000
,
0200
0000
0000
1000
0000
0000
1300
0000
0010
0000
0100
0000
0001
0000
0000
0000
,
0010
0000
0001
0100
0000
0000
0010
0000
1000
0000
0001
0000
0010
0000
0001
0000
,
0100
0000
0001
0010
0000
0000
0100
0000
1000
0000
0001
0000
0100
0000
0001
0000
,
1000
0000
0010
0100
0000
0000
0001
0000
1000
0100
0000
0100
0010
0000
0100
0000
,
1000
0010
0100
0001
0010
0100
0010
0001
,
0200
0000
0000
0000
0000
0010
0310
1000
0200
0000
0000
0000
0010
0000
1300
0000
,
0010
0100
0101
0000
0010
0100
1100
0000
0010
0100
0001
0010
1000
0010
0011
0000
,
2000
0000
0000
0010
0000
0000
3100
0000
0002
0000
0000
0000
0013
0000
0000
0000
0002
0000
0000
0010
0000
0000
0103
0000
2000
0000
0000
0000
3020
0000
0000
0000
,
0100
0100
0100
0130
0002
0000
0023
0000
0031
0100
1000
0100
0010
1000
0100
0000
,
2000
0010
0001
3100
,
0002
0010
1000
0103
,
2000
0100
0001
3010
,
0002
0100
1000
0013
,
0001
0001
0100
0100
0010
0010
0000
0000
,
1000
1000
0100
0100
0010
0010
0000
0000
,
0100
0000
0100
0000
0001
0000
0001
1000
0001
0000
0010
0000
0000
0000
0000
0000
,
0001
0100
0010
1000
0100
0010
0001
0100
,
0010
0010
0000
0000
0100
0100
0000
0000
,
0001
0000
0001
1000
0000
0000
0100
0000
2000
0000
0010
0000
3010
0000
0000
0000
,
0200
0000
0000
0000
,
0302
0000
0000
0000
0000
0000
0000
0013
,
0020
0000
0000
0000
,
0230
0000
0000
0000
1300
1000
0010
0000
,
2000
0000
0000
0010
0000
0000
3100
0000
0002
0000
0000
0010
0000
0000
0103
0000
,
2000
0000
0000
0010
0000
0000
3100
0000
1000
0000
0010
0000
0100
0000
0001
0000
,
0020
0000
0000
0100
0000
0000
0031
0000
0100
0000
0010
0000
1000
0000
0010
0000
,
0200
0000
0310
1001
,
2000
0000
0000
3200
0000
0000
0302
0000
0103
0010
0100
0000
1000
0000
0010
0000
,
0200
0000
0000
0302
0000
0000
0023
0000
0130
1000
0100
0000
1000
0100
1000
0000
,
0002
0000
0000
0203
0000
0000
2300
0000
3100
0010
0100
0000
0001
1000
0001
0000
,
0020
0000
0000
0230
0000
0000
2300
0000
3010
0000
0010
0000
0100
0000
0000
0000
,
0002
0000
0000
0023
0000
0000
2030
0000
3010
0100
0010
0000
0001
0000
0100
0000
,
2000
0000
0000
3200
0000
0000
0320
0000
1030
0001
1000
0000
0100
0000
0100
0000
,
2000
0000
0000
3020
0000
0000
0032
0000
2003
0000
0000
3200
0000
0000
0302
0000
,
0023
0000
0000
0100
0000
0000
0130
0000
1000
0000
0010
0000
0100
0000
0001
0000
,
1000
0000
0000
0000
0010
0000
0000
0000
0100
0001
0100
0000
0001
0000
0010
0000
,
0100
0000
0000
0000
1000
0000
0000
0000
0010
1000
0010
0000
0100
0000
0001
0000
,
0010
0000
0000
0000
0001
0000
0000
0000
1000
0010
1000
0000
0100
0000
0010
0000
,
0002
0000
0000
0100
0000
0000
0103
0000
0010
0100
0001
0000
0010
0000
0100
0000
,
1000
0000
0010
0000
0100
0000
0000
0000
0001
1000
0001
0000
0010
0000
0100
0000
,
1000
0000
0100
0000
0010
0000
0000
0000
0001
1000
0001
0000
0100
0000
0010
0000
,
2000
0000
0000
0100
0000
0000
3010
0000
0100
0001
0010
0000
0100
1000
0010
0000
,
0200
0000
0000
0001
0000
0000
0310
0000
1000
0000
0001
0000
2002
0000
0000
0000
,
0000
0000
0000
3003
;

//---------------dance-single - ----------------
#NOTEDATA:;
#CHARTNAME:;
#CHARTHASH:2147483647;
#STEPSTYPE:dance-single;
#BANNER:;
#DESCRIPTION:;
#CHARTSTYLE:;
#DIFFICULTY:Challenge;
#METER:16;
#METERF:0.000000;
#LASTSECONDHINT:115.019928;
#RADARVALUES:0.788970,1.404542,0.149940,0.641410,0.995435,663.000000,645.000000,18.000000,77.000000,0.000000,0.000000,0.000000,0.000000,0.000000,0.788970,1.404542,0.149940,0.641410,0.995435,663.000000,645.000000,18.000000,77.000000,0.000000,0.000000,0.000000,0.000000,0.000000;
#CREDIT:;
#DISPLAYBPM:78.000000:156.000000;
#NOTES:
// measure 0
0000
0000
0000
0000
,  // measure 1
0000
0000
0000
0000
,  // measure 2
0000
0000
0000
0000
,  // measure 3
0000
0000
0000
0000
,  // measure 4
0000
0000
0000
0000
,  // measure 5
2000
0000
0000
0000
0000
0000
0000
0000
0000
0000
0000
0000
0000
0000
3100
0010
,  // measure 6
0200
0000
0000
0000
0000
0000
0000
1300
,  // measure 7
1020
0000
0000
0000
,  // measure 8
0230
0000
0000
0000
0000
0000
0301
0010
0001
0000
0100
0000
0010
0000
0000
0000
,  // measure 9
2000
0000
0000
3200
0000
0000
0302
0000
0103
0000
0010
0001
0100
0000
0010
0000
,  // measure 10
2000
0000
0000
3200
0000
0000
0302
0000
1003
0000
0010
0000
0001
0000
0100
0000
,  // measure 11
0020
0000
0000
2030
0000
0000
3200
0000
0310
0001
0100
1000
0100
0000
0001
0000
,  // measure 12
0020
0000
0000
0230
0000
0000
0301
0000
1000
0000
0010
0100
1000
0000
0001
0000
,  // measure 13
0100
0000
0001
2000
0000
0000
3100
0000
0010
0000
0001
1000
0010
0000
0100
0000
,  // measure 14
0010
0000
1000
0002
0000
0000
0013
0000
0100
0000
1000
0001
0100
0000
0010
0000
,  // measure 15
1000
0100
0001
0100
1000
0010
0100
0001
0010
0100
1000
0001
0100
0010
1000
0001
,  // measure 16
0020
0000
0001
0130
,  // measure 17
1000
0100
0010
0001
1000
0010
0001
0010
,  // measure 18
1000
0001
1000
0001
0100
0010
0100
0010
1000
0000
0100
0000
0010
0000
0000
0000
,  // measure 19
0001
0000
0100
0000
0010
0000
1000
0000
0001
0000
0010
0000
0100
0001
0100
0000
,  // measure 20
1000
0000
0010
0000
0100
0010
0100
0000
0001
0010
0001
0010
0100
1000
0100
1000
,  // measure 21
0010
0100
0001
0010
1000
0001
0100
1000
,  // measure 22
0100
0000
0001
0010
0001
0000
1000
0010
1000
0000
0001
0010
0001
0000
0100
0000
,  // measure 23
0010
1000
0100
0001
1000
0001
0100
1000
,  // measure 24
0010
0100
0010
0100
0001
0010
0001
0010
0100
1000
0100
1000
0010
0000
0000
0000
,  // measure 25
2000
0000
0000
3200
0000
0000
0302
0000
0103
1000
0010
1000
0100
0000
0010
0001
,  // measure 26
0200
0000
0000
0320
0000
0000
0031
0010
1000
0000
0100
0000
0010
0000
0001
0100
,  // measure 27
0002
0000
0000
0023
0000
0000
2030
0000
3010
0001
0100
0010
0100
0000
0010
1000
,  // measure 28
0200
0000
0000
0320
0000
0000
1030
0010
0100
0000
1000
0000
0010
0000
0100
0000
,  // measure 29
0002
0000
0000
0013
0000
0000
0100
0010
0001
0100
0001
0100
0010
0000
0100
0010
,  // measure 30
2000
0000
0000
3200
0000
0000
0310
0100
1000
0000
0010
0000
0001
0000
0010
0100
,  // measure 31
0002
0000
0000
2003
0000
0000
3100
0000
0010
0001
0000
0001
0010
0001
0100
0010
,  // measure 32
2000
0000
0000
3002
0000
0000
0013
0100
0010
0000
0001
0000
0001
0000
0100
0000
,  // measure 33
0102
0000
0000
1000
0000
0000
0103
0000
0001
0010
1000
0010
0001
0000
0100
0010
2010
0000
0000
0001
0000
0000
3010
0100
0010
0000
1000
0000
0100
0000
1000
0001
,  // measure 34
1000
0000
0010
0000
0110
0000
0100
0010
0100
0000
0001
0000
1001
0000
1000
0010
1000
0000
0100
0000
1100
0000
0001
0100
0001
0000
0010
0000
0011
0000
1100
0000
,  // measure 35
0021
0000
0000
0100
0000
0000
0031
0000
0100
0010
1000
0100
0001
0000
0100
1000
2010
0000
0000
0100
0000
0000
3010
1000
0100
0000
0010
0000
0001
0000
1000
0010
,  // measure 36
0200
0000
0001
0000
0001
0000
0301
0000
0200
0000
0000
0000
0320
0000
0000
0000
1030
0100
1000
0100
0010
0001
0010
0001
0100
0010
0100
0010
1000
0000
0000
0000
,  // measure 37
0001
0100
0010
1000
0100
0001
1000
0010
,  // measure 38
0001
0100
1000
0100
1000
0001
0010
0010
,  // measure 39
1000
0100
0010
0001
0100
1000
0001
0010
,  // measure 40
1000
0100
0001
0100
1000
0010
0002
0000
,  // measure 41
0013
0000
0000
0000
0000
0000
0100
0000
0000
0001
0000
0000
0000
0000
0000
0001
0000
0000
0000
0000
0000
0001
0000
0000
0100
0000
0000
0000
0000
0000
0001
0000
0000
0000
0000
0000
0020
0000
0030
0000
0000
0000
0000
0000
0000
0000
0000
0000
,  // measure 42
0100
0000
0000
0000
0000
0000
1000
0000
0000
0010
0000
0000
0000
0000
0000
0010
0000
0000
0000
0000
0000
0010
0000
0000
1000
0000
0000
0000
0000
0000
0100
0000
0000
0000
0000
0000
0020
0000
0030
0000
0000
0000
0000
0000
0000
0000
0000
0000
,  // measure 43
0001
0000
0000
0000
0000
0000
0010
0000
0000
0100
0000
0000
0000
0000
0000
0100
0000
0000
0000
0000
0000
0100
0000
0000
1000
0000
0000
0000
0000
0000
0010
0000
0100
0000
0010
0000
0200
0000
0300
0000
0000
0000
0000
0000
0000
0000
0000
0000
,  // measure 44
0001
0000
1000
0100
0000
0100
0000
0100
1000
0000
0010
0000
0100
0001
0010
0000
,  // measure 45
0100
0000
0100
2000
3000
0000
0000
0000
0001
0000
0001
0020
0030
0000
0000
0000
,  // measure 46
0100
0000
0100
1000
0000
1000
0000
1000
0010
0000
0020
0000
0000
0000
0000
0000
,  // measure 47
0230
0000
0000
0302
0000
0000
0023
0000
1030
0010
0001
0100
1000
0000
0100
0000
,  // measure 48
0020
0000
0000
2030
0000
0000
3100
0010
0100
0000
1000
0000
0001
0000
0100
0010
,  // measure 49
0200
0000
0000
0302
0000
0000
2003
0000
3100
0001
0100
0010
0001
0000
0100
0010
,  // measure 50
2000
0000
0000
3020
0000
0000
0130
0001
0100
0000
0010
0000
1000
0000
0100
0000
,  // measure 51
0020
0000
0000
0032
0000
0000
0203
0000
1300
0100
0001
0010
1000
0000
0010
0100
,  // measure 52
2000
0000
0000
3020
0000
0000
0130
0010
0100
0000
0001
0000
0010
0000
0100
0010
,  // measure 53
0200
0000
0000
2300
0000
0000
3002
0000
0103
0010
0000
0010
0100
1000
0100
0001
,  // measure 54
0020
0000
0000
0100
0000
0000
0031
0000
0100
0010
0000
0000
1001
0000
0000
0000
,  // measure 55
1000
0000
0001
0100
0000
0100
0001
0000
1000
0100
0001
0100
1000
0000
0010
0100
,  // measure 56
0001
0000
1000
0100
0000
0100
1000
0000
0010
0000
0100
0001
0100
0000
0010
0000
,  // measure 57
1000
0000
0001
0010
0000
0010
0001
0000
0100
0010
0100
0010
1000
0001
1000
0001
,  // measure 58
0010
0000
0001
1000
0000
1000
0100
0010
0001
0000
0100
0000
1000
0000
0100
0000
,  // measure 59
0001
0000
1000
0100
0000
0100
0010
0000
0001
0100
1000
0100
0001
0010
1000
0010
,  // measure 60
0001
0000
1000
0010
0000
0010
0100
0001
1000
0000
0100
0000
0001
0000
0100
0000
,  // measure 61
1100
0000
1000
0010
0000
0010
0100
0001
0101
0000
0001
0010
0000
0010
0100
1000
,  // measure 62
1010
0000
0100
0001
0011
0000
0100
1000
2010
0000
0010
0000
3010
0000
0100
0000
,  // measure 63
0001
0000
0010
0001
0000
0001
0100
0010
1000
0100
0001
0100
0010
0001
0100
0010
,  // measure 64
1000
0000
0010
1000
0000
1000
0100
0010
0001
0000
0100
0000
1000
0000
0100
0010
,  // measure 65
0100
0000
0001
0010
0000
0010
0100
1000
0010
1000
0100
0010
0001
0100
0010
1000
,  // measure 66
0100
0000
1000
0010
0000
0010
0100
0001
0010
0000
0100
0000
1000
0000
0010
0100
,  // measure 67
0010
0000
1000
0100
0000
0100
0010
0001
0100
1000
0100
0001
0010
1000
0010
0001
,  // measure 68
0100
0000
0001
0010
0000
0010
0100
1000
0010
0000
0100
0000
0001
0000
0010
0100
,  // measure 69
2000
0000
0000
3020
0000
0000
0230
0000
0301
0010
0000
0010
0001
0100
1000
0100
,  // measure 70
0002
0000
0000
0023
0000
0000
0230
0000
0310
0000
1001
0000
0220
0000
0000
0000
,  // measure 71
0000
0000
0000
0330
;
