#TITLE:MY DJ;
#SUBTITLE:;
#ARTIST:ASLETICS;
#TITLETRANSLIT:;
#SUBTITLETRANSLIT:;
#ARTISTTRANSLIT:;
#GENRE:;
#CREDIT:;
#MUSIC:My DJ.ogg;
#BANNER:My DJ-bn.png;
#BACKGROUND:My DJ-bg.png;
#CDTITLE:;
#SAMPLESTART:2.126;
#SAMPLELENGTH:12.000;
#SELECTABLE:YES;
#OFFSET:0.088;
#BPMS:0.000=120.000;
#STOPS:100.000=1.500;
#ORIGIN:;
#TAGS:;
#PREVIEWVID:;
#JACKET:;
#CDIMAGE:;
#DISCIMAGE:;
#BGCHANGES:;
#FGCHANGES:;

//--------------- dance-single - OrangeRight ----------------
#NOTES:
     dance-single:
     OrangeRight:
     Beginner:
     2:
     0.148595,0.172927,0.013002,0.052008,0,80,79,1,4,0,0,0,0,0,0.148595,0.172927,0.013002,0.052008,0,80,79,1,4,0,0,0,0,0:
0000
0000
0000
0000
,
0000
0000
0000
0000
,
1000
0000
1000
0000
,
0001
0000
0001
0000
,
1000
0000
0001
0000
,
0100
0000
0100
0000
,
0001
0000
0001
0000
,
1000
0000
1000
0000
,
0001
0000
1000
0000
,
0200
0000
0300
0000
,
1000
0000
0010
0000
,
1000
0000
1000
0000
,
0001
0000
0010
0000
,
0001
0000
0001
0000
,
1000
0000
0100
0000
,
1000
0000
1000
0000
,
0001
0000
0100
0000
,
0010
0000
1000
0000
,
0001
0000
0010
0000
,
0100
0000
0100
0000
,
1000
0000
0010
0000
,
0100
0000
0100
0000
,
0001
0000
1000
0000
,
0100
0000
0100
0000
,
1000
0000
0001
0000
,
2002
0000
0000
0000
0000
0000
0000
3003
,
1000
0000
0001
0000
,
0100
0000
0001
0001
,
0001
0000
1000
1000
,
1000
0000
0001
0000
,
1000
1000
1000
0000
,
0001
0001
0001
0000
,
0100
0100
0100
0000
,
0010
0010
0010
0000
,
1000
0001
1000
0000
,
0001
1000
0001
0000
,
1000
0001
1000
0000
,
0001
0002
0000
0000
,
0003
0000
0000
0000
;

//--------------- dance-single - OrangeRight ----------------
#NOTES:
     dance-single:
     OrangeRight:
     Easy:
     5:
     0,0,0,0,0:
0000
0000
0000
0000
,
0000
0000
0000
0000
,
1000
0100
0010
0100
,
1000
1000
0001
0000
,
0001
0010
0100
0010
,
0001
1000
0001
0100
,
0001
0010
0100
1000
,
0010
0010
0200
0300
,
0010
1000
0001
1000
,
0200
0300
0020
0030
,
0001
0100
0001
0010
,
0001
1000
0002
0003
,
1000
0020
1030
0001
,
1000
0100
2000
3000
,
0010
1000
0100
0010
,
0001
1000
2002
3003
,
1000
0100
0010
0001
,
0100
0010
0220
0330
,
0010
1000
0001
0010
,
0100
1000
0001
0100
,
0100
0001
1000
0100
,
0010
0001
1000
1000
,
0010
1000
0100
0010
,
0001
0100
1000
0100
,
0001
0001
1000
1000
,
2002
3003
1000
0000
0100
0000
0010
0000
,
0001
1000
0010
0100
,
0001
0001
0010
0100
,
0100
1000
0001
1000
,
0002
1003
1000
0001
,
0100
0001
0001
1000
,
0010
1000
1000
0001
,
0010
0000
0001
0000
0100
0002
0000
0000
,
1003
0001
0001
1000
,
0100
1000
1000
0001
,
0100
0010
0010
1000
,
0100
0000
1000
0001
1000
0202
0000
0000
,
0000
0303
0000
0000
;

//--------------- dance-single - OrangeRight ----------------
#NOTES:
     dance-single:
     OrangeRight:
     Medium:
     9:
     0,0,0,0,0:
0000
0000
0000
0000
,
0000
0000
0000
0000
,
1000
0100
1000
0000
0010
0000
0100
0001
,
0100
0000
0001
0000
1000
0001
1000
0000
,
0001
0000
0010
0001
0010
0000
0100
0000
,
1000
0010
0100
0010
1000
0001
1000
0000
,
0001
0010
0001
0000
0100
0000
0010
1000
,
0010
1000
0010
0000
1000
0000
1001
0000
,
0001
0100
0001
0010
0100
1000
0001
1000
,
0002
0000
0003
0000
0100
0010
0100
0000
,
0001
0010
0001
0000
1000
0000
0100
0000
,
1000
0010
1000
0000
0100
0010
0100
0000
,
1000
0010
0200
0000
0301
0000
1001
0000
,
1000
0100
1000
0000
0010
0000
0100
0001
,
0100
0010
1000
0000
0001
0010
0000
0010
,
0100
1000
0001
0000
0100
0010
0100
0000
,
0001
0000
0010
0100
1000
0000
1000
0100
,
0010
0001
0100
0000
0001
1000
0001
0000
,
1000
0100
1000
0000
1000
0001
1000
0000
,
1000
0010
1000
0000
1000
0010
0100
0000
,
0001
0100
0001
0000
1000
0100
1000
0000
,
0001
0010
0001
0000
0001
0100
0010
0000
,
1000
0100
0010
0000
0001
0100
0010
0000
,
1000
0010
0100
0001
1000
0001
0010
0000
,
0001
0010
0001
0010
0100
1000
0001
0000
,
2002
3003
1001
0000
1000
0100
0010
0001
,
0100
0000
0101
0000
0100
0010
1000
0000
,
1010
0000
1001
0000
0001
0010
0110
0000
,
1100
0000
1000
0010
0100
0001
1000
1000
,
0001
0000
1000
1000
0100
0000
1000
0010
,
0100
0000
0001
0001
0010
0000
0001
0100
,
0010
0000
1000
1000
0001
0000
0100
0010
,
0100
0000
0001
0001
1000
2000
0000
0000
,
3100
0000
0000
0000
1000
0010
1000
0000
0100
0000
0000
0000
0010
0000
0001
0000
,
0100
0000
0000
0000
0001
0010
0001
0000
0100
0000
0000
0000
0010
0000
1000
0000
,
0100
0000
0000
0000
1000
0001
1000
0001
1000
0000
0000
0000
0100
0000
0010
0000
,
0001
1000
1000
0001
0001
2002
0000
0000
,
0000
3003
0000
0000
;

//--------------- dance-single - OrangeRight ----------------
#NOTES:
     dance-single:
     OrangeRight:
     Hard:
     12:
     0.562803,0.617597,0.286045,0.06501,0.325051,303,281,22,5,7,0,0,0,0,0.562803,0.617597,0.286045,0.06501,0.325051,303,281,22,5,7,0,0,0,0:
0000
0000
0000
0000
,
0000
0000
0000
0000
,
1000
0000
0001
0000
0100
0000
00M0
0100
1000
0000
0001
0000
0100
0000
0010
0000
,
1000
0000
1000
0000
0001
0000
0000
0000
1000
0001
1000
0000
0100
0000
1000
0000
,
0001
0000
1000
0000
0100
0000
00M0
0100
0001
0000
1000
0000
0100
0000
0010
0000
,
0001
0100
0001
0000
1000
0100
1000
0000
0001
0000
1000
0000
1001
0000
0000
0000
,
1000
0000
0001
0000
0010
0000
0M00
0010
1000
0000
0001
0000
0010
0000
0100
0000
,
1000
0010
1000
0000
0001
0000
0000
0000
1000
0000
0001
0000
0101
0000
0000
0000
,
0001
0100
0000
0000
0100
0010
0000
0000
1000
0000
0100
0000
0010
0000
0001
0000
,
0100
0000
0010
0000
0110
0000
0000
0000
0010
1000
0010
0000
0100
0000
0001
0000
,
1000
0000
0100
1000
0100
0000
0010
0000
0001
0000
0100
0001
0100
0000
0000
0000
,
0001
1000
0001
1000
0001
0000
0000
0000
0001
0000
1000
0000
1100
0000
0000
0000
,
1000
0001
0200
0000
0310
1000
0100
0010
,
0001
0000
0000
0001
0000
0000
0001
0000
1000
0100
1000
0000
0001
0000
0000
0000
,
1000
0000
0001
0000
0010
0000
0M00
0010
1000
0000
0001
0000
0100
0000
0010
0000
,
0100
0001
0010
0000
0001
1000
1001
0000
,
0001
0000
1000
0000
0001
0100
00M0
0100
1000
0000
0001
0000
0010
0000
0000
0000
,
0001
0100
0101
0000
1000
0100
1100
0000
,
1000
0000
0010
1000
0010
0000
0100
0000
0000
0001
0010
0000
0011
0000
0000
0000
,
0001
1000
0000
0001
0100
0000
0000
0000
0001
0000
1000
0000
1001
0000
0000
0000
,
0001
0000
0010
0001
0010
0000
0100
0000
1000
0000
0010
1000
0001
0000
0000
0000
,
0100
0000
0001
1000
0001
0000
0000
0000
1000
0000
0010
0000
1010
0000
0000
0000
,
1000
0000
0100
0010
0001
0000
0100
0000
0010
0000
0100
0000
0001
0000
0001
0000
,
1000
0000
0010
0100
0001
0000
1000
0000
0100
0000
0001
0000
0100
0000
0000
0000
,
1000
0010
0001
0010
1000
0100
0010
0000
,
2002
0000
3003
0000
1010
0000
0010
0000
0100
0000
0001
0010
0001
0000
1000
0000
,
0001
0100
0101
0100
0010
1000
0100
0010
,
0110
0000
0011
0001
0100
0010
1010
0000
,
0101
0000
0000
0000
0001
0000
0010
0000
0100
0000
1000
0000
0010
0100
0010
0000
,
1000
0000
0000
0000
0001
0100
0001
0100
0001
0000
1000
0000
0100
0000
0010
0000
,
0001
0000
0000
0000
1000
0010
1000
0010
1000
0000
0001
0000
0010
0000
0100
0000
,
1000
0000
0000
0000
0010
0100
0010
0100
0010
0000
1000
0000
0100
0000
1000
0000
,
0010
0000
0000
0000
0100
0010
0100
0010
0100
0000
0001
0000
0010
0000
0001
0000
,
1000
0000
0010
0000
1000
0100
1000
0100
0010
0000
0001
0100
0000
00M0
0100
0000
,
1000
0000
0001
0000
0010
0001
0010
0001
1000
0000
0001
0010
0000
0M00
0010
0000
,
1000
0000
0001
0000
0010
0100
0010
0100
1000
0000
0010
0100
0000
0100
0001
0000
,
1000
1001
1001
0110
0110
2002
0000
0000
,
0000
3003
0000
0000
;

//--------------- dance-single - OrangeRight ----------------
#NOTES:
     dance-single:
     OrangeRight:
     Challenge:
     15:
     0.780122,0.790524,0.351055,0.06501,0.858135,420,393,27,5,7,0,0,0,0,0.780122,0.790524,0.351055,0.06501,0.858135,420,393,27,5,7,0,0,0,0:
0000
0000
0000
0000
,
0000
0000
0000
0000
,
1000
0000
1000
0000
0100
0000
0010
0001
0010
0001
1000
0001
0100
0000
0010
0000
,
1000
0000
1000
0000
0001
0000
0000
0000
0001
1000
0001
1000
0100
0000
0010
0000
,
0001
0000
0001
0000
0100
0000
0010
1000
0010
1000
0010
0000
1000
0001
1000
0000
,
0001
0010
0001
0010
0100
1000
0100
1000
0010
0000
0100
0000
0101
0000
0001
0000
,
1000
0000
0000
0100
0000
0000
1000
0000
0000
0100
0000
0000
1000
0000
0000
0000
0000
0000
0010
0000
0000
0000
0100
0000
0001
0000
0000
0000
0000
0000
0010
0000
0000
0000
0000
0000
0011
0000
0000
0000
0000
0000
0001
0000
0000
1000
0000
0000
,
0001
0000
0000
1000
0000
0000
0001
0000
0000
1000
0000
0000
0100
0000
0000
0000
0000
0000
0010
0000
0000
0000
0001
0000
1000
0000
0000
0000
0000
0000
0010
0000
0000
0000
0000
0000
1010
0000
0000
0000
0000
0000
0000
0000
0000
0000
0000
0000
,
1000
0100
0000
0000
0001
0100
0000
0000
1000
0000
0010
0100
0010
0100
0010
0100
,
0001
0000
1000
0000
1001
0000
0000
0000
1000
0100
1000
0100
0010
0001
0000
0001
,
1000
0000
0010
1000
0010
1000
0010
0000
0100
0000
0001
0010
0001
0000
1000
0000
,
0001
0100
0001
0100
0010
0000
1000
0000
0001
0000
0010
0000
0110
0000
0100
0000
,
1000
0000
0001
1000
0010
0100
0001
0000
0010
0000
0100
0000
1100
0000
1000
0000
,
0001
0000
1000
0010
0000
0100
0001
0000
1000
0001
1000
0000
0001
0000
0010
0000
,
0011
0000
0000
0000
0000
0000
0100
0000
0000
0000
0000
0000
1010
0000
0000
0000
0000
0000
1000
0000
0000
0000
0001
0000
0100
0000
0000
0010
0000
0000
1000
0000
0000
0000
0000
0000
0100
0000
0000
0000
0000
0000
1000
0000
0000
0010
0000
0000
,
0100
0010
1000
0100
0010
0001
0000
0001
0100
0000
0010
0000
0110
0000
0100
0000
,
0001
0000
0010
0000
0100
1000
0001
0000
0100
0001
1000
0000
0010
1000
0100
0000
,
1100
0000
0010
0000
0101
0000
0001
1000
0010
0000
0100
0000
0101
0000
0001
0000
,
1000
0000
0100
0000
0001
0000
0100
1000
0000
1000
0001
0100
0001
0000
1000
0001
,
1000
0000
0010
0000
0001
0000
0010
1000
0000
1000
0001
0000
1000
0100
0010
0001
,
1000
0010
1000
0010
0100
0010
0100
0010
0100
0001
0100
0001
1000
0000
0010
0100
,
0010
0000
1000
0000
0100
0000
0010
0001
0000
0001
0100
0000
0001
1000
0010
0100
,
0001
0000
0100
0000
1000
0000
0100
0001
0000
0001
1000
0010
1000
0000
0001
1000
,
0001
0000
0010
0000
1000
0000
0010
0001
0000
0001
1000
0000
0001
0100
0010
1000
,
0100
0010
0100
0010
0001
0000
0100
0010
1000
0000
0100
0010
0001
0000
1001
0000
,
0220
0000
0330
0000
1010
0000
1000
0000
0001
0000
1000
0100
0010
0001
1000
0000
,
0001
0000
0100
0000
0101
0000
0001
0000
0010
0000
0100
1000
0010
0100
0001
0000
,
0011
1000
1010
1000
0001
1000
1100
0001
,
0101
0000
0001
0000
1000
0000
0010
0000
0001
0000
0010
0000
1000
0100
0010
0000
,
0002
0000
0000
0000
1003
0100
01M0
0001
0010
0000
0001
0100
0001
0000
1000
0010
,
1000
0100
0000
0010
0001
0100
01M0
1000
0010
1000
0001
0000
1000
0100
0010
0001
,
0100
1000
0100
0000
0001
0010
0M10
1000
0100
0000
1000
0010
0100
0000
0001
0010
,
1000
0010
0001
0000
1000
0010
0M10
0001
0100
0010
1000
0000
0001
0010
1000
0010
,
0001
0100
0010
1000
0001
0100
01M0
1000
0001
0000
1000
0100
0010
0000
0100
1000
,
0010
0001
0010
0000
1000
0100
01M0
0001
1000
0000
0001
0100
0010
0000
0100
0001
,
0010
1000
0010
0000
0001
0010
0M10
1000
0100
00M0
0100
0001
0000
0001
0010
0100
,
1000
1100
0101
0011
1010
2002
0000
0000
,
0000
3003
0000
0000
;
