#VERSION:0.83;
#TITLE:MU-DAI;
#SUBTITLE:;
#ARTIST:小野秀幸;
#TITLETRANSLIT:;
#SUBTITLETRANSLIT:;
#ARTISTTRANSLIT:Hideyuki Ono;
#GENRE:;
#ORIGIN:;
#CREDIT:;
#BANNER:MU-DAI.png;
#BACKGROUND:MU-DAI-bg.png;
#PREVIEWVID:;
#JACKET:MU-DAI-jacket.png;
#CDIMAGE:;
#DISCIMAGE:;
#LYRICSPATH:;
#CDTITLE:;
#MUSIC:MU-DAI.ogg;
#OFFSET:0.357000;
#SAMPLESTART:31.990105;
#SAMPLELENGTH:12.000000;
#SELECTABLE:YES;
#BPMS:0.000=304.000;
#STOPS:;
#DELAYS:;
#WARPS:;
#TIMESIGNATURES:0.000=4=4;
#TICKCOUNTS:0.000=4;
#COMBOS:0.000=1;
#SPEEDS:0.000=1.000=0.000=0;
#SCROLLS:0.000=1.000;
#FAKES:;
#LABELS:0.000=Song Start;
#BGCHANGES:2.000=MU-DAI.mp4=1.000=0=0=1=====,
99999=-nosongbg-=1.000=0=0=0 // don't automatically add -songbackground-
;
#KEYSOUNDS:;
#ATTACKS:
;

//---------------dance-single - ----------------
#NOTEDATA:;
#CHARTNAME:;
#STEPSTYPE:dance-single;
#DESCRIPTION:;
#CHARTSTYLE:;
#DIFFICULTY:Challenge;
#METER:16;
#RADARVALUES:0.849800,1.059446,0.502832,0.721042,0.037950,627.000000,574.000000,53.000000,76.000000,0.000000,0.000000,0.000000,0.000000,0.000000,0.849800,1.059446,0.502832,0.721042,0.037950,627.000000,574.000000,53.000000,76.000000,0.000000,0.000000,0.000000,0.000000,0.000000;
#CREDIT:Ben Speirs;
#NOTES:
// measure 0
0000
0000
0000
0000
,  // measure 1
0000
0000
0000
0000
,  // measure 2
0000
0000
0000
0000
,  // measure 3
0000
0000
0000
0000
,  // measure 4
0000
0000
0000
0000
,  // measure 5
0000
0000
0000
0000
,  // measure 6
0000
0000
0000
0000
,  // measure 7
0000
0000
0000
0000
,  // measure 8
0000
0000
0000
0000
0001
0010
0100
0010
,  // measure 9
0001
0000
0000
0022
0000
0000
0000
0000
,  // measure 10
0000
0000
0033
0000
1000
0010
0100
0010
,  // measure 11
1000
0000
0000
2020
0000
0000
0000
0000
,  // measure 12
0000
0000
3030
0000
0001
0100
0010
0100
,  // measure 13
0001
0000
0000
0202
0000
0000
0000
0000
,  // measure 14
0000
0000
0303
0000
1000
0100
0010
0100
,  // measure 15
2000
0000
0000
0000
,  // measure 16
0000
0000
3301
0000
,  // measure 17
1002
0000
0013
0000
0100
0000
1000
0100
,  // measure 18
1000
0000
0001
0100
0001
0000
1000
0000
,  // measure 19
0020
0130
0001
1000
,  // measure 20
0200
0331
0200
1330
,  // measure 21
0001
0000
0100
0020
0000
0000
0001
0000
,  // measure 22
0001
0000
1000
0000
1030
0000
0001
0010
,  // measure 23
0001
0000
1000
0010
1000
0000
0001
0000
,  // measure 24
0010
0000
0110
0000
1000
0010
0100
0000
,  // measure 25
2001
0000
3100
0000
0010
0000
0001
0010
,  // measure 26
0001
0000
1000
0010
1000
0000
0001
0000
,  // measure 27
0200
0310
1000
0001
,  // measure 28
0020
1330
0020
0331
,  // measure 29
1000
0000
0010
0200
0000
0000
0320
0000
,  // measure 30
0000
0001
0301
1000
,  // measure 31
1030
0000
0001
0100
0001
0000
1000
0000
,  // measure 32
0100
0000
1100
0000
0001
0100
0010
0000
,  // measure 33
2010
0000
3001
0000
0010
0000
0001
0100
,  // measure 34
0010
0000
1000
0100
0010
0000
0001
0000
,  // measure 35
0012
0000
1003
0000
0010
0000
0100
0010
,  // measure 36
0200
0000
0301
1000
0002
0000
0013
0000
,  // measure 37
0021
0000
0000
0230
0000
0000
2300
0000
,  // measure 38
0000
3002
0100
0103
,  // measure 39
0001
0000
1000
0100
1000
0000
0001
0010
,  // measure 40
0100
1000
0010
0000
0010
0000
1000
0001
,  // measure 41
2000
0000
3100
0000
0010
0000
0001
0010
,  // measure 42
0001
0000
1000
0010
1000
0000
0001
0000
,  // measure 43
0201
0310
1000
0100
,  // measure 44
1200
0310
2001
3010
,  // measure 45
0201
0000
0301
0010
0000
0010
0100
0000
,  // measure 46
1300
0001
0100
0010
,  // measure 47
1000
0000
1100
0000
0001
0100
0001
0100
,  // measure 48
0010
0000
1000
0100
0000
0100
0000
1000
,  // measure 49
0002
0000
0013
0000
0100
0000
1000
0100
,  // measure 50
1000
0000
0001
0100
0001
0000
1000
0000
,  // measure 51
1020
0130
0001
0010
,  // measure 52
0021
0130
1002
0103
,  // measure 53
1020
0000
1030
0100
0000
0100
0020
0000
,  // measure 54
0031
1000
0010
0100
,  // measure 55
0101
0000
1000
0001
1000
0001
1000
0000
,  // measure 56
1100
0000
0001
0000
1000
0010
0100
0000
,  // measure 57
0201
0310
1000
0001
,  // measure 58
0010
0100
1000
0010
,  // measure 59
2010
3001
0100
0010
,  // measure 60
0210
3301
2002
3003
,  // measure 61
0001
0010
0000
0010
0100
0000
1000
0010
,  // measure 62
0000
0010
0100
0000
0001
1000
0001
1000
,  // measure 63
0001
0000
0010
0000
0001
0000
1000
0000
0010
0000
1000
0000
,  // measure 64
0001
0000
0010
0000
0100
0000
1000
0000
0001
0000
1000
0000
,  // measure 65
0001
0100
0001
0100
0000
0000
0100
0010
,  // measure 66
0100
0010
0000
0000
0010
1000
0010
1000
,  // measure 67
0000
0000
1000
0100
1000
0100
0000
0000
,  // measure 68
1100
0000
1001
0000
1000
0010
1000
0010
,  // measure 69
0000
0000
0010
0100
0010
0100
0000
0000
,  // measure 70
0100
0001
0100
0001
0000
0000
0001
0010
,  // measure 71
0001
0010
0000
0000
0011
0000
1001
0000
,  // measure 72
0001
0010
0100
1000
0000
0000
0001
0010
,  // measure 73
0100
1000
0000
0000
0001
0100
0010
1000
,  // measure 74
0000
0000
0001
0100
0010
1000
0000
0000
,  // measure 75
0110
2002
0000
0000
,  // measure 76
0000
0000
0000
3003
,  // measure 77
0010
0000
0000
0000
2001
0000
3001
0010
,  // measure 78
0001
0010
0100
0010
0100
1000
0020
0000
,  // measure 79
0000
0130
0031
1000
,  // measure 80
0100
0000
0010
0001
2000
0000
0000
0000
,  // measure 81
3010
0000
0100
0000
0001
0000
1000
0100
,  // measure 82
1000
0100
0010
0001
0010
0001
1000
0010
,  // measure 83
0100
0001
0010
0100
1000
0001
0100
0010
,  // measure 84
1000
0100
0010
0000
0011
0000
1000
0010
,  // measure 85
0000
0010
0100
0000
0001
1000
0200
0000
,  // measure 86
0000
0310
0001
1000
,  // measure 87
0010
0000
0100
0000
0001
0100
0010
0100
,  // measure 88
0010
1000
0001
1000
0100
0010
0100
0010
,  // measure 89
0002
0000
0103
0010
2000
0000
3001
0010
,  // measure 90
0000
0100
1000
0000
0010
0200
0000
0302
,  // measure 91
0000
2003
0000
3200
0000
0320
0000
0031
,  // measure 92
0200
0000
0000
0000
0310
0000
1000
0010
,  // measure 93
1000
0001
0100
0001
1000
0100
1000
0001
,  // measure 94
0010
0001
1000
0010
1000
0001
0100
0001
,  // measure 95
1000
0100
1000
0001
0010
0001
0200
0000
,  // measure 96
0000
0310
1000
2020
,  // measure 97
0000
0000
3030
0000
0101
0000
1000
0100
,  // measure 98
0000
0100
0010
0001
1000
0010
0100
0001
,  // measure 99
0010
0100
1000
0010
0100
0010
1000
0100
,  // measure 100
0010
0001
1000
0001
0200
0000
0020
0000
,  // measure 101
0000
0000
0330
0000
2001
0000
0000
3200
,  // measure 102
0000
0310
0011
0001
,  // measure 103
1000
0010
0000
0010
0100
0000
0001
0000
,  // measure 104
1000
0000
0100
0000
1100
0000
0001
0100
,  // measure 105
0010
0000
0000
0000
1002
0000
0000
0023
,  // measure 106
0000
0130
1100
1000
,  // measure 107
0010
0100
0001
0010
,  // measure 108
0010
0000
0001
0000
0101
0000
1000
0100
,  // measure 109
0010
0000
1002
0203
,  // measure 110
0000
0000
0310
0000
1000
0100
0010
0000
,  // measure 111
0001
0000
0012
0000
0000
0000
1003
0010
,  // measure 112
0000
0010
0100
0000
0101
0000
1000
0000
,  // measure 113
0100
0010
0011
1001
,  // measure 114
1000
0100
0010
0000
0001
0100
0010
0000
,  // measure 115
1010
0000
1001
0000
0001
0010
0100
0000
,  // measure 116
1000
0000
0010
0100
0002
0000
1003
0100
,  // measure 117
1000
0100
0010
0000
0011
0000
0001
1000
,  // measure 118
0010
0000
1010
0000
1000
0001
0100
0000
,  // measure 119
0010
0000
1000
0100
0010
0000
0001
1000
,  // measure 120
0001
1000
0010
0000
0100
0001
1000
0000
,  // measure 121
0001
0000
1000
0100
0020
0000
0000
0000
,  // measure 122
0031
0000
1000
0100
1000
0000
0001
0100
,  // measure 123
0001
0000
0100
0000
0010
0100
0010
0100
,  // measure 124
0010
0100
0010
0100
0001
1000
0001
1000
,  // measure 125
0001
0010
0100
0010
0001
0000
0000
0022
,  // measure 126
0000
0000
0000
0033
,  // measure 127
1000
0010
0100
0010
1000
0000
0000
2020
,  // measure 128
0000
0000
0000
3030
,  // measure 129
0001
0100
0010
0100
0001
0000
0000
0202
,  // measure 130
0000
0000
0000
0303
,  // measure 131
1000
0100
0010
0001
0000
0000
0000
0000
;

//---------------dance-single - ----------------
#NOTEDATA:;
#CHARTNAME:;
#STEPSTYPE:dance-single;
#DESCRIPTION:;
#CHARTSTYLE:;
#DIFFICULTY:Hard;
#METER:13;
#RADARVALUES:0.665473,0.872485,0.370008,0.578731,0.009487,491.000000,452.000000,39.000000,61.000000,0.000000,0.000000,0.000000,0.000000,0.000000,0.665473,0.872485,0.370008,0.578731,0.009487,491.000000,452.000000,39.000000,61.000000,0.000000,0.000000,0.000000,0.000000,0.000000;
#CREDIT:Ben Speirs;
#NOTES:
0000
0000
0000
0000
,
0000
0000
0000
0000
,
0000
0000
0000
0000
,
0000
0000
0000
0000
,
0000
0000
0000
0000
,
0000
0000
0000
0000
,
0000
0000
0000
0000
,
0000
0000
0000
0000
,
0000
0000
0000
0000
1000
0010
1000
0010
,
2000
0000
0000
0002
0000
0000
0000
0000
,
0000
0000
3003
0000
0001
0010
0001
0010
,
0002
0000
0000
2000
0000
0000
0000
0000
,
0000
0000
3003
0000
1000
0100
1000
0100
,
2000
0000
0000
0002
0000
0000
0000
0000
,
0000
0000
3003
0000
0001
0100
0001
0100
,
0002
0000
0000
0000
,
0000
0000
1003
0000
,
2002
0003
3010
0100
,
0001
0010
0100
1000
,
0020
0000
1030
0031
,
0010
0100
1000
0010
,
1010
0000
0000
0202
0000
0000
0303
0000
,
1303
0100
0001
0100
,
1000
0010
0100
0001
,
0010
0000
0100
0000
1000
0001
0000
0000
,
0202
0003
0310
1000
,
0100
0010
0001
1000
,
0020
0000
0130
0001
,
0010
0100
1000
0001
,
0101
0000
0000
1010
0000
0000
1032
0000
,
3030
0013
1000
0010
,
0001
0100
0010
1000
,
0100
0000
0010
0000
0001
1000
0000
0000
,
2020
0030
3001
0010
,
0100
1000
0010
0100
,
0202
0300
1003
0100
,
0010
0001
1000
0010
,
1010
0000
0000
0110
0000
0000
0101
0000
,
0000
2001
0000
3100
,
0010
0001
1000
0010
,
0100
0010
0100
0000
0010
0000
0000
0000
,
1001
0001
0100
1000
,
0100
0010
1000
0001
,
0010
1000
0010
0001
,
1000
0010
0100
0001
,
1000
0000
0001
0100
0000
0001
0100
0000
,
0010
1000
0100
0000
,
1000
0000
0001
0000
0100
0010
0100
0000
,
0001
0000
1000
0010
0000
0010
0000
0000
,
1010
1000
0010
0001
,
0010
0100
0001
1000
,
0100
0001
0100
1000
,
0001
0100
0010
1000
,
0001
0000
1000
0010
0000
1000
0010
0000
,
0100
0001
1000
0000
,
1100
0001
0001
0001
,
1000
0000
0001
0000
0100
0010
0100
0000
,
0220
0030
0310
0010
,
1000
0100
0010
0001
,
1000
1000
1000
1000
,
0001
0100
0010
1000
,
0001
0010
0000
0010
0000
0000
0100
1000
,
0000
1000
0000
0000
0001
0100
0000
0100
,
0010
1000
0100
0010
,
0001
0000
1000
0000
0001
0000
1000
0000
0000
0000
0000
0000
,
0001
0100
0001
0100
0000
0000
0001
0100
,
0001
0100
0000
0000
0001
0100
0001
0100
,
0000
0000
0001
0100
0001
0100
0000
0000
,
0100
0000
0010
0000
1000
0100
1000
0100
,
0000
0000
1000
0100
1000
0100
0000
0000
,
1000
0100
1000
0100
0000
0000
1000
0100
,
1000
0100
0000
0000
0100
0000
0010
0000
,
0001
0010
0001
0010
0000
0000
0001
1000
,
0001
1000
0000
0000
1000
0010
1000
0010
,
0000
0000
1000
0001
1000
0001
0000
0000
,
0010
2002
0000
0000
,
0000
0000
0000
3003
,
0100
0000
0220
0000
,
0000
0000
0000
0000
,
0000
0330
1000
0100
,
0010
0000
0001
1000
0002
0000
0000
0000
,
0103
0000
0010
0000
1000
0100
1000
0100
,
1000
0000
0001
0000
0100
0010
0100
0000
,
0001
1000
0100
0010
,
0001
1000
0000
0000
1000
0000
0001
0010
,
0000
0100
1000
0000
0002
0000
0200
0000
,
0000
0303
0303
1000
0100
0000
0000
0100
,
0010
0000
0000
0010
0001
0000
1000
0000
,
0010
0000
0100
0001
0100
0000
0010
0000
,
1000
0000
0001
0000
0020
0000
0000
2030
,
0000
0000
3020
0000
0000
0032
0000
0000
,
0103
0010
1000
0001
,
0022
0000
0333
1000
,
0001
0000
1000
0100
0000
0010
0001
0000
,
1000
0010
0000
0100
0001
0000
1000
0100
,
0000
0010
0001
0000
1000
0000
0020
0000
,
0000
0130
0001
1000
,
0100
1000
2020
0000
,
3033
0000
1002
0000
0000
3013
0000
0000
,
0120
0000
0000
0130
0000
0000
2001
0000
,
0000
3001
0000
0000
1000
0000
0100
0010
,
0000
0010
0001
0000
2000
0000
0000
0000
,
3010
0100
0101
0000
,
1000
0001
0010
0100
,
1000
0010
0110
0000
,
0001
1000
1002
0000
,
0103
0010
1010
0000
,
0001
1000
0100
0010
,
0001
0100
0110
0000
,
1000
0001
1000
0200
,
0000
0000
0310
0000
0001
1000
0001
0000
,
0100
0020
0000
1030
,
0100
0010
0001
1000
,
0010
0100
0001
0022
,
0033
1000
2020
3030
,
0001
0202
0303
1000
,
2200
3300
0001
1000
,
0010
0100
0010
0100
0010
0000
0000
0100
,
0000
0000
1001
0000
0000
1003
0000
0000
,
0100
0000
0010
0000
0011
0000
0000
1003
,
0000
0000
1010
0000
0000
3001
0000
0000
,
1000
0001
2000
0000
,
3100
0010
0100
0010
,
0100
0000
0010
0000
0001
1000
0001
1000
,
0001
1000
0001
1000
0001
0000
0000
0000
,
1000
0100
1000
0100
1000
0000
0000
2200
,
0000
0000
0000
3300
,
0001
0100
0001
0100
0001
0000
0000
0202
,
0000
0000
0000
0303
,
1000
0010
1000
0010
1000
0000
0000
2020
,
0000
0000
0000
3030
,
0001
1000
0001
1000
0000
0000
0000
0000
;

//---------------dance-single - ----------------
#NOTEDATA:;
#CHARTNAME:;
#STEPSTYPE:dance-single;
#DESCRIPTION:;
#CHARTSTYLE:;
#DIFFICULTY:Medium;
#METER:10;
#RADARVALUES:0.402537,0.498088,0.189748,0.303597,0.000000,297.000000,277.000000,20.000000,32.000000,0.000000,0.000000,0.000000,0.000000,0.000000,0.402537,0.498088,0.189748,0.303597,0.000000,297.000000,277.000000,20.000000,32.000000,0.000000,0.000000,0.000000,0.000000,0.000000;
#CREDIT:Ben Speirs;
#NOTES:
0000
0000
0000
0000
,
0000
0000
0000
0000
,
0000
0000
0000
0000
,
0000
0000
0000
0000
,
0000
0000
0000
0000
,
0000
0000
0000
0000
,
0000
0000
0000
0000
,
0000
0000
0000
0000
,
0000
0000
1000
0001
,
2000
0000
0000
0020
0000
0000
0000
0000
,
0000
3030
0001
1000
,
0002
0000
0000
0020
0000
0000
0000
0000
,
0000
0000
0033
1000
,
0001
0000
2000
0000
0000
0200
0000
0000
,
0000
3300
3301
1000
,
0001
0000
0000
0000
,
0000
0030
0110
0000
,
1002
0000
1003
0000
,
0001
0100
0010
0000
,
2000
0000
3001
0000
,
1000
0100
0010
0000
,
0001
0000
0000
0002
0000
0000
0000
0000
,
0103
0000
0100
0000
,
0010
1000
0100
0000
,
0010
0001
0100
0000
,
2001
0000
3001
0000
,
1000
0010
0100
0000
,
0002
0000
1003
0000
,
0001
0010
0100
0000
,
1000
0000
0000
1000
0000
0000
0020
0000
,
3000
0000
0130
0000
,
0001
0013
0100
0000
,
1000
0010
0100
0000
,
0202
0000
0303
0000
,
0001
1000
0100
0000
,
2200
0000
3300
0000
,
1000
0001
0010
0000
,
0001
0000
0000
0001
0000
0000
1000
0000
,
0000
2000
0000
0000
0000
0000
0000
0000
,
0010
0000
0010
0000
,
3010
0000
0110
0000
,
1001
0000
1000
0000
,
0001
0010
0100
1000
,
0010
0000
0010
0000
,
1000
0100
0010
0001
,
0100
0000
0100
0000
,
0001
1000
0001
0000
,
1000
0100
1000
0000
,
0001
0010
0001
0000
,
1000
0000
1000
0000
,
0001
0100
0010
1000
,
0100
0000
0100
0000
,
1000
0100
0010
0001
,
0100
0000
0100
0000
,
0010
0000
0010
0000
,
1000
0100
0010
0000
,
0001
0100
0010
0000
,
2002
0000
3003
0000
,
1000
0100
0010
0000
,
0022
0000
0033
0000
,
0001
1000
0010
0000
,
1010
0000
0000
0101
,
0000
0000
1000
0000
,
1100
0000
0000
0011
,
0000
0000
1000
0000
,
0001
0000
0000
0001
0000
0000
0100
0000
,
0000
0100
0000
0000
0001
0000
0000
0001
,
0000
0000
0100
0000
0000
0100
0000
0000
,
0010
0000
0010
0000
1000
0000
0000
1000
,
0000
0000
0100
0000
0000
0100
0000
0000
,
1000
0000
0000
1000
0000
0000
0100
0000
,
0000
0100
0000
0000
0010
0000
0010
0000
,
0001
0000
0000
0001
0000
0000
1000
0000
,
0000
1000
0000
0000
0001
0000
0000
0001
,
0000
0000
1000
0000
0000
1000
0000
0000
,
0010
0020
0000
0000
,
0030
0000
0000
0000
,
0000
0000
2002
0000
,
0000
0000
0000
0000
,
3003
0000
1000
0100
,
1000
0000
0001
0100
,
0001
0000
1000
0000
,
0100
0000
0010
0001
,
0100
0000
0001
0100
,
0010
0000
0100
0010
,
1000
0000
0001
0000
,
1000
0000
0100
0010
,
0001
0000
1000
0000
,
0001
0000
0100
0010
,
1000
0000
0001
0010
,
0001
0000
1000
0010
,
1000
0000
0001
0000
,
0100
0000
0010
0000
,
0010
0000
1000
0100
,
0010
0000
0100
0010
,
0001
0000
0010
0001
,
2000
0000
0000
0000
,
3001
0000
1000
0000
,
0000
1100
0000
0000
,
0001
0000
0000
0101
,
0000
0000
1000
0000
,
0001
0000
0200
0000
,
0000
0000
0310
0000
,
0000
0000
0100
0010
,
1000
0000
0001
0000
,
0000
0000
1000
0000
,
0100
0000
0010
0000
,
0001
0000
1000
0010
,
0100
0000
0001
0000
,
1000
0000
0001
0100
,
0000
0001
0100
0000
,
0010
0000
0010
0000
,
1000
0000
0001
0000
,
0000
0000
1000
0100
,
0000
1000
0100
0000
,
0010
0001
0000
0010
,
0001
0000
1000
0000
,
0010
0000
0100
0100
,
0000
0010
0010
0000
,
1000
1000
0000
0001
,
0001
0000
0010
0000
,
0100
0000
1001
0000
,
1000
0000
0001
0000
,
1000
0000
0010
0100
,
0010
0100
0010
0100
,
0010
0000
0000
0000
1000
0000
0000
2020
,
0000
0000
0000
0000
,
3030
0000
0000
0000
0001
0000
0000
0022
,
0000
0000
0000
0000
,
0033
0000
0000
0000
1000
0000
0000
2200
,
0000
0000
0000
0000
0000
0000
3300
3300
,
0001
1000
0000
0000
;

//---------------dance-single - ----------------
#NOTEDATA:;
#CHARTNAME:;
#STEPSTYPE:dance-single;
#DESCRIPTION:;
#CHARTSTYLE:;
#DIFFICULTY:Easy;
#METER:6;
#RADARVALUES:0.234474,0.311305,0.028462,0.208723,0.000000,173.000000,170.000000,3.000000,22.000000,0.000000,0.000000,0.000000,0.000000,0.000000,0.234474,0.311305,0.028462,0.208723,0.000000,173.000000,170.000000,3.000000,22.000000,0.000000,0.000000,0.000000,0.000000,0.000000;
#CREDIT:Ben Speirs;
#NOTES:
0000
0000
0000
0000
,
0000
0000
0000
0000
,
0000
0000
0000
0000
,
0000
0000
0000
0000
,
0000
0000
0000
0000
,
0000
0000
0000
0000
,
0000
0000
0000
0000
,
0000
0000
0000
0000
,
0000
0000
0000
0000
,
1000
0000
0000
2000
0000
0000
0000
0000
,
0000
0000
3000
0000
,
0100
0000
0000
0200
0000
0000
0000
0000
,
0000
0000
0300
0000
,
0010
0000
0000
0020
0000
0000
0000
0000
,
0000
0000
0000
0030
,
2002
0000
0000
0000
,
0000
0000
3003
0000
,
0002
0000
0000
0000
,
0103
0000
0100
0000
,
0020
0000
0000
0030
,
1000
0000
1000
0000
,
0001
0000
0010
0000
,
0100
0000
1000
0000
,
0010
0000
0100
0000
,
0001
0000
0000
0000
,
2000
0000
3000
0000
,
0100
0000
0100
0000
,
0020
0000
0030
0000
,
0001
0000
0001
0000
,
1000
0000
0010
0000
,
0100
0000
0001
0000
,
0010
0000
0100
0000
,
1000
0000
0000
0000
,
0002
0000
0003
0000
,
0001
0000
1000
0000
,
0020
0000
0030
0000
,
0010
0000
0100
0000
,
0001
0000
0000
0000
,
1000
0000
0000
0000
,
0001
0000
0010
0000
,
0100
0000
0000
0000
,
1000
0000
0100
0000
,
1000
0000
0100
0000
,
0010
0000
0001
0000
,
0010
0000
0001
0000
,
0200
0000
0000
0000
,
0000
0000
0300
0000
,
0010
0000
0010
0000
,
1000
0000
0000
0000
,
0001
0000
0010
0000
,
0001
0000
0010
0000
,
0100
0000
0010
0000
,
0100
0000
0010
0000
,
0200
0000
0000
0000
,
0000
0000
0300
0000
,
1000
0000
1000
0000
,
0001
0000
0000
0000
,
2000
0000
3000
0000
,
0010
0000
0100
0000
,
0020
0000
0030
0000
,
0100
0000
0001
0000
,
0200
0000
0300
0000
,
0010
0000
0000
0000
,
1000
0000
0000
0000
,
0001
0000
0000
0000
,
1000
0000
0000
0100
,
0000
0000
1000
0000
,
0000
0100
0000
0000
,
0010
0000
0001
0000
,
0000
0100
0000
0000
,
0001
0000
0000
0100
,
0000
0000
0010
0000
,
1000
0000
0000
0001
,
0000
0000
1000
0000
,
0000
0001
0000
0000
,
0010
0010
0000
0000
,
0000
0000
0000
0000
,
0000
0000
2002
0000
,
0000
0000
0000
0000
,
3003
0000
1000
0000
,
0000
0000
0001
0000
,
0000
0000
0100
0000
,
0100
0000
0010
0000
,
0010
0000
1000
0000
,
0100
0000
0010
0000
,
0000
0000
0001
0000
,
0000
0000
1000
0000
,
0010
0000
0100
0000
,
0000
0000
0001
0000
,
0010
0000
0100
0000
,
0000
0000
0100
0000
,
0000
0000
1000
0000
,
0010
0000
0100
0000
,
0000
0000
0010
0000
,
0010
0000
0010
0000
,
0010
0000
0010
0000
,
0100
0000
0100
0000
,
0001
0000
1000
0000
,
0000
1000
0000
0000
,
0001
0000
0000
0001
,
0000
0000
0010
0000
,
0000
0000
1001
0000
,
0000
0000
1000
0000
,
0000
0000
0001
0000
,
0010
0000
0100
0000
,
0000
0000
1000
0000
,
0000
0000
0001
0000
,
0000
0000
1000
0000
,
0010
0000
0100
0000
,
0000
0000
0010
0000
,
0010
0000
0100
0000
,
0100
0000
0001
0000
,
1000
0000
0001
0000
,
0000
0000
1000
1000
,
0000
0000
0000
0000
,
0001
0001
0000
0000
,
0000
0000
0010
0000
,
0010
0000
0001
0000
,
0000
1000
0000
0000
,
0010
0000
0000
0100
,
0000
0000
0010
0000
,
1000
0000
0100
0000
,
0100
0000
0100
0000
,
0100
0000
0020
0000
,
0000
0000
0030
0000
,
0000
0000
0000
0000
0001
0000
0000
0002
,
0000
0000
0000
0003
,
0000
0000
0000
0000
1000
0000
0000
2000
,
0000
0000
0000
0000
,
3000
0000
0000
0000
0010
0000
0000
0020
,
0000
0000
0000
0030
,
0100
0100
0000
0000
;

//---------------dance-single - ----------------
#NOTEDATA:;
#CHARTNAME:;
#STEPSTYPE:dance-single;
#DESCRIPTION:;
#CHARTSTYLE:;
#DIFFICULTY:Beginner;
#METER:3;
#RADARVALUES:0.115204,0.186427,0.037950,0.000000,0.000000,85.000000,81.000000,4.000000,0.000000,0.000000,0.000000,0.000000,0.000000,0.000000,0.115204,0.186427,0.037950,0.000000,0.000000,85.000000,81.000000,4.000000,0.000000,0.000000,0.000000,0.000000,0.000000,0.000000;
#CREDIT:Ben Speirs;
#NOTES:
0000
0000
0000
0000
,
0000
0000
0000
0000
,
0000
0000
0000
0000
,
0000
0000
0000
0000
,
0000
0000
0000
0000
,
0000
0000
0000
0000
,
0000
0000
0000
0000
,
0000
0000
0000
0000
,
0000
0000
0000
0000
,
0001
0000
0000
0000
,
0000
0000
0000
0000
,
0010
0000
0000
0000
,
0000
0000
0000
0000
,
0100
0000
0000
0000
,
0000
0000
0000
0000
,
1000
0000
0000
0000
,
0000
0000
0000
0000
,
0010
0000
0000
0000
,
0000
0000
0000
0000
,
0100
0000
0000
0000
,
0100
0000
0000
0000
,
0100
0000
0000
0000
,
0000
0000
0000
0000
,
0001
0000
0000
0000
,
0000
0000
0000
0000
,
1000
0000
0000
0000
,
0000
0000
0000
0000
,
0001
0000
0000
0000
,
0001
0000
0000
0000
,
0001
0000
0000
0000
,
0000
0000
0000
0000
,
0010
0000
0000
0000
,
0000
0000
0000
0000
,
0100
0000
0000
0000
,
0000
0000
0000
0000
,
1000
0000
0000
0000
,
1000
0000
0000
0000
,
1000
0000
0000
0000
,
0000
0000
0000
0000
,
0010
0000
0000
0000
,
0000
0000
0000
0000
,
1001
0000
0000
0000
,
0000
0000
0000
0000
,
0001
0000
0000
0000
,
0001
0000
0000
0000
,
0001
0000
0000
0000
,
0000
0000
0000
0000
,
0010
0000
0000
0000
,
0000
0000
0000
0000
,
0100
0000
0000
0000
,
0000
0000
0000
0000
,
1000
0000
0000
0000
,
1000
0000
0000
0000
,
1000
0000
0000
0000
,
0000
0000
0000
0000
,
0010
0000
0000
0000
,
0000
0000
0000
0000
,
0100
0000
0000
0000
,
0000
0000
0000
0000
,
0010
0000
0000
0000
,
0010
0000
0000
0000
,
0010
0000
0000
0000
,
0000
0000
0000
0000
,
1000
0000
0000
0000
,
0000
0000
0000
0000
,
0001
0000
0000
0001
,
0000
0000
0001
0000
,
0000
0001
0000
0000
,
0000
0000
1000
0000
,
0000
1000
0000
0000
,
1000
0000
0000
1000
,
0000
0000
0000
0000
,
0010
0000
0000
0010
,
0000
0000
0010
0000
,
0000
0010
0000
0000
,
0000
0000
0000
0000
,
0000
0000
0000
0000
,
0000
0000
1001
0000
,
0000
0000
0000
0000
,
0000
0000
1000
0000
,
0000
0000
0000
0000
,
0000
0000
0100
0000
,
0000
0000
0100
0000
,
0000
0000
0100
0000
,
0000
0000
0000
0000
,
0000
0000
0000
0000
,
0000
0000
0010
0000
,
0000
0000
0010
0000
,
0000
0000
0000
0000
,
0000
0000
0001
0000
,
0000
0000
0001
0000
,
0000
0000
0001
0000
,
0000
0000
0000
0000
,
0000
0000
1000
0000
,
0000
0000
1000
0000
,
0000
0000
1000
0000
,
0000
0000
0000
0000
,
0000
0000
0010
0000
,
0000
0000
0000
0000
,
0000
0000
0010
0000
,
0000
0000
0000
0000
,
0000
0000
1001
0000
,
0000
0000
0000
0000
,
0000
0000
1000
0000
,
0000
0000
0000
0000
,
0000
0000
0100
0000
,
0000
0000
0100
0000
,
0000
0000
0100
0000
,
0000
0000
0000
0000
,
0000
0000
0010
0000
,
0000
0000
0010
0000
,
0000
0000
0010
0000
,
0000
0000
0000
0000
,
0000
0000
0001
0000
,
0000
0000
0000
0000
,
0000
0000
1000
0000
,
0000
0000
0000
0000
,
0000
0000
0010
0000
,
0000
0000
0010
0000
,
0000
0000
0010
0000
,
0000
0000
0010
0000
,
0000
0000
0010
0000
,
0000
0000
0000
0000
,
0000
0000
0100
0000
,
0000
0000
0000
0000
,
0000
0000
0001
0000
,
0000
0000
0000
0000
,
0000
0000
1000
0000
,
0000
0000
0000
0000
,
0000
0000
0010
0000
,
0000
0000
0000
0000
,
1001
0000
0000
0000
;

//---------------dance-double - ----------------
#NOTEDATA:;
#CHARTNAME:;
#STEPSTYPE:dance-double;
#DESCRIPTION:;
#CHARTSTYLE:;
#DIFFICULTY:Challenge;
#METER:16;
#RADARVALUES:0.833536,1.059446,0.455395,0.749504,0.037950,615.000000,567.000000,48.000000,79.000000,0.000000,0.000000,0.000000,0.000000,0.000000,0.833536,1.059446,0.455395,0.749504,0.037950,615.000000,567.000000,48.000000,79.000000,0.000000,0.000000,0.000000,0.000000,0.000000;
#CREDIT:Ben Speirs;
#NOTES:
00000000
00000000
00000000
00000000
,
00000000
00000000
00000000
00000000
,
00000000
00000000
00000000
00000000
,
00000000
00000000
00000000
00000000
,
00000000
00000000
00000000
00000000
,
00000000
00000000
00000000
00000000
,
00000000
00000000
00000000
00000000
,
00000000
00000000
00000000
00000000
,
00000000
00000000
00000000
00000000
00010000
00000100
00001000
00000100
,
00010000
00000000
00000000
00020200
00000000
00000000
00000000
00000000
,
00000000
00000000
00003300
00003000
00031000
01000000
00010000
01000000
,
00001000
00000000
00000000
02002000
00000000
00000000
00000000
00000000
,
00000000
00000000
03000000
03000000
00013000
00000010
00001000
00000010
,
00010000
00000000
00000000
00020020
00000000
00000000
00000000
00000000
,
00000000
00000000
00000030
00000000
00031000
00100000
00010000
00100000
,
00002000
00000000
00000000
00000000
,
00000000
00000000
00013000
00000000
,
20010000
00000000
30130000
00000000
01000000
00000000
00010000
10000000
,
00010000
00100000
00001000
00010000
,
00000020
00000130
00001000
00000100
,
00000002
00000013
00002000
00003010
,
00000001
00000000
00000100
00002000
00000000
00000000
00013000
00000000
,
00010000
00000000
00001000
00000000
00001000
00000000
00100000
00010000
,
00100000
00000000
00010000
01000000
00010000
00000000
00100000
00000000
,
00001000
00000000
00010000
00000000
00000010
00000100
00000001
00000000
,
00001002
00000000
00003103
00000000
00000010
00000000
00001000
00000001
,
00001000
00000100
00010000
00001000
,
02000000
03100000
00010000
00100000
,
20000000
31000000
00020000
01030000
,
10000000
00000000
00100000
00020000
00000000
00000000
00032000
00000300
,
00000000
00000000
00103000
00000000
00100000
00000000
00001000
00010000
,
00001000
00010000
00000010
00000100
,
00000001
00000000
00001000
00000000
00000100
00010000
00001000
00000000
,
00012000
00000000
01033000
00000000
00100000
00000000
10000000
01000000
,
10000000
00000000
00010000
01000000
00010000
00000000
00100000
00000000
,
00021000
00000000
00030010
00000000
00000100
00000000
00000001
00000010
,
00000001
00000000
00001000
00000010
00001000
00000000
00000100
00000000
,
00010100
00000000
00000000
01001000
00000000
00000000
00010010
00000000
,
00000000
00000000
00202000
00000000
00303000
00000000
00301000
00010000
,
00001000
00000000
00100000
00010000
00100000
00000000
00010000
10000000
,
00100000
01000000
00010000
00000000
00100000
00000000
00001000
00010000
,
00002000
00000000
00103000
00000000
00010000
00000000
01000000
00001000
,
01000000
00000000
00001000
00010000
00001000
00000000
00010000
00000000
,
00010200
00000310
00000001
00001000
,
00001020
00000130
00000102
00001003
,
00002100
00000000
00003100
00010000
00000000
00010000
00001000
00000000
,
00100000
01000000
10000000
00100000
,
01100000
00000000
00010000
10000000
00010000
10000000
00010000
10000000
,
00100000
00000000
01000000
00001000
00000000
00001000
00010000
00000000
,
00021000
00000000
00030100
00000000
00001000
00000000
00000010
00010000
,
00000010
00000000
00010000
00001000
00010000
00000000
00001000
00000000
,
00201000
01300000
10000000
00010000
,
02010000
03100000
20100000
30010000
,
00120000
00000000
00130000
00001000
00000000
00001000
00020000
00000000
,
00030010
00000000
00000100
00000000
00000001
00000000
00001000
00000100
,
00000010
00000000
00000001
00000100
00000001
00000100
00000001
00000100
,
00000010
00000000
00001000
00000000
00000100
00010000
00001000
00000000
,
00012000
00000000
00103000
00000000
00010000
00000000
10000000
00100000
,
10000000
00000000
00010000
01000000
00010000
00000000
00100000
00000000
,
00102000
00013000
00000100
00001000
,
00001020
00000130
00000210
00000301
,
00000001
00000010
00000000
00000010
00001000
00000000
00001000
00010000
,
00000000
00010000
00100000
00000000
10000000
00010000
10000000
00010000
,
00100000
00000000
01000000
00000000
00100000
00000000
01000000
00000000
00100000
00000000
01000000
00000000
,
10000000
00000000
00100000
00000000
00010000
00000000
00001000
00000000
00100000
00000000
00001000
00000000
,
00010000
00000100
00010000
00000010
00000000
00000000
00010000
00000100
,
00010000
00000010
00000000
00000000
00010000
00000100
00010000
00000010
,
00000000
00000000
00010000
00000100
00010000
00000010
00000000
00000000
,
00011000
00000000
00011000
00000000
00001000
01000000
00001000
00100000
,
00000000
00000000
00001000
01000000
00001000
00100000
00000000
00000000
,
00001000
01000000
00001000
00100000
00000000
00000000
00001000
01000000
,
00001000
00100000
00000000
00000000
00011000
00000000
00011000
00000000
,
00010000
00000100
00000010
00000100
00000000
00000000
00010000
00001000
,
00010000
00001000
00000000
00000000
00001000
01000000
00100000
01000000
,
00000000
00000000
00001000
00010000
00001000
00010000
00000000
00000000
,
00000110
00002002
00000300
00000000
,
00000000
00000000
00033003
00000000
,
00011000
00000000
00000000
00000000
10020000
00000000
10030000
00100000
,
10000000
00100000
01000000
00010000
01000000
00010000
00200000
00000000
,
00000000
00301000
00010000
00000010
,
00000100
00000000
00000001
00001000
00000002
00000000
00000010
00000000
,
00000013
00000000
00000000
00000000
00000001
00000000
00001000
00000010
,
00000100
00000010
00001000
00000100
00000010
00000100
00010000
00001000
,
00100000
00010000
01000000
00100000
01000000
00100000
10000000
01000000
,
00100000
00010000
10000000
00000000
11000000
00000000
00010000
01000000
,
00000000
01000000
00100000
00010000
00002000
00000000
00203000
00000000
,
00000000
00000000
01300000
10000000
01000000
00000000
10000000
00010000
,
10000000
00000000
00100000
00000000
01000000
00100000
01000000
00100000
,
00010000
00001000
00010000
00001000
00000010
00000100
00000010
00000100
,
00002000
00000000
00003010
00000100
00000010
00000000
00001000
00000002
,
00000000
00001003
00000200
00000000
00010300
00002000
00000000
00203000
,
00000000
00320000
00000000
02030000
00000000
03200000
00000000
20300000
,
00000000
00000000
00000000
00000000
30010000
00000000
10000000
01000000
,
10000000
00010000
01000000
00010000
00200000
00000000
00301000
00010000
,
00001000
01000000
00010000
01000000
00002000
00000000
00013000
00000010
,
00010300
00000100
00001000
00000100
00010000
00000010
00000200
00000000
,
00000000
00000310
00001000
00000002
,
00000023
00000000
00000000
00000000
00000130
00000000
00000000
00010000
,
00001000
00000000
00010000
00000010
00000100
00000001
00000010
00000100
,
00010000
00001000
01000000
00100000
01000000
00010000
00100000
01000000
,
10000000
00100000
01000000
00001000
00020000
00000000
00000200
00000000
,
00000000
00000000
00030300
00000000
00021000
00300000
00000000
00032000
,
00000000
01003000
01001000
00000000
,
01000000
00010000
10000000
10000000
,
01000000
00000000
00100000
00000000
00110000
00000000
00001000
00010000
,
00001000
00000000
00000000
00000000
00010020
00000000
00000000
00000230
,
00000000
00000301
00000101
00000000
,
00001000
00000100
00000010
00000001
,
00000100
00000000
00000100
00000000
00000010
00000000
00001000
00000100
,
00001000
00000100
00010000
00000000
00002000
00000000
02003000
00000000
,
00000000
00000000
03100000
00000000
10000000
00010000
10000000
00000000
,
01000000
00200000
00000000
00331000
,
00000010
00000002
00000000
00000100
,
00000103
00000000
00001001
00001100
,
00000100
00010000
00001000
01000000
,
01010000
00000000
01001000
00000000
00001000
00100000
00010000
00000000
,
10000000
00000000
00010000
01000000
00100000
01000000
00100000
01000000
,
00100000
00000000
10000000
01000000
00200000
00000000
00000000
00301000
,
00000000
00000000
00010020
00000000
00000000
00000130
00000000
00000000
,
00000001
00000000
00001000
00000100
00020000
00000000
00000000
00031000
,
00000000
00000000
02001000
00000000
00000000
03100000
00000000
00000000
,
10000000
00000000
00010000
10000000
00200000
00000000
00000000
00000000
,
01300000
00100000
01000000
00100000
01000000
00100000
01000000
00100000
,
01000000
00100000
01000000
00100000
00010000
00001000
00010000
00001000
,
00010000
00001000
00010000
00001000
00010000
00001000
00010000
00001000
,
00010000
00000010
00000100
00000010
00010000
00000000
00000000
00020020
,
00000000
00000000
00000000
00000000
00000000
00000000
00003330
00003000
,
00031000
00100000
01000000
00100000
00001000
00000000
00000000
00202000
,
00000000
00000000
00000000
00000000
00000000
00000000
03300000
03000000
,
00013000
00000100
00000010
00000100
00010000
00000000
00000000
00020200
,
00000000
00000000
00000000
00000330
,
00031000
00010000
00100000
01000000
00000000
00000000
00000000
00000000
;

//---------------dance-double - ----------------
#NOTEDATA:;
#CHARTNAME:;
#STEPSTYPE:dance-double;
#DESCRIPTION:;
#CHARTSTYLE:;
#DIFFICULTY:Hard;
#METER:13;
#RADARVALUES:0.651920,0.883277,0.360521,0.777966,0.009487,481.000000,443.000000,38.000000,82.000000,0.000000,0.000000,0.000000,0.000000,0.000000,0.651920,0.883277,0.360521,0.777966,0.009487,481.000000,443.000000,38.000000,82.000000,0.000000,0.000000,0.000000,0.000000,0.000000;
#CREDIT:Ben Speirs;
#NOTES:
00000000
00000000
00000000
00000000
,
00000000
00000000
00000000
00000000
,
00000000
00000000
00000000
00000000
,
00000000
00000000
00000000
00000000
,
00000000
00000000
00000000
00000000
,
00000000
00000000
00000000
00000000
,
00000000
00000000
00000000
00000000
,
00000000
00000000
00000000
00000000
,
00000000
00000000
00000000
00000000
00010000
00000010
00010000
00000010
,
00010000
00000000
00000000
00020020
00000000
00000000
00000000
00000000
,
00000000
00000000
00000030
00000000
00031000
00100000
00001000
00100000
,
00001000
00000000
00000000
00202000
00000000
00000000
00000000
00000000
,
00000000
00000000
00300000
00000000
00013000
00000100
00010000
00000100
,
00010000
00000000
00000000
00020200
00000000
00000000
00000000
00000000
,
00000000
00000000
00000300
00000000
00031000
01000000
00001000
01000000
,
00002000
00000000
00000000
00000000
,
00000000
00000000
00013000
00000000
,
20020000
33000000
00130000
00010000
,
01000000
10000000
01000000
00010000
,
00200000
00301000
00013000
00000010
,
00000200
00001300
00000203
00000301
,
00000010
00000000
00000000
00020100
00000000
00000000
00031300
00000000
,
01000000
00100000
00010000
00001000
,
00100000
00001000
00010000
00000100
,
00000010
00000000
00000001
00000000
00001000
00000010
00000000
00000000
,
00002002
00000003
00003100
00001000
,
00000010
00000001
00000010
00001000
,
00000200
00010300
00031000
01000000
,
00200000
00310000
30200000
10300000
,
01000000
00000000
00000000
00101000
00000000
00000000
00313020
00000000
,
00000000
00000130
00001000
00010000
,
00000100
00010000
00001000
00100000
,
01000000
00000000
10000000
00000000
00010000
01000000
00000000
00000000
,
20200000
30000000
01300000
01000000
,
00010000
00100000
00001000
00010000
,
00000100
00000010
00000010
00000010
,
00000001
00000100
00001000
00010000
,
00000100
00000000
00000000
00010100
00000000
00000000
00101000
00000000
,
00000000
00022000
00033000
00001000
,
01000000
00100000
10000000
01000000
,
00100000
01000000
00100000
00000000
00010000
00000000
10000000
00010000
,
20000000
00000000
30100000
00010000
,
00001000
00000000
00000100
00000000
00000010
00000000
00001000
00000001
,
00002000
00003100
00000010
00001000
,
00000020
00000331
00000200
00001300
,
00010000
00000000
00000100
00020000
00000000
00000000
00100000
00000000
,
00000000
00031000
00100000
01000000
,
10000000
00100000
01000000
00010000
,
00100000
00000000
00001000
00010000
00000000
00000010
00000000
00000000
,
00003102
00000000
00000103
00001000
,
00010000
00000000
00100000
00000000
01000000
00000000
00010000
10000000
,
00020000
00130000
01000000
00010000
,
02000000
13000000
00200000
00310000
,
00001000
00000000
00100000
00001000
00000000
00010000
00000020
00000000
,
00000300
00000130
00000100
00000001
,
00000202
00000303
00001000
00001000
,
00000100
00000000
00010000
00000000
00001000
00010000
00001000
00000000
,
00022000
00033000
00001000
00010000
,
00100000
10000000
01000000
00100000
,
00002000
00013000
00000010
00000100
,
00002000
00003100
00000002
00000013
,
00000100
00010000
00000000
00010000
00000000
00000000
00001000
01000000
,
00000000
01000000
00000000
00000000
00010000
00000000
00000000
00000000
,
10000000
00100000
01000000
00001000
,
00010000
00000000
00001000
00000000
00010000
00000000
00001000
00000000
00000000
00000000
00000000
00000000
,
00100000
00001000
00100000
00001000
00000000
00000000
00100000
00001000
,
00100000
00001000
00000000
00000000
00100000
00001000
00100000
00001000
,
00000000
00000000
00100000
00001000
00100000
00001000
00000000
00000000
,
00001000
00000000
00010000
00000000
00000010
00010000
00000010
00010000
,
00000000
00000000
00000010
00010000
00000010
00010000
00000000
00000000
,
00000010
00010000
00000010
00010000
00000000
00000000
00000010
00010000
,
00000010
00010000
00000000
00000000
00010000
00000000
00001000
00000000
,
01000000
00001000
01000000
00001000
00000000
00000000
01000000
00001000
,
01000000
00001000
00000000
00000000
01000000
00001000
01000000
00001000
,
00000000
00000000
01000000
00001000
01000000
00001000
00000000
00000000
,
00001000
00022000
00000000
00000000
,
00000000
00000000
00033000
00000000
,
00000110
00000000
00002002
00000000
,
00000000
00000000
00000000
00000000
,
00003303
00000000
00000001
00000100
,
00000010
00000000
00001000
00000100
00002000
00000000
00000000
00000000
,
00003001
00000100
00000010
00010000
,
00001000
00010000
00001000
00000000
00100000
00000000
00010000
00000000
,
01000000
00000000
00100000
00000000
10000000
01000000
10000000
00000000
,
00010000
00000000
01000000
00000000
00100000
00000000
10000000
01000000
,
00000000
01000000
00000000
00100000
00002000
00000000
00023000
00000000
,
00000000
00030010
00000100
00000001
,
00001000
00000000
00000100
00000000
00000010
00000000
00000001
00001000
,
00000001
00000000
00000100
00000000
00000010
00000000
00001000
00000100
,
00001000
00000000
00000100
00000000
00020000
00000000
00000000
00032000
,
00000000
00000000
02003000
00000000
00000000
03100000
10000000
00000000
,
00010000
10000000
01000000
01000000
,
01000000
00000000
00000000
00000000
00100000
00000000
00001000
00010000
,
00002000
00000000
00000000
00003200
00000030
00000000
00000320
00000000
,
00000000
00002030
00000000
00000000
00003200
00000000
00000000
00000302
,
00000000
00000000
00000103
00000003
00001000
00000300
00000010
00000000
,
00000200
00000000
00000310
00002002
,
00000000
00000000
00003003
00000000
00001100
00000000
00000000
00000100
,
00000000
00000000
00010100
00000000
00000000
00010000
00000000
00000000
,
00011000
00000000
00000000
00001000
00000000
00000000
01001000
00000000
,
00000000
01000000
00000000
00000000
00010000
00000000
10000000
00100000
,
10000000
00010000
00200000
00000000
,
00301000
00010000
00001000
00000000
,
00010000
00000010
00000100
00000100
,
00000100
00000000
00000101
00000000
,
00001000
00000100
00010200
00000000
,
00010300
00001000
00010000
00010000
,
00001000
01000000
00100000
00100000
,
00100000
00000000
10100000
00000000
,
10010000
00000000
10000000
02000000
,
00000000
00000000
03100000
00000000
00001000
00010000
00001000
00000000
,
00010000
00000020
00000000
00000130
,
00000001
00001000
00000100
00000000
,
00010000
00000000
00001000
00202000
,
00300000
00013000
00020020
00000030
,
00031000
02002000
03000000
03013000
,
00020200
00000300
00031000
01000000
,
00100000
00000000
10000000
00000000
11000000
00000000
00000000
00010000
,
00000000
02020000
03030000
00001000
,
00010000
00000000
00000100
00000000
00001100
00000000
00000000
00000001
,
00000000
00000202
00000303
00001000
,
00000100
00010000
00002000
00000000
,
00013000
00100000
10000000
01000000
,
00100000
00000000
00001000
00000000
00010000
00001000
00010000
00001000
,
00010000
00001000
00010000
00001000
00010000
00000000
00000000
00000000
,
00001000
01000000
00001000
01000000
00010000
00000000
00000000
02002000
,
00000000
00000000
00000000
03000000
,
00013000
00000100
00010000
00000100
00001000
00000000
00000000
00020200
,
00000000
00000000
00000000
00000300
,
00031000
00100000
00001000
00100000
00010000
00000000
00000000
00202000
,
00000000
00000000
00000000
00300000
,
00013000
00001000
00010000
00001000
00000000
00000000
00000000
00000000
,
00000000
00000000
00000000
00000000
,
00030000
00000000
00000000
00000000
;

//---------------dance-double - ----------------
#NOTEDATA:;
#CHARTNAME:;
#STEPSTYPE:dance-double;
#DESCRIPTION:;
#CHARTSTYLE:;
#DIFFICULTY:Medium;
#METER:10;
#RADARVALUES:0.429643,0.560349,0.208723,0.550269,0.000000,317.000000,295.000000,22.000000,58.000000,0.000000,0.000000,0.000000,0.000000,0.000000,0.429643,0.560349,0.208723,0.550269,0.000000,317.000000,295.000000,22.000000,58.000000,0.000000,0.000000,0.000000,0.000000,0.000000;
#CREDIT:Ben Speirs;
#NOTES:
00000000
00000000
00000000
00000000
,
00000000
00000000
00000000
00000000
,
00000000
00000000
00000000
00000000
,
00000000
00000000
00000000
00000000
,
00000000
00000000
00000000
00000000
,
00000000
00000000
00000000
00000000
,
00000000
00000000
00000000
00000000
,
00000000
00000000
00000000
00000000
,
00000000
00000000
00010000
00000100
,
00020000
00000000
00000000
00002000
00000000
00000000
00000000
00000000
,
00000000
00033000
00001000
01000000
,
00002000
00000000
00000000
00020000
00000000
00000000
00000000
00000000
,
00000000
00033000
00010000
00000010
,
00020000
00000000
00000000
00002000
00000000
00000000
00000000
00000000
,
00000000
00033000
00001000
00100000
,
00002000
00000000
00000000
00000000
,
00000000
00000000
00013000
00000000
,
00022000
00033000
00001000
00000000
,
00010000
00001000
00100000
00000000
,
00120000
00000000
10030000
00000000
,
20100000
00000000
30020000
00000000
,
01030000
00000000
00000000
00200000
00000000
00000000
00000000
00000000
,
10300000
00010000
00100000
00000000
,
00010000
01000000
00010000
01000000
,
00001000
00010000
00000100
00000000
,
00022000
00033000
00010000
00000000
,
00001000
00010000
00000010
00000000
,
00002010
00000000
00003001
00000000
,
00000012
00000000
00002003
00000000
,
00003100
00000000
00000000
00000100
00000000
00000000
00000020
00000000
,
00000300
00000000
00000331
00000000
,
00001000
00000010
00001000
00000010
,
00010000
00001000
00010000
00000000
,
00022000
00000000
00000000
00033000
,
00001000
00010000
00001000
00100000
,
00020000
00000000
00000000
00000000
,
10030000
00100000
01000000
00100000
,
20000000
00000000
00000000
32000000
00000000
00000000
03200000
00000000
,
00000000
00302000
00000000
00000000
,
00013000
00000010
00000100
00000000
,
00000001
00000010
00000100
00000000
,
00002002
00003003
00000001
00000100
,
00000001
00000100
00000010
00000000
,
00001000
00000100
00001000
00000100
,
00010000
00001000
00010000
00000000
,
00001000
00000000
00100000
00000000
,
00010000
01000000
00100000
00000000
,
10000000
01000000
00100000
00000000
,
00010000
10000000
00100000
00000000
,
20020000
30030000
10000000
00100000
,
10000000
00100000
01000000
00000000
,
00010000
00100000
00010000
00100000
,
00001000
00010000
00001000
00000000
,
00010000
00000000
00000100
00000000
,
00001000
00000010
00000100
00000000
,
00000001
00000010
00000100
00000000
,
00001000
00000001
00000100
00000000
,
00002002
00000000
00003003
00000000
,
00000001
00001000
00000100
00010000
,
00002000
00000000
00000000
00000000
,
00103000
00010000
01000000
00100000
,
10000000
00000000
00000000
10000000
00000000
00000000
00010000
00000000
,
00000000
00010000
00000000
00000000
00100000
00000000
00001000
00000000
,
00020000
00000000
00030020
00000000
,
00000230
00000000
00000302
00000000
,
00001003
00000000
00000000
00001000
00000000
00000000
00000100
00000000
,
00000000
00000100
00000000
00000000
00010000
00000000
00000000
00010000
,
00000000
00000000
00001000
00000000
00000000
00001000
00000000
00000000
,
00100000
00000000
00010000
00000000
01000000
00000000
00000000
01000000
,
00000000
00000000
00001000
00000000
00000000
00001000
00000000
00000000
,
00010000
00000000
00000000
00010000
00000000
00000000
00000100
00000000
,
00000000
00000100
00000000
00000000
00001000
00000000
00000010
00000000
,
00010000
00000000
00000000
00010000
00000000
00000000
00001000
00000000
,
00000000
00001000
00000000
00000000
00100000
00000000
00000000
00100000
,
00000000
00000000
00010000
00000000
00000000
00010000
00000000
00000000
,
20000000
00020000
00000000
00000000
,
00000000
00000000
00000000
00000000
,
30030000
00000000
00022000
00000000
,
00000000
00000000
00000000
00000000
,
00033000
00000000
00010000
00000000
,
00000100
00001000
00000020
00000000
,
00000000
00000000
00000000
00000000
,
00000130
00000000
00000001
00000100
,
00000010
00000000
00001000
00000100
,
00010000
00000000
00001000
00100000
,
00010000
00000000
10000000
00200000
,
00000000
00000000
01300000
00000000
,
01000000
00000000
00100000
01000000
,
00010000
00000000
00100000
00010000
,
01000000
00000000
00001000
00000000
,
00001000
00000000
00010000
00000000
,
00010000
00000000
00000100
00000010
,
00000001
00000000
00001000
00000001
,
00001000
00000000
00000000
00001000
00000000
00000000
00000100
00000000
,
00000000
00000100
00000000
00000000
00010000
00000000
00000000
00010000
,
00000000
00001000
00001000
02000000
,
00000000
00000000
00000000
03200000
,
00000000
00000000
10300000
00000000
,
00000000
00010000
10000000
01000000
,
00100000
00000000
00010000
00100000
,
00001000
00000000
00010000
00000010
,
00001000
00000000
00000002
00000000
,
00000100
00000000
00001000
00000000
,
00000010
00000000
00001000
00000000
,
00001003
00000000
00001001
00000000
,
00000000
00000000
00001000
00000100
,
00010000
00000000
00000100
00010000
,
00001000
00000000
00100000
00010000
,
01000000
00000000
01010000
00000000
,
01000000
00000000
00100000
00200000
,
00000000
00000000
10300000
00010000
,
10000000
00020000
00000000
00000000
,
00130000
00002000
00000000
00000000
,
00000000
00000000
00013000
00010000
,
00000000
00000010
00000010
00000000
,
00000100
00000100
00000000
00000001
,
00000001
00000000
00001000
00000100
,
00010000
00000000
00012000
00000000
,
00000000
00100000
00000000
00000000
,
00010000
00003000
00000000
00000000
00021000
00000000
00000000
00000000
,
00000000
00000010
00000000
00000000
,
00031000
00030000
00000000
00000000
00012000
00000000
00000000
00000000
,
00103000
00010000
00100000
00010000
,
00100000
00010000
10000000
00100000
,
01000000
00010000
00100000
00001000
,
00010000
00000000
00000000
00000000
00011000
00000000
00000000
00022000
,
00000000
00000000
00000000
00033000
,
00000000
00000000
00000000
00000000
00010010
00000000
00000000
00020020
,
00000000
00000000
00000000
00030030
,
00000000
00000000
00000000
00000000
00101000
00000000
00000000
00202000
,
00000000
00000000
00000000
00333000
,
00001000
00010000
00000000
00000000
;

//---------------dance-double - ----------------
#NOTEDATA:;
#CHARTNAME:;
#STEPSTYPE:dance-double;
#DESCRIPTION:;
#CHARTSTYLE:;
#DIFFICULTY:Easy;
#METER:6;
#RADARVALUES:0.234474,0.373922,0.066412,0.303597,0.000000,173.000000,166.000000,7.000000,32.000000,0.000000,0.000000,0.000000,0.000000,0.000000,0.234474,0.373922,0.066412,0.303597,0.000000,173.000000,166.000000,7.000000,32.000000,0.000000,0.000000,0.000000,0.000000,0.000000;
#CREDIT:Ben Speirs;
#NOTES:
00000000
00000000
00000000
00000000
,
00000000
00000000
00000000
00000000
,
00000000
00000000
00000000
00000000
,
00000000
00000000
00000000
00000000
,
00000000
00000000
00000000
00000000
,
00000000
00000000
00000000
00000000
,
00000000
00000000
00000000
00000000
,
00000000
00000000
00000000
00000000
,
00000000
00000000
00000000
00000000
,
00010000
00000000
00000000
00020000
00000000
00000000
00000000
00000000
,
00030000
00000000
00000000
00000000
,
00001000
00000000
00000000
00002000
00000000
00000000
00000000
00000000
,
00003000
00000000
00000000
00000000
,
00010000
00000000
00000000
00020000
00000000
00000000
00000000
00000000
,
00030000
00000000
00000000
00000000
,
00002000
00000000
00000000
00000000
,
00003000
00000000
00000000
00000000
,
00022000
00000000
00000000
00000000
,
00000000
00000000
00033000
00000000
,
00002000
00000000
00003000
00000000
,
00100000
00000000
00100000
00000000
,
01000000
00000000
02000000
00000000
,
00000000
00000000
00000000
00000000
,
03000000
00000000
00000000
00000000
,
10000000
00000000
00010000
00000000
,
02000000
00000000
00000000
00000000
,
00000000
00000000
03000000
00000000
,
00002000
00000000
00003000
00000000
,
00010000
00000000
00010000
00000000
,
00000100
00000000
00000100
00000000
,
00000020
00000000
00000000
00000000
,
00000000
00000000
00000030
00000000
,
00000001
00000000
00001000
00000000
,
00000020
00000000
00000000
00000000
,
00000000
00000000
00000030
00000000
,
00002000
00000000
00003000
00000000
,
00000100
00000000
00000100
00000000
,
00010000
00000000
00001000
00000000
,
01000000
00000000
01000000
00000000
,
00100000
00000000
00100000
00000000
,
00100000
00000000
00000000
00000000
,
20020000
00000000
30030000
00000000
,
00010000
00000000
00100000
00000000
,
00002000
00000000
00003000
00000000
,
00010000
00000000
00000010
00000000
,
00000100
00000000
00000100
00000000
,
00000010
00000000
00000000
00000000
,
00001000
00000000
00000100
00000000
,
00000010
00000000
00000000
00000000
,
00002002
00000000
00003003
00000000
,
00000001
00000000
00001000
00000000
,
00000020
00000000
00000030
00000000
,
00001000
00000000
00001000
00000000
,
00000100
00000000
00010000
00000000
,
00001000
00000000
00000000
00000000
,
00010000
00000000
00001000
00000000
,
01000000
00000000
00010000
00000000
,
20020000
00000000
30030000
00000000
,
10000000
00000000
00100000
00000000
,
02000000
00000000
03000000
00000000
,
00010000
00000000
00010000
00000000
,
00100000
00000000
00100000
00000000
,
00001000
00000000
00000000
00000000
,
00010000
00000000
00010000
00000000
,
00000010
00000000
00000000
00000000
,
00001000
00000000
00000000
00001000
,
00000000
00000000
00001000
00000000
,
00000000
00001000
00000000
00000000
,
00000100
00000000
00010000
00000000
,
00000000
00010000
00000000
00000000
,
00010000
00000000
00000000
00010000
,
00000000
00000000
00001000
00000000
,
01000000
00000000
00000000
01000000
,
00000000
00000000
01000000
00000000
,
00000000
01000000
00000000
00000000
,
00100000
00100000
00000000
00000000
,
00000000
00000000
00000000
00000000
,
00000000
00000000
20020000
00000000
,
00000000
00000000
00000000
00000000
,
30030000
00000000
10000000
00000000
,
00010000
00000000
00100000
00000000
,
00000000
00000000
00001000
00000000
,
00010000
00000000
00001000
00000000
,
00010000
00000000
00000010
00000000
,
00000100
00000000
00000001
00000000
,
00001000
00000000
00000100
00000000
,
00000000
00000000
00001000
00000000
,
00000100
00000000
00000010
00000000
,
00000000
00000000
00000001
00000000
,
00001000
00000000
00000010
00000000
,
00000010
00000000
00010000
00000000
,
00010000
00000000
00001000
00000000
,
00100000
00000000
00010000
00000000
,
00000000
00000000
10000000
00000000
,
10000000
00000000
10000000
00000000
,
10000000
00000000
00010000
00000000
,
00100000
00000000
00100000
00000000
,
00001000
00000000
00010000
00000000
,
00000000
00000000
00010000
00000000
,
00000010
00000000
00000100
00000000
,
00000000
00000000
00000010
00000000
,
00000000
00000000
00002002
00000000
,
00000000
00000000
00000000
00000000
,
00003003
00000000
00001000
00000000
,
00000100
00000000
00010000
00000000
,
00000000
00000000
00001000
00000000
,
00001000
00000000
01000000
00000000
,
00000000
00000000
01000000
00000000
,
01000000
00000000
00100000
00000000
,
00000000
00000000
20000000
00000000
,
30000000
00000000
10000000
00000000
,
01000000
00000000
00200000
00000000
,
00300000
00000000
00001000
00000000
,
00000000
00000000
00010000
00000000
,
00000000
00010000
00000000
00000000
,
00001000
00000000
00000000
00001000
,
00000000
00000000
00010000
00000000
,
00000000
00000000
00000010
00000000
,
00000010
00000000
00000100
00000000
,
00000100
00000000
00000001
00000000
,
00000001
00000000
00000010
00000000
,
00000010
00000000
00000200
00000000
,
00000000
00000000
00000000
00000000
,
00000300
00000000
00010000
00000000
,
00001000
00000000
00010000
00000000
,
00001000
00000000
00000000
00000000
00100000
00000000
00000000
00200000
,
00000000
00000000
00000000
00000000
,
00300000
00000000
00000000
00000000
00001000
00000000
00000000
00002000
,
00000000
00000000
00000000
00000000
,
00003000
00000000
00000000
00000000
00010000
00000000
00000000
00020000
,
00000000
00000000
00000000
00000000
,
00030000
00000000
00000000
00011000
00000000
00000000
00000000
00000000
;
