#VERSION:0.83;
#TITLE:Lover;
#SUBTITLE:(BS Style);
#ARTIST:ND Lee;
#TITLETRANSLIT:;
#SUBTITLETRANSLIT:;
#ARTISTTRANSLIT:;
#GENRE:BARBIE HOUSE;
#ORIGIN:;
#CREDIT:;
#BANNER:Lover (BS Style).png;
#BACKGROUND:Lover (BS Style)-bg.png;
#PREVIEWVID:;
#JACKET:;
#CDIMAGE:;
#DISCIMAGE:;
#LYRICSPATH:;
#CDTITLE:;
#MUSIC:Lover (BS Style).ogg;
#OFFSET:-4.431109;
#SAMPLESTART:44.124756;
#SAMPLELENGTH:26.379307;
#SELECTABLE:YES;
#BPMS:0.000=145.000;
#STOPS:;
#DELAYS:;
#WARPS:;
#TIMESIGNATURES:0.000=4=4;
#TICKCOUNTS:0.000=4;
#COMBOS:0.000=1;
#SPEEDS:0.000=1.000=0.000=0;
#SCROLLS:0.000=1.000;
#FAKES:;
#LABELS:0.000=Song Start;
#BGCHANGES:8.000=Lover (BS Style).mp4=1.000=1=0=1===CrossFade==,
190.750=Lover (BS Style)-bg.png=1.000=0=0=1=====,
99999=-nosongbg-=1.000=0=0=0 // don't automatically add -songbackground-
;
#KEYSOUNDS:;
#ATTACKS:
;

//---------------dance-single - Classic 11 | Modern 16----------------
#NOTEDATA:;
#CHARTNAME:;
#STEPSTYPE:dance-single;
#DESCRIPTION:Classic 11 | Modern 16;
#CHARTSTYLE:Pad;
#DIFFICULTY:Challenge;
#METER:16;
#RADARVALUES:0.939475,0.950329,0.351675,0.468900,1.406701,561.000000,531.000000,30.000000,40.000000,0.000000,0.000000,1.000000,0.000000,0.000000,0.939475,0.950329,0.351675,0.468900,1.406701,561.000000,531.000000,30.000000,40.000000,0.000000,0.000000,1.000000,0.000000,0.000000;
#CREDIT:DDRDAIKENKAI;
#NOTES:
0000
0000
0000
0000
,
0000
0000
0000
0000
,
0000
0000
0000
0000
,
0000
0000
0000
0000
,
2001
0000
0000
3001
1000
0000
0001
0000
0200
0000
0000
0301
1000
0000
0010
0000
,
0000
1010
0000
0000
0011
0000
0000
0001
0200
0000
0000
0310
1000
0000
0100
0000
,
0010
0000
0001
1000
0000
0100
0000
0100
1000
0000
0000
1000
0010
0000
0010
1000
,
0001
0010
0100
1000
0010
0100
0001
0000
1000
1000
0100
0010
0002
0000
0000
0000
,
1003
0010
1000
0001
1000
0010
0100
0010
1000
0001
0010
0100
1000
0100
0010
0001
,
0100
0010
0100
0001
1000
0100
0010
0100
1000
0010
0100
0001
0010
0100
1000
0001
,
0100
0010
0100
0001
0010
0001
0100
0010
1000
0100
0010
0001
0100
0010
1000
0001
,
0010
0001
1000
0001
0100
0010
0100
0001
1000
0100
0010
0001
0100
0010
1000
0001
,
1000
0010
0100
0001
1000
0100
1000
0001
0010
0100
1000
0100
0010
0001
0100
0010
,
1000
0001
1000
0010
0100
0001
1000
0010
0100
0001
0010
0100
1000
0100
0010
0001
,
1000
0010
0100
0001
0100
0010
0100
0001
0010
0100
1000
0010
1000
0100
0010
0001
,
1000
0010
1000
0100
1000
0010
0100
0001
0010
0100
1000
0010
0100
0001
1000
0100
,
2001
0000
3001
0000
0202
0000
0303
1001
0000
0001
1000
0000
1000
0100
0000
0100
,
0010
0000
0010
0000
0110
0000
0000
0100
1000
0000
2002
0000
3003
1020
0000
0000
,
1030
0001
1000
0001
2000
0000
3001
1000
0100
0000
0001
0000
0100
1000
0000
1000
,
0020
0000
0130
0001
1000
0100
1000
0010
0100
0001
0022
0000
0033
2002
0000
3003
,
2100
0000
3100
0000
0220
0000
0330
1001
0000
0001
0100
0000
0010
1000
0000
1000
,
0002
0000
1003
0010
1000
0100
0010
0100
1000
0001
0202
0000
0303
0210
0000
0000
,
0310
1000
0100
1000
0010
0100
0001
0010
0100
1000
0010
0100
0001
1000
0100
0010
,
0001
0010
0000
0000
0010
1000
0000
0000
1000
0100
0000
0000
0100
0001
0000
0000
,
0002
0000
1003
0000
0001
0100
0000
0000
0020
0000
0000
1030
0100
0000
0010
0001
,
2000
0001
3000
0000
0100
0000
0001
0010
0200
0000
0010
0000
0000
0310
0001
0000
,
0011
0000
0000
0001
1000
0000
0001
0000
0100
0001
0000
0000
1000
0010
0000
0010
,
0100
0000
0010
1000
0100
0010
0001
0100
0010
1000
0100
0010
0001
0200
0000
0310
,
1000
0000
0010
0100
0001
0000
0001
0100
0010
1000
0100
0000
0210
0000
0000
0310
,
0001
0000
1000
0010
0100
0000
0010
0000
1000
0001
1000
0200
0010
0000
0310
0000
,
0011
0000
0000
0001
0010
0000
0001
0000
1000
0001
0000
0000
0100
0001
0000
0001
,
1000
0000
0100
1000
0010
0100
0001
0010
0100
1000
0010
1000
0100
0020
0000
0000
,
0031
1000
0100
1000
0010
0100
0001
0010
0100
1000
0010
1000
0100
0010
0001
0100
,
0010
1000
0100
1000
0010
0100
0001
0010
0100
1000
0001
0100
0001
1000
0010
1000
,
0001
1000
0100
1000
0010
0100
0001
0010
0001
0100
0010
1000
0100
0010
0001
1000
,
0010
1000
0100
1000
0010
0100
0001
0010
0100
1000
0010
0100
0001
1000
0100
1000
,
0010
1000
0100
0010
0001
0100
0010
1000
0100
1000
0010
0100
0001
0010
0100
1000
,
0001
0010
0001
1000
0010
1000
0001
0100
0010
1000
0100
1000
0010
0100
0001
1000
,
0001
0010
0001
0100
0010
1000
0100
0010
0100
1000
0010
0100
0001
0010
0100
1000
,
0010
0000
0110
0000
0110
0000
0110
0000
0001
1000
0001
1000
0400
0000
0000
0000
,
2300
0000
0000
3001
0100
0000
0010
1000
0100
0010
0001
0000
2001
0000
0000
3001
,
0200
0000
0000
0301
0010
0000
0200
0000
1300
0010
0100
0002
1000
0000
0003
1000
,
0001
0000
0000
0001
0100
0000
0010
0000
1000
0001
0000
0000
0100
0001
0000
0001
,
1000
0000
0010
1000
0100
0010
0001
0100
0010
1000
0100
1000
0010
0200
0000
0000
,
0301
0000
0000
0001
0010
0000
0001
0100
0010
1000
0100
0000
0120
0000
0000
0031
,
1000
0000
0000
1000
0001
0000
0200
0000
0310
1000
0010
0200
0001
0000
0300
0001
,
0010
0000
0000
0110
0000
0000
0011
0000
0000
1100
0000
0000
0001
0100
0000
0010
,
1000
0000
1100
0000
0101
0000
1100
0000
0001
1000
0001
1000
0000
0000
0000
0000
;

//---------------dance-single - Classic 9 | Modern 13----------------
#NOTEDATA:;
#CHARTNAME:;
#STEPSTYPE:dance-single;
#DESCRIPTION:Classic 9 | Modern 13;
#CHARTSTYLE:Pad;
#DIFFICULTY:Hard;
#METER:13;
#RADARVALUES:0.609570,0.642869,0.246173,0.422010,0.404426,364.000000,343.000000,21.000000,36.000000,0.000000,0.000000,1.000000,0.000000,0.000000,0.609570,0.642869,0.246173,0.422010,0.404426,364.000000,343.000000,21.000000,36.000000,0.000000,0.000000,1.000000,0.000000,0.000000;
#CREDIT:DDRDAIKENKAI;
#NOTES:
// measure 0
0000
0000
0000
0000
,  // measure 1
0000
0000
0000
0000
,  // measure 2
0000
0000
0000
0000
,  // measure 3
0000
0000
0000
0000
,  // measure 4
1002
0000
0000
2003
0000
0000
3002
0000
0103
0000
0000
0020
0000
0000
2030
0000
,  // measure 5
0000
3200
0000
0000
0310
0000
0000
0010
0001
0000
0000
2000
0000
0000
3020
0000
,  // measure 6
0030
0000
1000
0001
0000
0001
0000
0001
1000
0000
0000
0010
0000
0000
0010
0000
,  // measure 7
0000
0000
0100
0010
0100
0010
1000
0000
0001
0100
0001
0100
2000
0000
0000
0000
,  // measure 8
3100
0001
0010
0100
1000
0100
0010
0001
,  // measure 9
2000
0000
0000
3020
0000
0000
0130
0000
0001
0000
1000
0000
0100
0000
0000
0000
,  // measure 10
0010
0001
0100
1000
0100
0001
1000
0000
,  // measure 11
0100
0100
0100
0100
0010
0020
0001
0032
,  // measure 12
1003
0000
0100
0000
1000
0010
1000
0000
0001
0000
0010
0000
0100
0000
1000
0000
,  // measure 13
0020
0000
0000
0031
0000
0000
1000
0000
0100
0000
0001
0000
1000
0000
1000
0000
,  // measure 14
0001
0100
1000
0100
0001
0000
1000
0100
,  // measure 15
0001
0000
0100
0000
1000
0000
0000
0000
0010
0000
0010
0000
1000
0001
1000
0001
,  // measure 16
2000
0000
0000
0000
3020
0000
0000
0130
0000
0000
0001
0000
0001
0000
0010
0000
,  // measure 17
0210
0000
0000
0000
0310
0000
0001
0000
0100
0000
0010
0000
1000
0001
0000
0000
,  // measure 18
0100
0010
0100
0010
0100
0000
0001
0000
1000
0000
0100
0000
0010
0000
0100
0000
,  // measure 19
0001
0000
0100
0000
1000
0000
0001
0100
0010
0000
2000
0000
0000
3001
0000
0000
,  // measure 20
1001
0000
0000
0000
0011
0000
0000
2100
0000
0000
0001
0000
3001
0000
0100
0000
,  // measure 21
0120
0000
0031
0010
1000
0100
2000
0000
,  // measure 22
3001
0010
0100
1000
0010
0100
0001
0010
,  // measure 23
0011
0101
1100
1010
,  // measure 24
0002
0000
0000
0000
1003
0000
0010
0000
0002
0000
0000
0003
0100
0000
1000
0000
,  // measure 25
0020
0000
1030
0100
0001
0010
1000
0100
,  // measure 26
0110
0000
0000
0100
1000
0000
0010
0000
0100
0001
0000
0000
0010
0100
0000
0100
,  // measure 27
1000
0000
0010
1000
0010
0000
0100
0001
0100
0000
0010
0000
1000
0000
0100
0000
,  // measure 28
0010
0001
0010
0001
0100
1000
0100
1000
,  // measure 29
0100
0001
0100
0001
0010
1000
0010
0100
,  // measure 30
0110
0000
0000
0100
1000
0000
0001
0000
0100
0010
0000
0000
0100
0001
0000
0001
,  // measure 31
1000
0000
0001
0010
0001
0000
1000
0100
1000
0000
0010
0000
0100
0000
0001
0000
,  // measure 32
1000
0100
1000
0010
0001
0010
1000
0001
,  // measure 33
0100
1000
0100
0001
1000
0100
0010
0001
,  // measure 34
0100
0001
0010
0100
1000
0010
0100
0001
,  // measure 35
0010
0001
0100
0010
1000
0100
0010
0001
,  // measure 36
1000
0010
0100
1000
0001
0100
0010
0001
,  // measure 37
0100
0000
0001
0000
0010
0000
1000
0000
0001
0000
0100
0000
1000
0000
0001
1000
,  // measure 38
0001
0000
0100
0010
0100
0000
0001
0000
1000
0100
1000
0000
0001
0010
0000
0010
,  // measure 39
0200
0000
0010
0000
0010
0000
0310
0000
0001
1000
0001
1000
0040
0000
0000
0000
,  // measure 40
0230
0000
0000
0302
0000
0000
1003
0100
1000
0100
0010
0000
0210
0000
0000
0000
,  // measure 41
2300
0000
0000
3010
0000
0000
0010
0000
0100
0001
1000
0002
0000
0000
0000
0000
,  // measure 42
1003
0000
0000
1100
0000
0000
0001
0000
0000
0101
0000
0000
0001
1000
0000
1000
,  // measure 43
0010
0000
1000
0001
0100
0000
0010
1000
0001
0000
0100
0000
0001
2000
0000
0000
,  // measure 44
3200
0000
0000
0320
0000
0000
0031
0000
1000
0100
1000
0000
1020
0000
0000
0130
,  // measure 45
0002
0000
0000
1003
0000
0000
0100
0000
0010
0100
0010
0200
0000
0000
0000
0000
,  // measure 46
1300
0000
0000
1010
0000
0000
0001
0000
0000
0011
0000
0000
0001
1000
0000
1000
,  // measure 47
0100
0000
1100
0000
0110
0000
0011
0000
0001
1000
0001
1000
0000
0000
0000
0000
;

//---------------dance-single - Classic 6 | Modern 9----------------
#NOTEDATA:;
#CHARTNAME:;
#STEPSTYPE:dance-single;
#DESCRIPTION:Classic 6 | Modern 9;
#CHARTSTYLE:Pad;
#DIFFICULTY:Medium;
#METER:9;
#RADARVALUES:0.442106,0.447214,0.152393,0.363398,0.058613,264.000000,251.000000,13.000000,31.000000,0.000000,0.000000,0.000000,0.000000,0.000000,0.442106,0.447214,0.152393,0.363398,0.058613,264.000000,251.000000,13.000000,31.000000,0.000000,0.000000,0.000000,0.000000,0.000000;
#CREDIT:DDRDAIKENKAI;
#NOTES:
0000
0000
0000
0000
,
0000
0000
0000
0000
,
0000
0000
0000
0000
,
0000
0000
0000
0000
,
1001
0000
0000
0000
1000
0000
0000
0000
0010
0000
0000
0100
0000
0000
0001
0000
,
1000
0000
0000
0000
0100
0000
0000
0000
0010
0000
0000
0100
0000
0000
1000
0000
,
0001
0000
0000
0000
0100
0000
0000
0000
0010
0000
0000
1000
0000
0000
0001
0000
,
0100
0000
0000
0000
0010
0000
0010
0000
0100
0000
0000
0001
2000
0000
0000
0000
,
3001
1000
0100
0000
1000
0001
0100
0000
,
0020
0000
2030
0000
3001
0010
0100
0000
,
1000
0010
1000
0010
0200
0000
0301
0000
,
1000
0100
1000
0100
0010
0010
0000
0002
,
1000
0000
1003
0100
1000
0000
0001
0000
,
0100
0000
0000
0010
0000
0000
1000
0000
0000
0000
0000
0000
0100
0000
0000
0000
,
0010
0001
0010
0010
0100
0000
1000
0010
,
1000
1000
0001
0000
0100
0200
0300
0000
,
0010
0000
0010
0000
1000
0000
0000
0001
0000
0000
1000
0000
0100
0000
0000
0000
,
0110
0000
0010
0001
0010
0100
1000
0000
,
0020
0000
1030
0001
1000
0001
0100
0000
,
0010
0000
0010
0000
2000
0000
0000
0000
3100
0000
0010
0000
0000
0010
0000
0000
,
0001
0001
1000
0000
0100
1000
0010
0000
,
0110
0000
0010
1000
0001
0100
0001
0000
,
0010
0100
1000
0000
0100
0010
0001
0000
,
0011
1010
1100
0101
,
2000
0000
3100
1000
0200
0000
0310
0100
,
0020
0000
0031
0010
0001
0100
0001
0100
,
0010
0000
1000
0000
0001
0000
0100
0010
,
0200
0000
0301
0000
1000
0100
0010
0001
,
1000
0000
1000
0100
0001
0000
0001
0100
,
1000
0000
1000
0010
0001
0010
1000
0000
,
0001
0000
0001
0000
0100
0000
0100
0010
,
1000
0000
0100
0000
0010
0001
1000
0100
,
2000
0000
3001
0100
0020
0000
1030
0000
,
0010
0100
0010
0100
0002
0000
1003
0000
,
0100
0010
0100
0000
0100
0001
0100
0000
,
0100
1000
0100
1000
0010
0100
0010
0000
,
2000
0000
0000
0000
3010
0000
0001
0000
0200
0000
0000
0300
0001
0000
0100
0000
,
2000
0000
3100
1000
0020
0000
1030
0100
,
0010
0001
0100
0110
,
1000
0000
0001
0000
1000
0000
0001
0000
1000
0000
0001
1000
0000
0000
0000
0000
,
0120
0000
2030
0000
3100
0001
0010
0000
,
0120
0000
0031
0000
0100
1000
0010
0000
,
1010
0001
0011
1000
,
0010
0000
0100
0000
0010
0000
0100
0000
0001
0000
1000
0000
0001
1000
0000
0000
,
2100
0000
3200
0000
0310
0001
0100
0010
,
2000
0000
3001
0010
0200
0000
1300
0001
,
0200
0000
0000
0000
0320
0000
0000
0000
2030
0000
0000
0000
3200
0000
0000
0300
,
0020
0000
0001
0000
0001
0000
0031
0000
1000
0000
0001
1000
0000
0000
0000
0000
;

//---------------dance-single - Classic 4 | Modern 6----------------
#NOTEDATA:;
#CHARTNAME:;
#STEPSTYPE:dance-single;
#DESCRIPTION:Classic 4 | Modern 6;
#CHARTSTYLE:Pad;
#DIFFICULTY:Easy;
#METER:6;
#RADARVALUES:0.338278,0.363361,0.105503,0.257895,0.000000,202.000000,193.000000,9.000000,22.000000,0.000000,0.000000,0.000000,0.000000,0.000000,0.338278,0.363361,0.105503,0.257895,0.000000,202.000000,193.000000,9.000000,22.000000,0.000000,0.000000,0.000000,0.000000,0.000000;
#CREDIT:DDRDAIKENKAI;
#NOTES:
0000
0000
0000
0000
,
0000
0000
0000
0000
,
0000
0000
0000
0000
,
0000
0000
0000
0000
,
0110
1000
0001
0010
,
0100
0000
1000
0000
0010
0000
1000
1000
,
1000
0100
0010
0001
,
0100
0000
0010
0010
0010
0000
1001
0000
,
0010
0010
0010
0010
,
0001
0001
0001
0001
,
0100
0100
0100
0100
,
1000
1000
1000
1000
,
0100
0000
0010
0000
1000
0100
1000
0000
,
0010
0000
0100
0000
0001
0010
0001
0000
,
0100
0100
0010
0010
,
1000
0000
1000
0000
0001
0002
0000
0003
,
2000
3200
0310
0001
,
0200
0000
0310
0000
1000
0001
1000
0000
,
0002
0023
0130
1000
,
0020
0000
0130
0000
0001
1000
0001
0000
,
0200
0320
1030
0100
,
0020
0000
0130
0000
1000
0001
1000
0000
,
0020
0032
0203
1300
,
1001
1001
0110
1001
,
2000
0010
3020
0100
,
0230
0000
0001
0000
0301
0010
0001
0000
,
0100
0100
0010
0010
,
1000
0000
0100
0000
0010
0000
0001
0100
,
0001
0000
0010
0100
0010
0000
0100
0000
,
1000
0000
0010
0100
0010
0000
1000
0000
,
0001
0100
1000
0100
,
0010
0000
0010
0000
0010
1000
0010
0000
,
0100
0001
0020
0130
,
1000
0010
2000
3100
,
0010
0001
0100
0010
,
1000
0000
1000
0000
0001
1000
0001
0000
,
0010
0010
0100
0100
,
1000
0000
1000
0000
0001
0000
0001
0100
,
0001
0100
0010
2000
,
3100
0010
0100
0010
0200
0000
0300
0000
,
0010
0010
0001
0100
,
0010
0010
1000
0100
,
1000
1000
0001
0001
,
0100
0000
0010
0000
0100
0001
0100
0000
,
0001
0000
0010
0000
0100
0000
1000
0010
,
1000
0000
0100
0000
0010
0001
0010
0000
,
0001
0100
0010
1000
,
1100
0000
0000
0000
0101
0000
0000
0000
2002
0000
0000
3003
0000
0000
0000
0000
;

//---------------dance-single - Classic 1 | Modern 3----------------
#NOTEDATA:;
#CHARTNAME:;
#STEPSTYPE:dance-single;
#DESCRIPTION:Classic 1 | Modern 3;
#CHARTSTYLE:Pad;
#DIFFICULTY:Beginner;
#METER:3;
#RADARVALUES:0.184211,0.306250,0.152393,0.070335,0.000000,110.000000,97.000000,13.000000,6.000000,0.000000,0.000000,0.000000,0.000000,0.000000,0.184211,0.306250,0.152393,0.070335,0.000000,110.000000,97.000000,13.000000,6.000000,0.000000,0.000000,0.000000,0.000000,0.000000;
#CREDIT:DDRDAIKENKAI;
#NOTES:
0000
0000
0000
0000
,
0000
0000
0000
0000
,
0000
0000
0000
0000
,
0000
0000
0000
0000
,
1000
1000
0000
0001
,
0000
1000
1000
1000
,
0000
0001
0000
1000
,
0000
0001
0001
0001
,
0001
0000
1000
0000
,
0001
0001
0001
0000
,
0100
0100
0100
0000
,
0010
0010
0010
0000
,
2000
0000
3000
0000
,
0200
0000
0300
0000
,
0020
0000
0030
0000
,
0002
0000
0003
0000
,
1001
1001
0000
0100
,
0000
0010
0000
0100
,
0000
0001
0000
1000
,
0000
0100
0000
0110
,
0110
0110
0000
0010
,
0000
0001
0000
0100
,
0100
0000
0010
0000
,
0110
0110
0110
0220
,
0330
0000
0000
0000
,
0000
0000
0000
0000
,
1001
0000
0001
0000
,
1000
1000
1000
0000
,
0100
0000
0010
0000
,
0001
0000
0100
0000
,
0010
0000
0100
0000
,
0001
0001
0001
0000
,
1000
1000
0000
0001
,
0000
0100
0000
0010
,
0000
0100
0000
0001
,
0000
1000
0000
0100
,
0000
0010
0000
0001
,
0000
0100
0000
0010
,
0000
1000
0000
0001
,
0000
1000
1000
1000
,
1000
0000
0100
0000
,
0010
0000
0100
0000
,
0010
0000
0001
0000
,
0100
0100
0100
0100
,
0100
0000
0010
0000
,
1000
0000
0001
0000
,
1000
0000
0001
0000
,
0110
0110
0110
0000
;
