#VERSION:0.83;
#TITLE:Live Fast Die Young;
#SUBTITLE:;
#ARTIST:anubasu-anubasu;
#TITLETRANSLIT:;
#SUBTITLETRANSLIT:;
#ARTISTTRANSLIT:;
#GENRE:;
#ORIGIN:;
#CREDIT:;
#BANNER:Live Fast Die Young.png;
#BACKGROUND:Live Fast Die Young-bg.png;
#PREVIEWVID:;
#JACKET:Live Fast Die Young-jacket.png;
#CDIMAGE:;
#DISCIMAGE:;
#LYRICSPATH:;
#CDTITLE:cdtitle.png;
#MUSIC:Live Fast Die Young.ogg;
#OFFSET:-0.056000;
#SAMPLESTART:90.251999;
#SAMPLELENGTH:12.549000;
#SELECTABLE:YES;
#BPMS:0.000=76.500,
19.000=153.000,
99.000=76.500,
123.000=153.000;
#STOPS:;
#DELAYS:;
#WARPS:;
#TIMESIGNATURES:0.000=4=4;
#TICKCOUNTS:0.000=4;
#COMBOS:0.000=1;
#SPEEDS:0.000=1.000=0.000=0;
#SCROLLS:0.000=1.000;
#FAKES:;
#LABELS:0.000=Song Start;
#BGCHANGES:;
#KEYSOUNDS:;
#ATTACKS:
;

//---------------dance-single - Pilgrimsito----------------
#NOTEDATA:;
#CHARTNAME:Pilgrimsito;
#STEPSTYPE:dance-single;
#DESCRIPTION:Pilgrimsito;
#CHARTSTYLE:;
#DIFFICULTY:Medium;
#METER:12;
#RADARVALUES:0.434394,0.464317,0.568774,0.313555,0.047398,417.000000,339.000000,78.000000,43.000000,1.000000,0.000000,0.000000,0.000000,0.000000,0.434394,0.464317,0.568774,0.313555,0.047398,417.000000,339.000000,78.000000,43.000000,1.000000,0.000000,0.000000,0.000000,0.000000;
#CREDIT:Pilgrimsito;
#NOTES:
0000
0000
0000
2001
,
0000
3020
0000
0230
,
0000
0000
0000
0302
,
0000
0023
0000
0230
,
0000
0000
0300
2002
,
0000
0000
0000
3003
0010
0100
2002
0000
,
0000
0000
0000
3003
0010
0100
1002
0000
,
0103
0000
2001
0000
3100
0000
1000
0010
,
0100
0001
0010
0100
1000
0000
1001
0000
,
0001
0000
0100
0000
0010
0100
0101
0000
,
0001
0000
1000
0000
0100
0010
0110
0000
,
0100
0000
1000
0000
0001
1000
1010
0000
,
1000
0000
0100
0000
0010
0100
1100
0000
,
1000
0000
0010
0000
0100
0010
1010
0000
,
1000
0000
0000
0000
0001
0000
0000
0000
0010
0000
0100
0000
1001
0000
0000
0010
,
0000
0000
0100
0000
0000
0010
0000
0000
1001
0000
0000
0000
0001
0000
0100
0000
,
0010
1000
0002
0000
0013
0000
0001
1000
,
1100
0000
0000
0000
1100
0000
0000
0000
1100
0000
0000
0000
0002
0003
0000
0002
,
0003
0000
0002
0003
0000
0002
0003
0000
2000
0000
3000
0000
0101
0000
0000
0000
,
0101
0000
0000
0000
0101
0000
0000
0000
0101
0000
0000
0000
2000
3000
0000
2000
,
3000
0000
2000
3000
0001
0000
0100
0000
0002
0000
0003
0000
1100
0000
0000
0000
,
1100
0000
0000
0000
1100
0000
0000
0000
1100
0000
0000
0000
0002
0003
0000
0002
,
0003
0000
0002
0003
1000
0000
0100
0000
0010
0000
0100
0000
1000
0000
0000
1000
,
0000
0000
0001
0000
0000
0001
0000
0000
0110
0000
0000
0000
2001
0000
0000
0000
,
0000
0000
3100
2002
,
0000
0000
0000
3003
,
0000
0000
0000
0000
0000
0000
0000
1000
,
0100
0100
1000
1000
0010
0100
0000
0001
,
0010
0001
0100
0010
0100
0001
0000
1000
,
0100
0100
0010
0010
0100
1000
0000
0001
,
0100
0010
1000
0100
0010
0100
200M
0000
,
0001
0000
3001
0000
0001
0200
0010
0300
,
0010
2000
0001
0000
3001
0020
0100
0000
,
0100
0000
0130
0000
1000
0020
0000
0030
,
1000
0200
0000
0300
1000
0010
2000
0000
,
0001
0000
3001
0000
0001
0020
0100
0030
,
0100
2000
0001
0000
3001
0200
0010
0000
,
0010
0000
0310
0000
1000
0001
0020
0000
,
0000
0200
0000
0330
1000
0000
1100
0000
,
0100
0010
0100
1000
,
0010
0100
0010
1000
,
0100
0001
0100
1000
,
0010
0000
0001
0000
0010
0000
1000
0001
,
1000
0001
0100
0010
0100
0010
1000
0100
,
1000
0100
0010
0001
0010
0001
1000
0010
,
0100
0001
1000
0100
0020
0000
0130
0000
,
0000
0000
0010
1001
,
1100
1010
1100
1001
,
0101
0011
0101
1001
,
1100
0110
1100
1001
,
0101
0110
0101
1001
,
1010
1100
1010
1001
,
0011
0101
0011
1001
,
1010
0000
0000
0000
0110
0000
0000
0000
1010
0000
0000
1000
0000
0000
0001
0000
,
0011
0000
0000
0001
0000
0000
0000
0000
1000
0000
0000
0000
0001
0000
0010
0000
,
0100
0010
0001
1000
0010
1000
0001
0010
,
0100
0010
0001
1000
0010
1000
0100
0010
,
0100
1000
0010
0100
0010
1000
0100
0010
,
0100
1000
0010
0100
0010
1000
0001
0100
,
0010
0100
0001
1000
0100
1000
0001
0100
,
0010
0100
0001
1000
0100
1000
1001
0000
,
1001
0000
0000
1000
0000
0000
0001
0000
0010
0000
0001
0000
1002
0000
0000
0000
,
0000
0000
0103
1001
,
0101
0000
1100
0000
1000
0010
0110
0000
,
0101
0000
0011
0000
0001
1000
1100
0000
,
0110
0000
1001
0000
1000
0010
0110
0000
,
0100
0000
0000
0100
0000
0000
0010
0000
1000
0000
0001
0000
1001
0000
0000
0000
,
1100
0000
0101
0000
0001
0010
0110
0000
,
1100
0000
1010
0000
1000
0001
0101
0000
,
0110
0000
0000
0010
0000
0000
0010
0000
1000
0000
0100
0000
0020
0000
0000
0000
,
0000
0000
0000
0130
;

//---------------dance-single - Pilgrimsito----------------
#NOTEDATA:;
#CHARTNAME:Pilgrimsito;
#STEPSTYPE:dance-single;
#DESCRIPTION:Pilgrimsito;
#CHARTSTYLE:;
#DIFFICULTY:Hard;
#METER:14;
#RADARVALUES:0.567733,0.708598,0.525022,0.532314,0.430227,545.000000,473.000000,72.000000,73.000000,1.000000,0.000000,1.000000,0.000000,0.000000,0.567733,0.708598,0.525022,0.532314,0.430227,545.000000,473.000000,72.000000,73.000000,1.000000,0.000000,1.000000,0.000000,0.000000;
#CREDIT:Pilgrimsito;
#NOTES:
// measure 0
0000
0000
0000
1002
,  // measure 1
0000
0000
0103
0200
0000
0000
0310
0020
0000
0000
0130
0200
0000
0000
0000
0000
,  // measure 2
0000
0000
0301
0002
0000
0000
1003
2000
0000
0000
3100
0200
0000
0000
0000
0000
,  // measure 3
0000
0000
1300
2000
0000
0000
3010
0020
0000
0000
1030
2000
0000
0000
0000
0000
,  // measure 4
0000
0000
3001
0002
0000
0000
0103
0200
0000
0000
0310
0010
2020
0000
0000
0000
,  // measure 5
0000
0000
0000
3030
1000
0001
0022
0000
,  // measure 6
0000
0000
0000
0033
0001
1000
2001
0000
,  // measure 7
3010
0000
0000
0000
1002
0000
0000
0000
0013
0000
0000
0000
0001
0100
0010
0100
,  // measure 8
0001
0000
1000
0001
0000
0001
1000
0000
0010
0000
0100
0000
1001
0000
0000
0001
,  // measure 9
0000
0000
1000
0000
0000
1000
0000
0000
0010
0000
0100
0000
0101
0000
0000
0001
,  // measure 10
0000
0000
1000
0000
0000
1000
0000
0001
1000
0000
0100
0000
0110
0000
0000
0100
,  // measure 11
0000
0000
0010
0000
0000
0010
0000
0000
0001
0000
1000
0000
1010
0000
0000
1000
,  // measure 12
0000
0000
0100
0000
0000
0100
0000
0010
0001
0000
1000
0000
1010
0000
0000
1000
,  // measure 13
0000
0000
0001
0000
0000
0001
0000
0000
0010
0000
0100
0000
1100
0000
0000
1000
,  // measure 14
0000
0000
0001
0000
0000
0001
0000
1000
0001
0000
0100
0000
0110
0000
0000
0110
,  // measure 15
0000
0000
1001
0000
0000
1001
0000
0000
1100
0000
0000
0000
1000
0010
0100
0010
,  // measure 16
1000
0000
0001
0000
0020
0000
0000
0000
0200
0000
0330
0000
1000
0001
1000
0000
,  // measure 17
2200
0000
3300
0000
2200
0000
3300
0000
1100
0000
1000
0001
1000
0000
0100
0010
,  // measure 18
0000
0100
0010
0000
0100
0010
0000
0100
0020
0000
0030
0000
0022
0000
0033
0000
,  // measure 19
0022
0000
0033
0000
0022
0000
0033
0000
0011
0000
0001
1000
0001
0000
0100
0010
,  // measure 20
0000
0100
0010
0000
0100
0000
0001
0000
0020
0000
0030
0000
2200
0000
3300
0000
,  // measure 21
2200
0000
3300
0000
2200
0000
3300
0000
1100
0000
1000
0001
1000
0000
0100
0010
,  // measure 22
0000
0001
1000
0001
1000
0001
1000
0000
0010
0100
0010
0000
0110
0000
0000
0110
,  // measure 23
0000
0000
1001
0000
0000
1001
0000
0000
1100
0000
0000
0000
0201
0000
0000
0000
,  // measure 24
0000
0000
0310
2002
,  // measure 25
0000
0000
0000
3003
,  // measure 26
0000
0000
0000
0000
0000
0000
0000
0000
0000
0000
0000
0000
0000
0000
0001
0100
,  // measure 27
0001
0100
0010
0100
0010
0100
0001
0010
0200
0000
1300
0000
0000
0000
2000
0000
,  // measure 28
3002
0000
1003
0100
0010
0100
1000
0001
2000
0000
3100
0000
0000
0000
1000
0010
,  // measure 29
1000
0010
0100
0010
0100
0001
1000
0001
0020
0000
0130
0000
0000
0000
1000
0100
,  // measure 30
0010
0100
1000
0010
0100
0010
1000
0001
2000
0000
3010
0000
100M
0000
1000
0000
,  // measure 31
0001
0000
0000
1000
0000
0000
0100
0000
1000
0000
0000
0001
0000
0000
0100
0000
,  // measure 32
0001
0000
0000
1000
0000
0000
0100
0000
1000
0000
1000
0000
0010
0000
0010
0000
,  // measure 33
0100
0000
0000
0001
0000
0000
0010
0000
0001
0000
0100
0010
0100
0000
0000
0001
,  // measure 34
0000
0000
0001
0000
1000
0000
1000
0000
0001
0100
0000
0100
0001
0000
0001
0000
,  // measure 35
1000
0000
0000
0001
0000
0000
0010
0000
0001
0000
0000
1000
0000
0000
0010
0000
,  // measure 36
1000
0000
0000
0001
0000
0000
0010
0000
0001
0000
0001
0000
0400
0000
0000
0000
,  // measure 37
0000
0000
0000
0302
,  // measure 38
0000
0023
0000
0000
0130
1000
0001
0100
,  // measure 39
0010
0100
0001
0100
1000
0100
0001
0100
,  // measure 40
0010
0100
0001
0100
1000
0100
0001
0010
,  // measure 41
0100
0010
0001
0010
1000
0010
0001
0010
,  // measure 42
0100
0010
0001
0010
1000
0010
0001
0100
,  // measure 43
0001
0100
0010
0100
0010
0100
1000
0100
,  // measure 44
1000
0000
0100
0000
0010
0000
0100
0000
0010
0000
0100
0000
0001
1000
0001
1000
,  // measure 45
0001
1000
0001
1000
0001
1000
0001
1000
0002
0000
0000
0000
0013
0000
0000
0000
,  // measure 46
0000
0000
0000
0000
0100
0000
1001
1000
,  // measure 47
0100
0000
1000
0002
0000
0000
0103
0000
0100
0000
0001
2000
0000
0000
3010
0000
,  // measure 48
0010
0000
1000
0002
0000
0000
0013
0000
0010
0000
0100
0000
1000
0000
0001
0000
,  // measure 49
1000
0000
0100
0020
0000
0000
0130
0000
1000
0000
0010
0200
0000
0000
0310
0000
,  // measure 50
1000
0000
0100
0020
0000
0000
0130
1000
0001
0000
0100
0000
0001
0000
1000
0000
,  // measure 51
0010
0000
1000
0002
0000
0000
0013
0000
0010
0000
0001
2000
0000
0000
3100
0000
,  // measure 52
0100
0000
1000
0002
0000
0000
0103
0000
0100
0000
0010
0000
1000
0000
0001
0000
,  // measure 53
1000
0000
0010
0200
0000
0000
0310
0000
1010
0000
0000
1010
0000
0000
0001
0000
,  // measure 54
0011
0000
0000
0012
0000
0000
0000
0000
0103
0000
0000
0000
0001
0000
0100
0000
,  // measure 55
0001
0000
1000
0200
0000
0000
0301
0000
0100
0000
1000
0020
0000
0000
0031
0000
,  // measure 56
0010
0000
1000
0200
0000
0000
0301
0000
0100
0000
1000
0000
0010
0000
0100
0000
,  // measure 57
0001
0000
0010
0200
0000
0000
0310
0000
0001
0000
0100
0020
0000
0000
0130
0000
,  // measure 58
0001
0000
0010
0200
0000
0000
0310
0000
0001
1000
0001
0000
1000
0000
0100
0000
,  // measure 59
1000
0000
0001
0200
0000
0000
1300
0000
0100
0000
0001
0020
0000
0000
1030
0000
,  // measure 60
0010
0000
0001
0200
0000
0000
1300
0000
0100
0000
0001
0000
0011
0000
0000
0000
,  // measure 61
1010
0000
0000
0011
0000
0000
0110
0000
0110
0000
1001
0000
2001
0000
0000
0000
,  // measure 62
0000
0000
3010
1100
,  // measure 63
0101
0000
1100
0000
0101
0001
0011
0000
,  // measure 64
1010
0000
0000
0000
0011
0000
0000
0000
0001
0100
0001
0000
0011
0000
0000
0000
,  // measure 65
0101
0000
0011
0000
0101
0100
0110
0000
,  // measure 66
1001
0000
0000
1100
0000
0000
0101
0000
0001
1000
0001
0000
0101
0000
0000
0000
,  // measure 67
1100
0000
0101
0000
1100
1000
1010
0000
,  // measure 68
0011
0000
0000
0000
1010
0000
0000
0001
1000
0000
0100
0000
1100
0000
0000
0000
,  // measure 69
1010
0000
0000
0110
0000
0000
1001
0000
0001
0010
0001
0010
0002
0000
0000
0000
,  // measure 70
0000
0000
0000
2000
,  // measure 71
0000
0000
0000
0000
,  // measure 72
0000
0000
0000
0000
,  // measure 73
0000
0000
0000
0000
,  // measure 74
0000
0000
0000
3003
;

//---------------dance-single - Pilgrimsito----------------
#NOTEDATA:;
#CHARTNAME:Pilgrimsito;
#STEPSTYPE:dance-single;
#DESCRIPTION:Pilgrimsito;
#CHARTSTYLE:;
#DIFFICULTY:Challenge;
#METER:16;
#RADARVALUES:0.671904,0.708598,0.707322,0.619818,0.550544,645.000000,548.000000,97.000000,85.000000,65.000000,0.000000,0.000000,0.000000,0.000000,0.671904,0.708598,0.707322,0.619818,0.550544,645.000000,548.000000,97.000000,85.000000,65.000000,0.000000,0.000000,0.000000,0.000000;
#CREDIT:Pilgrimsito;
#NOTES:
// measure 0
0000
0000
0000
2001
,  // measure 1
0000
0000
3010
0200
0000
0000
0301
0020
0000
0000
0130
1000
0002
0000
0000
0000
,  // measure 2
0000
0000
1003
0020
0000
0000
0031
0020
0000
0000
1030
0001
2000
0000
0000
0000
,  // measure 3
0000
0000
3100
0020
0000
0000
0031
0200
0000
0000
0310
1000
0002
0000
0000
0000
,  // measure 4
0000
0000
1003
0200
0000
0000
0301
0200
0000
0000
1300
0001
0202
0000
0000
0000
,  // measure 5
0000
0000
0000
0303
0010
1000
2200
0000
,  // measure 6
0000
0000
0000
3300
0010
0001
1002
0000
,  // measure 7
0103
0000
0000
0000
2001
0000
0000
0000
3100
0000
0000
0000
1000
0010
1000
0010
,  // measure 8
0100
0001
0100
0001
0010
0100
0010
0100
0010
0000
0000
0000
1001
0000
0000
1000
,  // measure 9
0010
0000
0010
0000
1000
0001
0000
0000
0010
0000
0100
0000
1100
0000
0000
1000
,  // measure 10
0001
0000
0001
0000
0100
0010
0000
0010
1000
0000
0100
0000
0110
0000
0000
0100
,  // measure 11
1000
0000
1000
0000
0001
0100
0000
0000
0010
0000
0100
0000
0101
0000
0000
0001
,  // measure 12
1000
0000
0100
0010
0100
0010
0000
0001
0100
0000
0010
0000
1001
0000
0000
0001
,  // measure 13
0010
0000
0010
0000
0001
1000
0000
0000
0010
0000
0100
0000
0101
0000
0000
0001
,  // measure 14
1000
0000
1000
0000
0100
0010
0000
0010
0001
1000
0001
0000
0101
0000
0000
0011
,  // measure 15
0000
0000
1100
0000
0000
1010
0000
0000
1001
0000
0000
0000
0001
0100
0010
1000
,  // measure 16
0001
0010
0100
0010
0002
0000
0000
0000
2000
0000
3003
0000
0010
0100
0010
0000
,  // measure 17
2002
0000
0000
0000
0000
0000
0000
3003
2002
0000
0000
0000
0000
0000
0000
3003
1001
0000
0000
0000
1000
0000
0001
0000
0200
0000
0300
0000
1000
0000
0200
0000
,  // measure 18
0300
0000
0001
0000
0200
0000
0300
0000
1000
0000
0200
0000
0300
0000
0001
0000
0200
0000
0000
0000
0300
0000
0000
0000
0220
0000
0000
0000
0000
0000
0000
0330
,  // measure 19
0220
0000
0000
0000
0000
0000
0000
0330
0220
0000
0000
0000
0000
0000
0000
0330
0110
0000
0000
0000
0010
0000
1000
0000
0200
0000
0300
0000
0001
0000
0200
0000
,  // measure 20
0300
0000
1000
0000
0200
0000
0300
0000
0010
0000
0000
0000
0001
0000
0000
0000
0200
0000
0000
0000
0300
0000
0000
0000
2002
0000
0000
0000
0000
0000
0000
3003
,  // measure 21
2002
0000
0000
0000
0000
0000
0000
3003
2002
0000
0000
0000
0000
0000
0000
3003
1001
0000
0000
0000
0001
0000
1000
0000
0200
0000
0300
0000
0001
0000
0200
0000
,  // measure 22
0300
1000
0100
0010
0100
1000
0010
0000
1000
0001
1000
0000
2200
3300
0000
2020
,  // measure 23
3030
0000
0202
0303
0000
0022
0033
0000
2002
0000
3003
0000
0201
0000
0000
0000
,  // measure 24
0000
0000
0310
2002
,  // measure 25
0000
0000
0000
3003
,  // measure 26
0000
0000
0000
0000
0000
0000
0000
0000
0000
0000
0000
0000
0000
0000
1000
0100
,  // measure 27
1000
1000
0001
0100
0010
0010
0100
0001
2000
0000
3100
0000
0000
0000
2000
0000
,  // measure 28
3002
0000
1003
0010
0100
0100
0001
0010
2000
0000
3010
0000
0000
0000
0001
1000
,  // measure 29
0010
0010
0100
0001
1000
1000
0100
0001
0200
0000
0310
0000
0000
0000
0001
1000
,  // measure 30
0010
0010
1000
1000
0100
0100
1000
0010
0002
0000
0013
0000
1M00
0000
1000
0000
,  // measure 31
0001
0000
0000
1000
0000
0100
0010
0000
0100
0000
0000
1000
0000
0010
0100
0000
,  // measure 32
0010
0000
0000
1000
0000
0100
0010
0000
0100
0000
1000
0000
0001
0000
0001
0000
,  // measure 33
0100
0000
0000
0010
0000
1000
0100
0000
0010
0000
0001
1000
0001
0000
0000
0010
,  // measure 34
0000
0001
1000
0001
1000
0000
0010
0000
0100
0010
0000
1000
0001
0000
0001
0000
,  // measure 35
1000
0000
0000
0001
0000
0100
0010
0000
0100
0000
0000
0001
0000
0010
0100
0000
,  // measure 36
0010
0000
0000
0001
0000
0100
0010
0000
0100
0000
0001
0000
1000
0100
0010
0100
,  // measure 37
1000
0100
0010
0100
1000
0100
0010
0100
1000
0100
0010
0100
2000
0000
0000
0000
,  // measure 38
0000
3020
0000
0000
1030
0001
1001
1000
,  // measure 39
0100
0000
1000
0001
1000
0000
0010
0000
0100
0000
0001
1000
0001
0000
0010
0000
,  // measure 40
0100
0000
1000
0001
1000
0000
0100
0000
0001
0000
0100
0000
1000
0000
0001
0000
,  // measure 41
1000
0000
0100
0010
0100
0000
1000
0000
0001
0000
0100
0010
0100
0000
0001
0000
,  // measure 42
1000
0000
0100
0010
0100
0000
1000
0000
0010
0000
1000
0000
0100
0000
0100
0000
,  // measure 43
0100
0000
0100
1000
0001
0000
0001
0000
0001
0000
0001
0100
0010
0000
0010
0000
,  // measure 44
0010
0000
0010
1000
0001
0000
0001
0000
0001
0000
0001
1000
0100
0010
0100
1000
,  // measure 45
0010
0100
0001
0010
0100
0010
0001
1000
0002
0000
0000
0000
0103
0000
0000
0000
,  // measure 46
0000
0000
0000
0000
0010
0000
1001
1000
,  // measure 47
1010
0000
1000
0001
0010
0000
0100
0000
0110
0000
0010
0001
1000
0000
0001
0000
,  // measure 48
0101
0000
0100
0010
1000
0000
0001
0000
0011
0000
0001
0000
0101
0000
0100
0000
,  // measure 49
0110
0000
0010
1000
0001
0000
0010
0000
0110
0000
0100
1000
0010
0000
0100
0000
,  // measure 50
0101
0000
0001
0010
0100
0000
1000
0010
0100
0000
0001
0000
1001
0000
1000
0000
,  // measure 51
1100
0000
1000
0001
0100
0000
0010
0000
0110
0000
0100
0001
1000
0000
0001
0000
,  // measure 52
0011
0000
0010
0100
1000
0000
0001
0000
0101
0000
0001
0000
0011
0000
0010
0000
,  // measure 53
0110
0000
0100
1000
0001
0000
0100
0000
0220
0330
0000
0202
0303
0000
0011
0000
,  // measure 54
0022
0033
0000
2001
0000
0000
0000
0000
3010
0000
0100
0000
0101
0000
0001
0000
,  // measure 55
1001
0000
0001
0010
0001
0000
0100
0000
010M
0000
1000
0010
1000
0000
0100
0000
,  // measure 56
M100
0000
0001
0010
0001
0000
0100
0000
010M
0000
1000
0000
1100
0000
1000
0000
,  // measure 57
1001
0000
0001
0100
0001
0000
0010
0000
001M
0000
1000
0100
1000
0000
0010
0000
,  // measure 58
M010
0000
0001
0100
0001
0000
0010
0000
001M
0100
0010
0000
1001
0000
1000
0000
,  // measure 59
1100
0000
1000
0010
1000
0000
0100
0000
M100
0000
0001
0010
0001
0000
0100
0000
,  // measure 60
010M
0000
1000
0010
1000
0000
0100
0000
0110
0000
0110
0000
2002
0000
3003
0000
,  // measure 61
0202
0303
0000
2020
3030
0000
1100
0000
0110
0000
1100
0000
1002
0000
0000
0000
,  // measure 62
0000
0000
0000
0000
0103
0000
1001
MMMM
,  // measure 63
1001
MMMM
1001
MMMM
1001
1000
1100
MMMM
,  // measure 64
1100
0000
MMMM
0000
1100
0000
MMMM
0000
1000
0010
0100
0000
0110
0000
MMMM
0000
,  // measure 65
0110
MMMM
0110
MMMM
0110
0100
0101
0000
,  // measure 66
0011
0000
0000
1001
0000
0000
0101
0000
0001
1000
0100
0000
1001
0000
MMMM
0000
,  // measure 67
1001
MMMM
1001
MMMM
1001
1000
1010
MMMM
,  // measure 68
1010
0000
MMMM
0000
1010
0000
0000
1000
0100
0000
0010
0000
0110
0000
0000
0000
,  // measure 69
1100
0000
0000
1010
0000
0000
0110
0000
0010
1000
0001
1000
0200
0000
0000
0000
,  // measure 70
0000
0000
0000
0020
,  // measure 71
0000
0000
0000
0000
,  // measure 72
0000
0000
0000
0000
,  // measure 73
0000
0000
0000
0000
,  // measure 74
0000
0000
0000
0330
;
