#VERSION:0.83;
#TITLE:LegenD.;
#SUBTITLE:;
#ARTIST:Yooh;
#TITLETRANSLIT:;
#SUBTITLETRANSLIT:;
#ARTISTTRANSLIT:;
#GENRE:Hard Renaissance;
#ORIGIN:;
#CREDIT:;
#BANNER:LegenD.png;
#BACKGROUND:LegenD-bg.png;
#PREVIEWVID:;
#JACKET:LegenD-jacket.png;
#CDIMAGE:;
#DISCIMAGE:;
#LYRICSPATH:;
#CDTITLE:cdtitle.png;
#MUSIC:LegenD.ogg;
#OFFSET:-0.843000;
#SAMPLESTART:61.715000;
#SAMPLELENGTH:18.601000;
#SELECTABLE:YES;
#BPMS:0.000=205.000,
204.000=206.000;
#STOPS:;
#DELAYS:;
#WARPS:;
#TIMESIGNATURES:0.000=4=4;
#TICKCOUNTS:0.000=4;
#COMBOS:0.000=1;
#SPEEDS:0.000=1.000=0.000=0;
#SCROLLS:0.000=1.000;
#FAKES:;
#LABELS:0.000=Song Start;
#BGCHANGES:;
#KEYSOUNDS:;
#ATTACKS:
;

//---------------dance-single - ----------------
#NOTEDATA:;
#CHARTNAME:;
#STEPSTYPE:dance-single;
#DESCRIPTION:;
#CHARTSTYLE:;
#DIFFICULTY:Challenge;
#METER:17;
#RADARVALUES:0.940873,1.020326,0.696223,0.408131,0.620198,823.000000,736.000000,87.000000,51.000000,0.000000,0.000000,0.000000,0.000000,0.000000,0.940873,1.020326,0.696223,0.408131,0.620198,823.000000,736.000000,87.000000,51.000000,0.000000,0.000000,0.000000,0.000000,0.000000;
#CREDIT:;
#OFFSET:-0.843000;
#BPMS:0.000000=205.000000
,204.000000=206.000000
;
#STOPS:;
#DELAYS:;
#WARPS:;
#TIMESIGNATURES:0.000000=4=4
;
#TICKCOUNTS:0.000000=4
;
#COMBOS:0.000000=1
;
#SPEEDS:0.000000=1.000000=0.000000=0
;
#SCROLLS:0.000000=1.000000
,55.750000=0.500000
,64.000000=1.000000
,142.000000=0.500000
,144.000000=1.000000
,175.500000=0.500000
,177.000000=1.000000
,192.000000=0.500000
,200.000000=0.600000
,201.000000=0.700000
,202.000000=0.800000
,203.000000=0.900000
,204.000000=1.000000
,331.750000=0.500000
,335.000000=1.000000
,392.000000=0.000000
,393.000000=1.000000
,394.000000=0.000000
,395.000000=1.000000
,396.000000=0.000000
,397.000000=1.000000
,398.000000=0.000000
,399.000000=1.000000
,400.000000=0.500000
;
#FAKES:;
#LABELS:0.000000=Song Start
;
#NOTES:
// measure 0
0000
0000
0000
0000
,  // measure 1
0000
0000
0000
0000
,  // measure 2
0000
0000
0000
0000
,  // measure 3
0000
0000
0000
0000
0000
0000
1001
0100
,  // measure 4
0000
0000
0000
0000
,  // measure 5
0000
0000
0000
0000
,  // measure 6
0000
0000
0000
0000
,  // measure 7
0001
0000
1000
0000
1000
0000
0001
0000
1000
0010
1000
0000
0001
0010
0001
0010
,  // measure 8
0100
1000
0001
0100
0010
1000
1001
0000
,  // measure 9
0001
0010
0100
0001
0100
0010
0011
0000
,  // measure 10
1000
0010
0100
1000
0100
0010
1010
0000
,  // measure 11
0001
0000
0010
0000
0100
0000
1000
0000
0001
0100
0001
0000
1000
0100
1000
0100
,  // measure 12
0010
0000
0001
0000
0100
0000
0010
1000
0010
0000
1000
0000
0100
0000
0010
0001
,  // measure 13
0010
0000
0001
0000
1000
0000
0010
0000
0100
0001
0100
0001
1000
0100
1000
0200
,  // measure 14
0000
0000
0000
0000
,  // measure 15
0000
0000
0000
0000
,  // measure 16
0310
0000
0001
0000
0100
0000
0001
0000
0010
0000
0001
0010
0001
0000
1000
0000
,  // measure 17
0010
0000
1000
0000
0100
0000
1000
0000
0010
0000
1000
0010
1000
0000
0001
0000
,  // measure 18
0010
0000
0100
0000
1000
0000
0010
0000
0100
0000
0001
1000
0001
0000
1000
0000
,  // measure 19
1100
0000
0101
0000
1100
0000
1000
0010
,  // measure 20
0001
0000
0010
0000
1000
0000
0100
0000
0010
0000
0001
0010
0001
0000
0010
0000
,  // measure 21
1000
0000
0010
0000
0001
0000
0100
0000
0010
0000
1000
0010
1000
0000
0001
0000
,  // measure 22
1000
0100
1100
0000
0001
0100
0101
0000
,  // measure 23
1000
0000
0001
0010
0000
0001
1000
0010
0100
0002
0000
0000
,  // measure 24
0013
0100
0010
0001
0011
1000
1001
0000
,  // measure 25
1010
0001
1001
0000
0001
0010
0100
1000
,  // measure 26
0010
0100
0010
1000
1010
0001
1001
0000
,  // measure 27
0011
0000
1000
0000
1001
0000
0000
0000
0001
0000
0100
0000
0001
0100
0010
1000
,  // measure 28
0001
0010
0100
1000
1100
0001
0011
0000
,  // measure 29
0101
0000
1000
0000
1010
0000
0000
0000
1000
0000
0001
1000
0001
0000
1000
0000
,  // measure 30
0100
0000
0100
0000
0010
0001
0010
0001
1000
0000
1000
0000
0010
1000
0010
1000
,  // measure 31
0001
0000
0001
0000
0010
0000
0010
0000
0100
0000
0100
0000
1000
0001
0100
0010
,  // measure 32
1000
0000
0010
0000
1010
0000
0000
0000
0011
0000
0000
1000
0010
0000
1000
0000
,  // measure 33
0100
0000
0000
0000
1000
0100
1000
0100
0010
0000
0001
0000
0100
0000
0010
0000
,  // measure 34
1000
0000
0001
0000
0011
0000
0000
0000
1100
0000
0000
0001
0100
0000
0001
1000
,  // measure 35
0200
0000
0000
0000
0310
0001
1000
0001
0200
0000
0000
0000
0000
0000
0000
0000
,  // measure 36
0301
0000
0010
0000
0011
0000
0000
0000
1010
0000
0000
0001
0010
0000
0001
0000
,  // measure 37
0100
0000
0100
0000
0001
0100
0001
0100
0020
0000
2030
0000
3200
0000
0302
0000
,  // measure 38
0103
0000
0010
0000
0110
0000
0000
0000
1001
0000
0000
1000
0010
0000
1000
0001
,  // measure 39
0020
0000
0000
0100
0000
0000
0100
0000
0000
0130
0000
0000
0010
0100
1000
0001
,  // measure 40
1000
0000
0010
0000
0110
0000
0010
0000
1010
0000
0000
0001
0100
0000
0001
0000
,  // measure 41
0010
0000
0010
0000
0100
1000
0001
0100
0010
0000
0100
0000
0010
0000
1000
0000
,  // measure 42
0001
0000
0010
0000
0110
0000
0010
0000
0011
0000
0000
1000
0100
0000
1000
0000
,  // measure 43
0010
0000
0010
0000
0100
0000
0100
0000
0001
0000
1000
0000
0100
0010
0002
0000
,  // measure 44
0000
0000
0000
0000
1003
0000
1001
0000
1001
0000
0000
1000
0100
0000
1000
0000
,  // measure 45
0010
0000
0010
0000
0100
0010
1000
0001
0010
0000
0100
0000
1000
0000
0001
0000
,  // measure 46
1001
0000
1010
1000
1010
0000
0011
0001
,  // measure 47
0011
0000
1001
0000
0001
0100
0010
0100
,  // measure 48
2000
0000
0000
0000
,  // measure 49
3200
0000
0302
0000
,  // measure 50
2003
3020
0230
0302
2003
3200
0320
0032
,  // measure 51
2003
0000
3001
0100
0001
0000
1000
0100
1000
0000
0001
0010
0001
0000
1000
0010
,  // measure 52
1000
0100
0010
0100
1100
0000
1000
0001
,  // measure 53
0100
0000
0010
0000
1010
0000
0000
0000
0010
1000
0001
1000
0100
0000
0010
0000
,  // measure 54
1010
0000
0011
0000
1000
0001
0100
0010
,  // measure 55
0011
0000
1010
0000
1000
0010
0100
0001
,  // measure 56
1000
0100
1000
0100
0010
0000
0100
0000
0001
0000
0100
0000
1000
0000
1000
0000
,  // measure 57
0001
0100
0001
0100
0010
0000
0100
0000
1000
0000
0100
0000
0001
0000
1000
0000
,  // measure 58
1002
0000
0000
0010
0000
0000
1003
0001
2000
0000
0000
0010
0000
0000
3001
1000
,  // measure 59
0002
0000
0000
0100
0000
0000
1003
0100
0010
0000
0010
0000
0001
0010
0100
1000
,  // measure 60
0001
0100
0010
0100
0101
0000
0001
1000
,  // measure 61
0100
0000
0010
0000
0011
0000
0000
0000
0010
0001
1000
0001
0100
0000
0010
0000
,  // measure 62
0011
0000
1010
0000
0001
1000
0100
0010
,  // measure 63
1010
0000
0011
0000
0001
0010
0100
1000
,  // measure 64
0001
0100
0010
1000
0001
0000
0100
0000
1000
0000
0100
0000
0001
0000
0001
0000
,  // measure 65
1000
0100
0010
0001
1000
0000
0100
0000
0001
0000
0100
0000
1000
0000
0001
0000
,  // measure 66
2001
0000
0000
3010
0000
0000
1010
0000
1002
0000
0000
0013
0000
0000
0011
0000
,  // measure 67
0101
1100
1010
1001
,  // measure 68
0001
0010
0100
1000
0001
0010
0100
1000
0001
0000
1000
0010
0000
1000
0010
0000
,  // measure 69
0100
0000
0001
0010
0000
0001
0010
0000
0100
0000
1000
0000
0001
0000
0100
0000
,  // measure 70
0010
1000
0001
1000
0100
1000
0001
1000
0010
0000
0100
0001
0000
1000
0100
0000
,  // measure 71
1100
0011
0101
1010
,  // measure 72
1000
0010
0100
0001
1000
0010
0100
0001
1000
0000
0100
0010
0000
0100
0010
0000
,  // measure 73
0012
0000
0000
1003
0000
0000
1001
0000
2010
0000
0000
3001
0000
0000
2001
0000
,  // measure 74
3100
0000
0010
0001
0000
0010
0001
0000
0100
0000
0010
1000
0000
0001
0010
0000
,  // measure 75
0001
1000
0010
0100
0001
0000
1000
0000
0100
0000
0100
0000
0010
0001
1000
0010
,  // measure 76
0200
0000
0000
2300
0000
0000
3200
0000
,  // measure 77
0000
0000
0302
0000
0000
0000
0000
0000
1003
0000
1000
0000
0010
1000
0001
0010
,  // measure 78
0200
0000
0000
0302
0000
0000
0203
0000
,  // measure 79
0000
0000
2300
0000
0000
0000
0000
0000
3001
0000
0010
0000
0100
0000
1000
0001
,  // measure 80
1000
0000
0000
0010
0100
0000
0010
0000
0001
0000
0000
0010
0100
0000
0010
0000
,  // measure 81
1000
0000
0000
0100
0010
0000
0100
0000
0001
0000
0000
0100
0010
0000
0100
1000
,  // measure 82
0001
0000
0100
0000
0010
0000
1000
0000
0010
1000
0010
1000
0001
0010
0001
0020
,  // measure 83
0000
0000
0000
0000
0000
0000
0000
0000
0000
0000
0000
0000
0031
1000
0001
1000
,  // measure 84
0001
0000
1000
1010
0000
0001
0101
0000
,  // measure 85
1000
0000
1100
0000
0000
0000
0001
0010
0001
0000
1000
0010
1000
0000
0001
0000
,  // measure 86
0010
0001
0100
0001
0100
0000
0010
1000
0100
0000
0010
0000
0001
1000
0001
1000
,  // measure 87
0001
0100
0010
0100
0010
0100
1001
0000
,  // measure 88
0001
1000
0001
0010
0100
0000
0001
0000
0100
0000
0010
0000
0001
1000
0001
0000
,  // measure 89
1000
0001
1000
0010
0100
0000
1000
0000
0100
0000
0010
0000
1000
0000
0001
0000
,  // measure 90
1000
0100
0010
0001
1000
0000
0010
0000
2010
0000
0000
3100
0000
0000
0110
0000
,  // measure 91
0012
0000
0000
0103
0000
0000
0110
0000
1000
0000
0010
0000
1000
0000
0001
1000
,  // measure 92
0200
0000
0310
0012
0000
1003
1020
0000
,  // measure 93
0130
0000
0210
0000
0000
0000
0301
1000
0100
0000
1000
0001
0100
0000
0010
0000
,  // measure 94
1000
0001
0100
0001
0010
0000
0022
0000
0033
0000
1000
0000
0001
1000
0100
1000
,  // measure 95
0010
2020
3030
1000
1000
0001
0010
0100
,  // measure 96
1000
0000
0010
1000
0100
0000
0010
0001
0100
0000
0010
1000
0100
0000
0010
0001
,  // measure 97
0100
0000
0010
0000
1000
0000
0001
0000
0010
0100
1000
0001
1000
0010
0100
0001
,  // measure 98
1000
0000
1001
0000
,  // measure 99
0011
0000
1100
0000
,  // measure 100
0202
0000
0000
0000
,  // measure 101
0000
0000
0000
0000
,  // measure 102
0303
0000
0000
0000
;

//---------------dance-single - ----------------
#NOTEDATA:;
#CHARTNAME:;
#STEPSTYPE:dance-single;
#DESCRIPTION:;
#CHARTSTYLE:;
#DIFFICULTY:Hard;
#METER:15;
#RADARVALUES:0.777392,0.938700,0.624200,0.464149,0.236076,680.000000,602.000000,78.000000,58.000000,0.000000,0.000000,0.000000,0.000000,0.000000,0.777392,0.938700,0.624200,0.464149,0.236076,680.000000,602.000000,78.000000,58.000000,0.000000,0.000000,0.000000,0.000000,0.000000;
#CREDIT:;
#OFFSET:-0.843000;
#BPMS:0.000000=205.000000
,204.000000=206.000000
;
#STOPS:;
#DELAYS:;
#WARPS:;
#TIMESIGNATURES:0.000000=4=4
;
#TICKCOUNTS:0.000000=4
;
#COMBOS:0.000000=1
;
#SPEEDS:0.000000=1.000000=0.000000=0
;
#SCROLLS:0.000000=1.000000
,56.000000=0.500000
,64.000000=1.000000
,142.000000=0.500000
,144.000000=1.000000
,175.500000=0.500000
,177.000000=1.000000
,192.000000=0.500000
,200.000000=0.600000
,201.000000=0.700000
,202.000000=0.800000
,203.000000=0.900000
,204.000000=1.000000
,332.000000=0.500000
,335.000000=1.000000
,392.000000=0.000000
,393.000000=1.000000
,394.000000=0.000000
,395.000000=1.000000
,396.000000=0.000000
,397.000000=1.000000
,398.000000=0.000000
,399.000000=1.000000
,400.000000=0.500000
;
#FAKES:;
#LABELS:0.000000=Song Start
;
#NOTES:
// measure 0
0000
0000
0000
0000
,  // measure 1
0000
0000
0000
0000
,  // measure 2
0000
0000
0000
0000
,  // measure 3
0000
0000
0000
0000
0000
0000
1000
0001
,  // measure 4
0000
0000
0000
0000
,  // measure 5
0000
0000
0000
0000
,  // measure 6
0000
0000
0000
0000
,  // measure 7
0001
1000
1000
0000
0001
1000
0100
0010
,  // measure 8
0001
0000
1000
0010
0100
0010
1000
0000
,  // measure 9
1001
0000
0001
0010
0100
0010
0001
0000
,  // measure 10
0011
0000
0010
0001
0100
0010
1000
0000
,  // measure 11
1010
0000
0010
1000
0100
0010
0001
1000
,  // measure 12
0001
0100
0101
0000
1000
0100
1100
0000
,  // measure 13
0001
0100
0001
0100
1000
0100
0001
1000
,  // measure 14
0200
0000
0000
0000
,  // measure 15
0000
0000
0000
0000
,  // measure 16
0310
0001
1000
0001
0010
0001
1000
0000
,  // measure 17
0010
1000
0001
1000
0010
1000
0001
0000
,  // measure 18
1000
0100
0010
0001
0100
0010
1000
0000
,  // measure 19
1010
0000
1001
0000
1100
0000
0001
0010
,  // measure 20
0100
0010
0001
0000
1000
0010
0100
0010
,  // measure 21
1000
0000
0001
0010
0001
1000
0010
1000
,  // measure 22
0100
0010
0110
0000
0001
1000
1001
0000
,  // measure 23
0002
0000
0000
2003
0000
0000
3001
0100
0010
1000
0000
0000
,  // measure 24
0001
1000
0001
0010
1000
0000
1010
0000
,  // measure 25
0110
0000
0011
0000
1000
0100
0001
0100
,  // measure 26
1000
0001
1000
0010
0001
0000
0011
0000
,  // measure 27
0110
0000
1010
0000
0001
0100
1000
0100
,  // measure 28
0001
1000
0100
0010
0011
0000
1100
0000
,  // measure 29
1010
0000
0101
0000
0001
1000
0100
0010
,  // measure 30
0001
0001
0011
0000
1000
1000
1010
0000
,  // measure 31
0001
0001
0010
0010
0100
0100
1000
1000
,  // measure 32
0001
0000
0100
0000
0010
0000
0100
0000
1000
0000
0000
0100
0010
0000
0100
0000
,  // measure 33
0001
0000
0101
0000
1000
0010
0100
0001
,  // measure 34
1000
0000
0100
0000
0010
0000
0100
0000
0001
0000
0000
0100
0010
0000
0100
0000
,  // measure 35
2000
0001
0020
3030
,  // measure 36
1000
0000
0010
0000
0100
0000
0010
0000
0001
0000
0000
0010
0100
0000
0010
0000
,  // measure 37
1000
1000
0001
0100
0020
2030
3200
0320
,  // measure 38
0031
0000
0010
0000
0100
0000
0010
0000
1000
0000
0000
0010
0100
0000
0010
0000
,  // measure 39
0002
0000
0000
0203
0000
0000
0320
0000
0000
2030
0000
0000
3001
1000
0001
0000
,  // measure 40
1000
0000
0100
0000
0010
0000
0001
0000
0011
0000
0000
0001
0010
0000
0001
0000
,  // measure 41
0101
0000
0011
0000
0001
0010
0100
1000
,  // measure 42
0001
0000
0100
0000
0010
0000
1000
0000
1010
0000
0000
1000
0010
0000
1000
0000
,  // measure 43
1100
0000
1010
0000
0001
0100
1000
0200
,  // measure 44
0000
0000
0000
0000
0301
0000
1000
0000
1001
0000
0000
0001
0010
0000
0100
0000
,  // measure 45
1100
0000
0011
0000
1000
0010
0100
0001
,  // measure 46
1001
0000
0001
0010
0011
0000
1000
0010
,  // measure 47
1010
0000
0001
0010
1000
0010
0001
0100
,  // measure 48
2000
0000
0000
0000
,  // measure 49
3200
0000
0000
0000
,  // measure 50
0302
2003
3002
2003
,  // measure 51
3002
0000
0023
0000
0230
0000
2300
0000
3020
0000
0230
0000
0301
0000
1000
0001
,  // measure 52
2000
0000
3200
0000
0302
0000
0103
0010
,  // measure 53
0011
0000
0000
0000
1100
0000
0000
0000
0001
1000
0001
0000
0100
0000
0010
0000
,  // measure 54
1010
0000
0101
0000
0001
0010
0100
0010
,  // measure 55
1010
0000
0011
0000
0001
1000
0010
0100
,  // measure 56
0001
1000
0001
0000
0010
0000
0100
0000
0001
0000
0100
0000
0010
0000
0001
0000
,  // measure 57
1000
0001
1000
0000
0010
0000
0100
0000
1000
0000
0100
0000
0010
0000
1000
0000
,  // measure 58
2000
0000
0000
0100
0000
0000
0001
0000
3002
0000
0000
0010
0000
0000
1000
0000
,  // measure 59
2003
0000
0000
0100
0000
0000
3001
0000
0100
0000
0010
0000
1000
0000
0001
1000
,  // measure 60
0002
0000
0203
0000
2300
0000
3100
0010
,  // measure 61
1010
0000
0000
0000
0101
0000
0000
0000
1000
0001
1000
0000
0100
0000
0010
0000
,  // measure 62
0011
0000
1100
0000
1000
0010
0100
0010
,  // measure 63
0011
0000
1010
0000
0001
0010
0100
1000
,  // measure 64
0001
1000
0001
0000
0100
0000
0010
0000
0001
0000
0010
0000
0100
0000
0001
0000
,  // measure 65
1000
0001
1000
0000
0100
0000
0010
0000
1000
0000
0010
0000
0100
0000
1000
0000
,  // measure 66
1002
0000
0000
0103
0000
0000
1001
0000
2001
0000
0000
3100
0000
0000
1001
0000
,  // measure 67
1001
0101
0110
1010
,  // measure 68
0001
0010
0001
0000
0010
0000
0100
0000
0001
0000
0000
0101
0000
0000
0100
0000
,  // measure 69
0010
0000
0000
0011
0000
0000
1000
0000
0100
0000
0010
0000
0001
0000
1000
0000
,  // measure 70
0001
0100
0001
0000
1000
0100
1000
0000
0001
0000
0000
0100
0000
0000
0010
0000
,  // measure 71
1010
0101
0011
1100
,  // measure 72
1000
0010
1000
0000
0010
0000
0100
0000
1000
0000
0000
1100
0000
0000
0100
0000
,  // measure 73
0010
0000
0000
1010
0000
0000
0001
0000
1000
0000
0000
1001
0000
0000
0001
0000
,  // measure 74
0002
0000
0000
0010
0000
0000
1003
0000
2000
0000
0000
0010
0000
0000
3001
0000
,  // measure 75
1000
0001
1000
0000
0100
0000
0010
0000
0001
0000
0100
0000
0010
0000
1000
0000
,  // measure 76
2010
0000
0000
0001
0000
0000
0010
0000
,  // measure 77
0000
3100
0000
0000
1000
0100
0010
0001
,  // measure 78
0012
0000
0000
1000
0000
0000
0010
0000
,  // measure 79
0000
0103
0000
0000
0001
0100
0010
1000
,  // measure 80
0001
0000
0000
0001
0010
0000
0001
0000
1000
0000
0000
1000
0010
0000
1000
0000
,  // measure 81
0100
0000
0000
0100
0010
0000
0001
0000
0100
0000
0000
0100
0010
0000
1000
0000
,  // measure 82
0001
0010
0001
0010
1000
0010
0001
1000
,  // measure 83
0020
0000
0000
0000
0000
0000
0000
0000
0000
0000
0000
0000
0130
0010
0100
0010
,  // measure 84
0200
0000
0301
0002
0000
1003
2000
0000
,  // measure 85
3100
0000
0200
0000
0000
0000
0310
0100
0010
0000
0001
0000
1000
0000
0010
0000
,  // measure 86
0100
0010
0100
0000
0001
0000
1000
0000
0100
0000
0001
0000
1000
0000
0010
0000
,  // measure 87
0001
1000
0001
1000
0010
0100
0001
0000
,  // measure 88
1000
0010
1000
0000
0010
0000
0001
0000
1000
0000
0100
0000
0001
0000
1000
0000
,  // measure 89
0001
0010
0001
0000
0010
0000
1000
0000
0001
0000
0100
0000
1000
0000
0001
0000
,  // measure 90
1000
0001
1000
0000
0010
0000
0100
0000
0102
0000
0000
1003
0000
0000
1000
0000
,  // measure 91
2100
0000
0000
3001
0000
0000
0001
0000
1000
0000
0010
0000
0100
0000
0001
0000
,  // measure 92
1002
0000
0013
0012
0000
1003
2001
0000
,  // measure 93
3010
2010
0000
3001
0010
0100
1000
0001
,  // measure 94
1000
0010
1000
0000
0010
0000
0220
0000
0330
0000
1000
0000
0001
0010
0001
0000
,  // measure 95
0010
0220
0330
0001
1000
0010
0100
0001
,  // measure 96
1000
0000
0100
1000
0100
0000
0010
0100
0010
0000
0001
0010
0001
0000
1000
0010
,  // measure 97
1000
0000
0010
0000
0100
0000
0001
0000
0010
0000
0100
0000
1000
0001
1000
0001
,  // measure 98
1000
0000
1001
0000
,  // measure 99
1010
0000
0101
0000
,  // measure 100
2200
0000
0000
0000
,  // measure 101
0000
0000
0000
0000
,  // measure 102
3300
0000
0000
0000
;

//---------------dance-single - ----------------
#NOTEDATA:;
#CHARTNAME:;
#STEPSTYPE:dance-single;
#DESCRIPTION:;
#CHARTSTYLE:;
#DIFFICULTY:Medium;
#METER:13;
#RADARVALUES:0.584187,0.693822,0.408131,0.520166,0.000000,511.000000,460.000000,51.000000,65.000000,0.000000,0.000000,0.000000,0.000000,0.000000,0.584187,0.693822,0.408131,0.520166,0.000000,511.000000,460.000000,51.000000,65.000000,0.000000,0.000000,0.000000,0.000000,0.000000;
#CREDIT:;
#OFFSET:-0.843000;
#BPMS:0.000000=205.000000
,204.000000=206.000000
;
#STOPS:;
#DELAYS:;
#WARPS:;
#TIMESIGNATURES:0.000000=4=4
;
#TICKCOUNTS:0.000000=4
;
#COMBOS:0.000000=1
;
#SPEEDS:0.000000=1.000000=0.000000=0
;
#SCROLLS:0.000000=1.000000
,56.000000=0.500000
,64.000000=1.000000
,142.000000=0.500000
,144.000000=1.000000
,175.500000=0.500000
,177.000000=1.000000
,192.000000=0.500000
,200.000000=0.600000
,201.000000=0.700000
,202.000000=0.800000
,203.000000=0.900000
,204.000000=1.000000
,332.000000=0.500000
,335.000000=1.000000
,392.000000=0.000000
,393.000000=1.000000
,394.000000=0.000000
,395.000000=1.000000
,396.000000=0.000000
,397.000000=1.000000
,398.000000=0.000000
,399.000000=1.000000
,400.000000=0.500000
;
#FAKES:;
#LABELS:0.000000=Song Start
;
#NOTES:
// measure 0
0000
0000
0000
0000
,  // measure 1
0000
0000
0000
0000
,  // measure 2
0000
0000
0000
0000
,  // measure 3
0000
0000
0000
0000
0000
0000
0001
1000
,  // measure 4
0000
0000
0000
0000
,  // measure 5
0000
0000
0000
0000
,  // measure 6
0000
0000
0000
0000
,  // measure 7
0000
1000
0001
0000
1000
0100
0010
0000
,  // measure 8
0001
0000
1000
0010
0000
1000
0010
0000
,  // measure 9
0100
0000
0001
0010
0000
0001
0010
0000
,  // measure 10
0100
0000
1000
0001
0000
0100
0010
0000
,  // measure 11
0100
0000
0001
1000
0000
0100
0010
0000
,  // measure 12
0001
0010
0001
0000
1000
0010
1000
0000
,  // measure 13
0001
0010
0001
0010
0200
0000
2300
0000
,  // measure 14
3002
0000
0000
0000
,  // measure 15
0000
0000
0000
0000
,  // measure 16
1003
1000
1000
1010
,  // measure 17
0001
0001
0001
0011
,  // measure 18
1000
1000
1000
1100
,  // measure 19
0001
0000
0100
0000
0010
0000
1000
0001
,  // measure 20
0010
0001
0010
0000
0001
0000
0001
1000
,  // measure 21
0010
1000
0010
0000
1000
0001
0010
0000
,  // measure 22
0100
0100
0000
0000
0100
0100
0000
0000
,  // measure 23
0011
1100
0002
2003
,  // measure 24
3001
0100
0001
0100
0020
0000
1000
0000
,  // measure 25
0100
0000
0130
0000
0010
0100
0001
0000
,  // measure 26
1000
0100
1000
0100
0020
0000
0001
0000
,  // measure 27
0100
0000
0130
0000
0010
0100
1000
0000
,  // measure 28
0001
0100
0010
1000
0001
0000
0101
0000
,  // measure 29
1000
0000
1100
0000
1000
0100
0010
0001
,  // measure 30
1000
1000
0000
0000
0001
0001
0000
0000
,  // measure 31
2000
3020
0230
0302
,  // measure 32
1003
0000
0100
0000
0100
0000
1000
0100
,  // measure 33
0001
0000
1100
0000
0001
0010
0100
1000
,  // measure 34
0001
0000
0100
0000
0100
0000
0001
0100
,  // measure 35
2000
3200
0301
0000
,  // measure 36
0001
0000
0010
0000
0010
0000
0001
0010
,  // measure 37
1000
0011
2000
3002
,  // measure 38
1003
0000
0010
0000
0010
0000
1000
0010
,  // measure 39
0002
0000
0000
0023
0000
0000
1030
0000
,  // measure 40
0010
0000
1010
0000
1001
0000
0001
1000
,  // measure 41
0010
1000
0100
0000
0010
0100
0010
0000
,  // measure 42
0001
0000
0011
0000
1001
0000
1000
0001
,  // measure 43
0010
0001
0100
0000
0020
0000
2030
0000
,  // measure 44
0000
0000
3001
1000
0100
0000
1000
0001
,  // measure 45
0100
0000
1001
0000
0001
0010
0001
0010
,  // measure 46
0100
0100
1000
1000
,  // measure 47
0001
0000
0100
0000
0010
1000
0001
0010
,  // measure 48
0200
0000
0000
0000
,  // measure 49
0320
0000
0000
0000
,  // measure 50
0032
0000
2003
0000
,  // measure 51
3002
0000
2003
0000
3002
0000
1003
0001
,  // measure 52
2000
0000
3200
0000
0320
0000
0031
0100
,  // measure 53
0010
0000
1010
0000
0001
1000
0001
0010
,  // measure 54
0100
0000
1100
0000
0001
0100
0010
0100
,  // measure 55
1000
1100
0110
0101
,  // measure 56
1000
0010
0100
0010
2000
0010
0010
0000
,  // measure 57
3001
0010
0100
0010
0002
0010
0010
0000
,  // measure 58
1003
1100
0001
0101
,  // measure 59
1000
0000
1100
0000
0001
0010
0100
1000
,  // measure 60
0002
0000
0203
0000
0320
0000
1030
0100
,  // measure 61
0010
0000
0011
0000
1000
0001
1000
0010
,  // measure 62
0100
0000
0101
0000
1000
0100
0010
0100
,  // measure 63
0001
0101
0110
1100
,  // measure 64
0001
0100
0010
1000
0002
0100
0100
0000
,  // measure 65
1003
0100
0010
0001
2000
0100
0100
0000
,  // measure 66
3001
0011
1000
1010
,  // measure 67
0002
0023
0230
2300
,  // measure 68
3010
1000
0100
0010
0200
0000
0001
0000
,  // measure 69
0320
0000
1000
0000
0130
0010
0001
1000
,  // measure 70
0001
0100
0010
1000
0002
0000
0103
0000
,  // measure 71
0101
1010
1100
0011
,  // measure 72
0010
0001
0100
0010
0200
0000
1000
0000
,  // measure 73
0320
0000
0001
0000
0230
0000
0310
1000
,  // measure 74
0100
0011
0100
1010
,  // measure 75
0001
0010
0100
1000
0010
0100
0001
0000
,  // measure 76
1002
0000
0000
0010
0000
0000
1000
0000
,  // measure 77
0000
0100
0000
0000
0103
0001
0010
0000
,  // measure 78
2001
0000
0000
0010
0000
0000
0001
0000
,  // measure 79
0000
0100
0000
0000
3100
1000
0010
0000
,  // measure 80
2000
0010
3002
0010
,  // measure 81
2003
0100
3002
0100
,  // measure 82
1003
0100
1000
0100
0010
0001
1000
0010
,  // measure 83
0200
0000
0000
0000
0000
0000
0310
0100
,  // measure 84
0020
0000
2030
0000
3002
0000
1003
0100
,  // measure 85
0010
0000
0011
0000
1000
0010
0001
0010
,  // measure 86
2000
0000
0100
0000
3001
0010
1000
0010
,  // measure 87
0001
0011
1001
0101
,  // measure 88
1000
0010
0100
0010
2000
0100
0100
0000
,  // measure 89
3001
0010
0100
0010
0002
0100
0100
0000
,  // measure 90
1003
0100
0001
0100
2000
0000
0001
0000
,  // measure 91
3020
0000
0100
0000
1030
0010
0100
0001
,  // measure 92
1002
0000
0010
0010
0000
1000
2003
0000
,  // measure 93
0010
0010
0000
0001
3001
1000
0001
0000
,  // measure 94
1000
0100
0010
0011
0000
1000
0001
0100
,  // measure 95
0010
1010
0000
0001
0010
0100
1000
0001
,  // measure 96
0100
0101
0110
1010
,  // measure 97
0001
0010
0100
1000
0010
0100
0001
1000
,  // measure 98
0100
0000
0011
0000
,  // measure 99
1001
0000
1010
0000
,  // measure 100
0202
0000
0000
0000
,  // measure 101
0000
0000
0000
0000
,  // measure 102
0303
0000
0000
0000
;

//---------------dance-single - ----------------
#NOTEDATA:;
#CHARTNAME:;
#STEPSTYPE:dance-single;
#DESCRIPTION:;
#CHARTSTYLE:;
#DIFFICULTY:Easy;
#METER:9;
#RADARVALUES:0.429852,0.571383,0.184059,0.384123,0.000000,376.000000,353.000000,23.000000,48.000000,0.000000,0.000000,0.000000,0.000000,0.000000,0.429852,0.571383,0.184059,0.384123,0.000000,376.000000,353.000000,23.000000,48.000000,0.000000,0.000000,0.000000,0.000000,0.000000;
#CREDIT:;
#OFFSET:-0.843000;
#BPMS:0.000000=205.000000
,204.000000=206.000000
;
#STOPS:;
#DELAYS:;
#WARPS:;
#TIMESIGNATURES:0.000000=4=4
;
#TICKCOUNTS:0.000000=4
;
#COMBOS:0.000000=1
;
#SPEEDS:0.000000=1.000000=0.000000=0
;
#SCROLLS:0.000000=1.000000
,56.000000=0.500000
,64.000000=1.000000
,142.000000=0.500000
,144.000000=1.000000
,175.000000=0.500000
,177.000000=1.000000
,192.000000=0.500000
,200.000000=0.600000
,201.000000=0.700000
,202.000000=0.800000
,203.000000=0.900000
,204.000000=1.000000
,332.000000=0.500000
,336.000000=1.000000
,392.000000=0.000000
,393.000000=1.000000
,394.000000=0.000000
,395.000000=1.000000
,396.000000=0.000000
,397.000000=1.000000
,398.000000=0.000000
,399.000000=1.000000
,400.000000=0.500000
;
#FAKES:;
#LABELS:0.000000=Song Start
;
#NOTES:
// measure 0
0000
0000
0000
0000
,  // measure 1
0000
0000
0000
0000
,  // measure 2
0000
0000
0000
0000
,  // measure 3
0000
0000
0000
0010
,  // measure 4
0000
0000
0000
0000
,  // measure 5
0000
0000
0000
0000
,  // measure 6
0000
0000
0000
0000
,  // measure 7
0000
0001
1000
1000
,  // measure 8
0001
0100
0001
0000
,  // measure 9
1000
0100
1000
0000
,  // measure 10
0001
0100
0010
0000
,  // measure 11
1000
0100
0010
0000
,  // measure 12
0001
1000
0001
1000
,  // measure 13
0010
0100
0001
1000
,  // measure 14
0200
0000
0000
0000
,  // measure 15
0300
0000
0000
0000
,  // measure 16
1000
1000
0100
1000
,  // measure 17
0001
0001
0100
0001
,  // measure 18
1000
1000
0010
1000
,  // measure 19
0001
0010
0001
0010
,  // measure 20
0100
0100
1000
0001
,  // measure 21
0100
0100
0010
1000
,  // measure 22
1001
0000
1001
0000
,  // measure 23
1000
0100
0010
0001
,  // measure 24
1000
0010
0001
0010
,  // measure 25
1000
0001
1000
1000
,  // measure 26
0001
0010
1000
0010
,  // measure 27
0001
1000
0001
0001
,  // measure 28
0100
1000
0100
0001
,  // measure 29
1000
0100
0001
0100
,  // measure 30
1001
0000
1001
0000
,  // measure 31
0001
0100
0010
1000
,  // measure 32
0001
0010
0100
0010
,  // measure 33
0001
0100
0220
0330
,  // measure 34
0001
0100
0010
1000
,  // measure 35
0002
0010
1003
0000
,  // measure 36
1000
0010
0100
0010
,  // measure 37
1000
0100
0220
0330
,  // measure 38
1000
0100
0010
0001
,  // measure 39
2000
0000
0000
3002
0000
0000
1003
0000
,  // measure 40
0001
0100
1000
0100
,  // measure 41
0010
0000
1000
0000
0001
1000
0001
0000
,  // measure 42
1000
0100
0001
0100
,  // measure 43
0010
0000
0001
0000
1000
0001
1000
0000
,  // measure 44
0000
1000
0010
0001
,  // measure 45
0010
0000
0100
0000
0001
1000
0001
0000
,  // measure 46
0010
0010
0100
0100
,  // measure 47
1000
0000
1000
0000
0001
0000
0100
0010
,  // measure 48
2000
0000
0000
0000
,  // measure 49
3002
0000
0000
0000
,  // measure 50
2003
0000
3002
0000
,  // measure 51
2003
0000
0000
0000
3002
0000
1003
0001
,  // measure 52
1000
0000
0100
0000
0010
0000
0001
0010
,  // measure 53
0001
0000
1000
0000
0001
0100
0010
0000
,  // measure 54
0100
0000
0100
0000
0010
0100
0001
0000
,  // measure 55
1000
0100
0010
0001
,  // measure 56
1000
0010
1000
0000
1010
0000
0000
0000
,  // measure 57
0001
0010
0001
0000
0011
0000
0000
0000
,  // measure 58
0002
0100
2003
0100
,  // measure 59
3002
0000
0100
0000
1003
0001
1000
0000
,  // measure 60
0001
0000
0100
0000
0010
0000
1000
0010
,  // measure 61
1000
0000
0001
0000
1000
0100
0010
0000
,  // measure 62
0100
0000
0100
0000
0010
0100
1000
0000
,  // measure 63
0001
0100
0010
1000
,  // measure 64
0001
0010
0001
0000
0011
0000
0000
0000
,  // measure 65
1000
0010
1000
0000
1010
0000
0000
0000
,  // measure 66
0002
0010
2003
0010
,  // measure 67
3001
0100
0010
1000
,  // measure 68
0001
0010
0100
0000
0010
0000
1000
0000
,  // measure 69
0010
0000
0100
0000
0010
0001
0010
0000
,  // measure 70
0001
0100
0010
0000
0100
0000
0001
0000
,  // measure 71
2000
3200
0320
0032
,  // measure 72
1003
0010
0100
0000
0010
0000
0001
0000
,  // measure 73
0010
0000
0100
0000
0010
1000
0010
0000
,  // measure 74
2000
3200
0320
0032
,  // measure 75
0103
0010
1000
0000
0001
0000
1000
0000
,  // measure 76
0200
0000
0000
0320
0000
0000
0230
0000
,  // measure 77
0000
1300
0000
0000
1001
0000
0001
0000
,  // measure 78
0200
0000
0000
0320
0000
0000
0230
0000
,  // measure 79
0000
0301
0000
0000
1001
0000
1000
0000
,  // measure 80
0100
0100
0010
0010
,  // measure 81
0001
0001
1000
1000
,  // measure 82
0010
0000
0100
0000
0010
0000
0100
0010
,  // measure 83
0200
0000
0000
0000
,  // measure 84
0301
0000
0100
0000
0010
0000
0100
0001
,  // measure 85
0010
0000
0011
0000
0100
0000
0100
1000
,  // measure 86
0010
1010
0001
0010
,  // measure 87
0100
1000
0001
0100
,  // measure 88
0010
0100
0001
0000
2001
0000
3100
0000
,  // measure 89
0010
0100
1000
0000
1002
0000
0103
0000
,  // measure 90
0220
0330
1000
0010
,  // measure 91
0100
0001
1000
0100
,  // measure 92
0012
0000
0000
2003
0000
0000
3020
0000
,  // measure 93
0000
0230
0000
0000
0301
0000
0100
0000
,  // measure 94
2010
0000
0000
3002
0000
0000
0023
0000
,  // measure 95
0000
0230
0000
0000
1300
0000
0100
0000
,  // measure 96
0010
0001
1000
0010
,  // measure 97
0100
0000
0001
0000
1000
0001
1000
0001
,  // measure 98
1000
0000
1100
0000
,  // measure 99
0011
0000
1010
0000
,  // measure 100
0202
0000
0000
0000
,  // measure 101
0000
0000
0000
0000
,  // measure 102
0303
0000
0000
0000
;

//---------------dance-single - ----------------
#NOTEDATA:;
#CHARTNAME:;
#STEPSTYPE:dance-single;
#DESCRIPTION:;
#CHARTSTYLE:;
#DIFFICULTY:Beginner;
#METER:6;
#RADARVALUES:0.246936,0.367318,0.096031,0.184059,0.000000,216.000000,204.000000,12.000000,23.000000,0.000000,0.000000,0.000000,0.000000,0.000000,0.246936,0.367318,0.096031,0.184059,0.000000,216.000000,204.000000,12.000000,23.000000,0.000000,0.000000,0.000000,0.000000,0.000000;
#CREDIT:;
#OFFSET:-0.843000;
#BPMS:0.000000=205.000000
,204.000000=206.000000
;
#STOPS:;
#DELAYS:;
#WARPS:;
#TIMESIGNATURES:0.000000=4=4
;
#TICKCOUNTS:0.000000=4
;
#COMBOS:0.000000=1
;
#SPEEDS:0.000000=1.000000=0.000000=0
;
#SCROLLS:0.000000=1.004878
,204.000000=1.000000
;
#FAKES:;
#LABELS:0.000000=Song Start
;
#NOTES:
// measure 0
0000
0000
0000
0000
,  // measure 1
0000
0000
0000
0000
,  // measure 2
0000
0000
0000
0000
,  // measure 3
0000
0000
0000
0010
,  // measure 4
0000
0000
0000
0000
,  // measure 5
0000
0000
0000
0000
,  // measure 6
0000
0000
0000
0000
,  // measure 7
0000
0010
0010
0000
,  // measure 8
0002
0000
0003
0000
,  // measure 9
0200
0000
0300
0000
,  // measure 10
0020
0000
0030
0000
,  // measure 11
2000
0000
3000
0000
,  // measure 12
0001
0000
1000
0000
,  // measure 13
0001
0000
1000
0000
,  // measure 14
0200
0000
0000
0000
,  // measure 15
0300
0000
0000
0000
,  // measure 16
1000
0000
1000
0000
,  // measure 17
0010
0000
0010
0000
,  // measure 18
0100
0000
0100
0000
,  // measure 19
0001
0000
1000
0000
,  // measure 20
0001
0000
0010
0000
,  // measure 21
0100
0000
1000
0000
,  // measure 22
0001
0000
0001
0000
,  // measure 23
2002
0000
3003
0000
,  // measure 24
0001
0001
0001
0000
,  // measure 25
0010
0000
0001
0000
,  // measure 26
1000
1000
1000
0000
,  // measure 27
0010
0000
1000
0000
,  // measure 28
0100
0100
0100
0000
,  // measure 29
0010
0000
0001
0000
,  // measure 30
1000
0000
1000
0000
,  // measure 31
2002
0000
3003
0000
,  // measure 32
0001
0001
0001
0000
,  // measure 33
0100
0000
0010
0000
,  // measure 34
1000
1000
1000
0000
,  // measure 35
0002
0000
0003
0000
,  // measure 36
1000
1000
1000
0000
,  // measure 37
0100
0000
0010
0000
,  // measure 38
0001
0001
0001
0000
,  // measure 39
2000
0000
3000
0000
,  // measure 40
0001
1000
0001
0000
,  // measure 41
0100
0000
0010
0000
,  // measure 42
1000
0001
1000
0000
,  // measure 43
0100
0000
0010
0001
,  // measure 44
0000
0001
0001
0000
,  // measure 45
1000
0000
0010
0000
,  // measure 46
0100
0100
0100
0000
,  // measure 47
0010
0010
0010
0000
,  // measure 48
2000
0000
0000
0000
,  // measure 49
3000
0000
0000
0000
,  // measure 50
0002
0000
0000
0000
,  // measure 51
0003
0000
0000
0000
,  // measure 52
1000
0100
0010
0000
,  // measure 53
0100
0000
0010
0100
,  // measure 54
1000
0000
0100
1000
,  // measure 55
0010
0000
1000
0000
,  // measure 56
0010
0000
1001
0000
,  // measure 57
0010
0000
1001
0000
,  // measure 58
0001
0000
0001
0000
,  // measure 59
1000
0100
0010
0000
,  // measure 60
0001
0100
0010
0000
,  // measure 61
0100
0000
0010
0100
,  // measure 62
0001
0000
0100
0001
,  // measure 63
0010
0000
0001
0000
,  // measure 64
0010
0000
1001
0000
,  // measure 65
0010
0000
1001
0000
,  // measure 66
1000
0000
1000
0000
,  // measure 67
0001
0100
0010
0000
,  // measure 68
1000
1000
1000
0000
,  // measure 69
0010
1000
0100
0000
,  // measure 70
1000
1000
1000
0000
,  // measure 71
0110
0000
1001
0000
,  // measure 72
0001
0001
0001
0000
,  // measure 73
0010
0001
0100
0000
,  // measure 74
0001
0001
0001
0000
,  // measure 75
1000
0001
1000
0000
,  // measure 76
0200
0000
0000
0300
0000
0000
0020
0000
,  // measure 77
0000
0030
0000
0000
0001
0000
0001
0000
,  // measure 78
0200
0000
0000
0300
0000
0000
0020
0000
,  // measure 79
0000
0030
0000
0000
1000
0000
1000
0000
,  // measure 80
0001
0000
0010
0000
,  // measure 81
0100
0000
1000
0000
,  // measure 82
0002
0000
0000
0000
,  // measure 83
0003
0000
0000
0000
,  // measure 84
0010
0010
0010
0000
,  // measure 85
1001
0000
1000
0100
,  // measure 86
0010
0000
0001
0100
,  // measure 87
0010
0000
1001
0000
,  // measure 88
1000
0100
1000
0000
,  // measure 89
0001
0100
0001
0000
,  // measure 90
0110
0000
1001
0000
,  // measure 91
1000
0001
1000
0001
,  // measure 92
2000
0000
0000
3000
0000
0000
0200
0000
,  // measure 93
0000
0300
0000
0000
0010
0000
0010
0000
,  // measure 94
0002
0000
0000
0003
0000
0000
0200
0000
,  // measure 95
0000
0300
0000
0000
0010
0000
0010
0000
,  // measure 96
1000
0000
0001
0000
,  // measure 97
0010
0100
0010
0100
,  // measure 98
0010
0000
0001
0000
,  // measure 99
0100
0000
1000
0000
,  // measure 100
0020
0000
0000
0000
,  // measure 101
0000
0000
0000
0000
,  // measure 102
0030
0000
0000
0000
;
