#VERSION:0.83;
#TITLE:La La La (Hot Girls);
#SUBTITLE:;
#ARTIST:Da Zoo;
#TITLETRANSLIT:;
#SUBTITLETRANSLIT:;
#ARTISTTRANSLIT:;
#GENRE:;
#CREDIT:;
#MUSIC:La La La (Hot Girls).ogg;
#BANNER:La La La (Hot Girls).png;
#BACKGROUND:La La La (Hot Girls)-bg.png;
#CDTITLE:cdtitle.png;
#SAMPLESTART:5.740;
#SAMPLELENGTH:15.118;
#SELECTABLE:YES;
#OFFSET:-0.144;
#BPMS:0.000=127.000;
#STOPS:;
#SPEEDS:0.000=1.000=0.000=0;
#SCROLLS:0.000=1.000,
194.500=0.500,
195.000=0.250,
195.500=0.500,
196.000=1.000
;
#TICKCOUNTS:0.000=4;
#TIMESIGNATURES:0.000=4=4;
#LABELS:0.000=Song Start;
#COMBOS:0.000=1;
#DISPLAYBPM:127.000;
#ORIGIN:;
#PREVIEWVID:;
#JACKET:La La La (Hot Girls)-jacket.png;
#CDIMAGE:;
#DISCIMAGE:;
#LASTSECONDHINT:130.537003;
#BGCHANGES:;
#FGCHANGES:;

//--------------- dance-single - Pilgrimsito ----------------
#NOTEDATA:;
#STEPSTYPE:dance-single;
#DESCRIPTION:Pilgrimsito;
#DIFFICULTY:Medium;
#METER:12;
#RADARVALUES:0.458609,0.499927,0.199205,0.306469,0.137911,419,393,26,40,0,0,0,0,0,0.458609,0.499927,0.199205,0.306469,0.137911,419,393,26,40,0,0,0,0,0;
#DISPLAYBPM:127.000;
#CHARTNAME:Pilgrimsito;
#CHARTSTYLE:;
#CREDIT:Pilgrimsito;
#NOTES:
0000
0000
0000
0000
,
0000
0000
0000
0000
,
0000
0000
0000
0000
,
0101
0000
1100
0000
0101
0000
1000
0100
,
0010
0001
0010
0100
2000
3000
0001
0100
,
0001
0000
1000
0000
0001
0000
1000
0000
0001
0000
1000
0000
0002
0000
0000
0003
0000
0000
0010
0000
0000
0100
0000
0000
,
1000
0000
0000
1000
0000
0000
0001
0000
0000
0001
0000
0000
0100
0000
0010
0000
0100
0000
0010
0000
0000
1000
0000
0000
,
1010
0000
0011
0000
1010
0000
0001
0010
,
0100
1000
0100
0010
0002
0003
1000
0010
,
1000
0000
0001
0000
1000
0000
0001
0000
1000
0000
0001
0000
2000
0000
0000
3000
0000
0000
0100
0000
0000
0010
0000
0000
,
0001
0000
0000
0001
0000
0000
1000
0000
0000
1000
0000
0000
0010
0000
0100
0000
0010
0000
0100
0000
0000
0001
0000
0000
,
1001
0000
0001
0010
0200
0000
0320
0000
,
0030
0001
0100
0010
1000
0100
0020
0000
,
0030
0001
1000
0100
0010
0100
1000
0010
,
0100
0010
1000
0001
0010
0010
0010
0000
,
1001
0000
0001
0010
0100
0010
0002
0000
,
0003
1000
0100
0010
0001
0100
0020
0000
,
0030
1000
0001
0100
0010
0100
0001
0010
,
0100
0010
0001
1000
0010
0010
0010
0000
,
1000
0100
0001
0100
1000
0100
0001
0200
,
0300
1000
0000
1000
0001
0001
0001
0000
,
1000
0010
0001
0010
1000
0010
0001
0020
,
0030
1000
0000
1000
0001
0001
0001
0000
,
1001
0000
1000
0100
0010
0100
2000
0000
,
3010
0000
1000
0000
0001
0000
1000
0000
0100
0000
1000
0000
2002
3003
0000
0000
,
1000
0100
0001
0100
1000
0100
0001
0100
,
1000
0001
1000
0001
2000
0000
0200
3300
,
1001
0000
0011
0000
0002
0000
0200
0303
,
1001
0000
1010
0000
2000
0000
0200
3300
,
1002
0000
0200
0303
2001
0000
0200
3300
,
0100
0100
0100
0100
0200
0000
0000
0300
,
1001
0000
0001
0100
0010
0000
0010
0100
,
0001
0000
0001
1000
0100
0000
0100
1000
,
0001
0000
0001
0010
0100
0000
0100
0010
,
0001
0000
0001
1000
0010
0000
0010
1000
,
1001
0000
1000
0010
0100
0000
0100
0010
,
1000
0000
1000
0001
0010
0000
0010
0001
,
1000
0000
1000
0100
0010
0000
0010
0100
,
1000
0000
1000
0001
0100
0000
0100
0001
,
1000
0000
0000
0000
1000
0000
0000
0000
0100
0000
0000
0100
0000
0000
0100
0000
,
1000
0000
0000
0000
1000
0000
0000
0000
0010
0000
0000
0010
0000
0000
0010
0000
,
0100
0000
0000
0000
0100
0000
0000
0000
0001
0000
0000
0001
0000
0000
0001
0000
,
0010
0000
0000
0000
0010
0000
0000
0000
0001
0000
0000
0001
0000
0000
0001
0000
,
1000
0000
0000
0000
1000
0000
0000
0000
0010
0000
0000
0010
0000
0000
0010
0000
,
1000
0000
0000
0000
1000
0000
0000
0000
0100
0000
0000
0100
0000
0000
0100
0000
,
0010
0000
0000
0000
0010
0000
0001
0000
1000
0000
0000
1000
0000
0000
1000
0000
,
0001
0000
0000
0001
0000
0000
0001
0000
0100
0000
0010
0000
0100
0000
0010
0000
,
0110
0000
0100
0000
0100
0000
0100
0001
,
0010
0100
0010
0100
0010
0100
0020
0000
0000
0030
0000
0000
,
1100
0000
0101
0000
1100
0000
0001
0100
,
0010
1000
0010
0100
0002
0003
1000
0100
,
1000
0000
0001
0000
1000
0000
0001
0000
1000
0000
0001
0000
2000
0000
0000
3000
0000
0000
0010
0000
0000
0100
0000
0000
,
0001
0000
0000
0001
0000
0000
1000
0000
0000
1000
0000
0000
0100
0000
0010
0000
0100
0000
0010
0000
0000
0001
0000
0000
,
0011
0000
1010
0000
0011
0000
1000
0010
,
0100
0001
0100
0010
2000
3000
0001
0010
,
0001
0000
1000
0000
0001
0000
1000
0000
0001
0000
1000
0000
0002
0000
0000
0003
0000
0000
0100
0000
0000
0010
0000
0000
,
1000
0000
0000
1000
0000
0000
0001
0000
0000
0001
0000
0000
0010
0000
0100
0000
0010
0000
0100
0000
0000
1000
0000
0000
,
1001
0000
0001
1000
0010
1000
0100
1000
,
0010
1000
0001
1000
0020
0000
0200
0000
,
0330
0001
1000
0001
0010
0001
0100
0001
,
0010
0001
1000
0001
0020
0000
0100
0100
,
0200
0330
0000
1000
0001
0100
1000
0100
,
0002
0000
0003
0010
0020
0000
0030
0100
,
0200
0000
1300
0001
1000
0010
0001
0010
,
2000
0000
3000
0100
0200
0000
0300
0010
,
0020
0030
0000
0000
;

//--------------- dance-single - Pilgrimsito ----------------
#NOTEDATA:;
#STEPSTYPE:dance-single;
#DESCRIPTION:Pilgrimsito;
#DIFFICULTY:Hard;
#METER:13;
#RADARVALUES:0.537415,0.623712,0.237513,0.413733,0.226021,491,460,31,54,16,0,0,0,0,0.537415,0.623712,0.237513,0.413733,0.226021,491,460,31,54,16,0,0,0,0;
#DISPLAYBPM:127.000;
#CHARTNAME:;
#CHARTSTYLE:;
#CREDIT:Pilgrimsito;
#NOTES:
0000
0000
0000
0000
,
0000
0000
0000
0000
,
0000
0000
0000
0000
,
1001
0000
0000
0000
1010
0000
0000
0000
1100
0000
0000
1000
0001
0000
0100
0000
,
0010
0000
0010
0000
0100
0000
0001
0000
0020
0000
0030
0001
1000
0000
0010
0000
,
1000
0000
0000
0000
0100
0000
0000
0000
M100
0000
0000
0000
0001
0000
0000
0000
0100
0000
0000
0000
010M
0000
0000
0000
2000
0000
0000
0000
0000
0000
3000
0000
0000
0001
0000
0000
0010
0000
0000
0000
0000
0000
0100
0000
0000
0000
0000
0000
,
1000
0000
0000
0100
0000
0000
0010
0000
0000
0000
0000
0000
0001
0000
0000
0100
0000
0000
0010
0000
0000
0000
0000
0000
1000
0000
0000
0000
0100
0000
0000
0000
0001
0000
0000
0000
0100
0000
0000
0000
0000
0000
1000
0000
0000
0000
0000
0000
,
1001
0000
0000
0000
0011
0000
0000
0000
0101
0000
0000
0001
1000
0000
0100
0000
,
0010
0000
0010
0000
0100
0000
1000
0000
0020
0000
0030
1000
0001
0000
0010
0000
,
0001
0000
0000
0000
0100
0000
0000
0000
010M
0000
0000
0000
1000
0000
0000
0000
0100
0000
0000
0000
M100
0000
0000
0000
0002
0000
0000
0000
0000
0000
0003
0000
0000
1000
0000
0000
0010
0000
0000
0000
0000
0000
0100
0000
0000
0000
0000
0000
,
0001
0000
0000
0100
0000
0000
0010
0000
0000
0000
0000
0000
1000
0000
0000
0100
0000
0000
0010
0000
0000
0000
0000
0000
0001
0000
0000
0000
0100
0000
0000
0000
1000
0000
0000
0000
0100
0000
0000
0000
0000
0000
0001
0000
0000
0000
0000
0000
,
1001
0001
1000
0010
2000
0000
3200
0000
,
1300
0001
0010
0001
1000
0001
0200
0000
,
0310
1000
1000
0100
0001
0100
1000
0010
,
0100
0100
0010
1000
0100
0100
0100
0000
,
1001
1000
0010
1000
0100
1000
0002
0000
,
0103
0001
0010
0100
0010
0001
0200
0000
,
0310
1000
1000
0010
0100
0100
0001
0010
,
1000
0010
0001
0100
0010
0010
0010
0000
,
1000
0100
0M01
0010
10M0
0100
0M01
1000
,
0000
0001
0000
0001
0100
0100
0100
0000
,
0001
0100
1M00
0010
00M1
0100
1M00
0001
,
0000
1000
0000
1000
0100
0100
0100
0000
,
1001
1000
0010
0010
1000
0100
0020
0000
,
0031
0100
1000
0100
0010
0100
0202
0303
,
1000
0100
0M01
0010
10M0
0100
0M01
1000
,
0010
0000
0010
0000
0010
0000
0010
0000
1000
0001
0000
0200
0000
0000
0300
0000
,
1001
0000
0000
0000
0011
0000
0000
0000
0001
1000
0000
0200
0000
0000
0300
0000
,
1001
0000
0000
0000
1010
0000
0000
0000
1000
0001
0000
0200
0000
0000
0300
0000
,
1001
0010
0200
0300
1001
0010
0200
0300
,
1001
0000
1001
0000
0110
0000
0110
0000
1000
0001
1000
0001
1000
0001
1000
0001
,
1000
0100
0100
1000
0010
0100
0010
1000
,
0100
0010
0010
0001
0200
0000
2000
3300
,
0100
0001
0010
0100
1000
0001
0100
0010
,
1000
0001
0010
0100
2000
0000
3200
0310
,
0110
0000
0001
0100
1000
0001
0010
1000
,
0200
0000
0310
0100
2000
0000
3001
0100
,
0020
0000
1030
0100
0001
1000
0010
0001
,
0200
0000
0310
0100
0002
0000
1003
0100
,
0010
0001
0001
1000
0100
0010
0100
1000
,
0010
0100
0100
0001
0020
0000
2000
3030
,
0010
0001
0100
0010
1000
0001
0010
0100
,
1000
0001
0100
0010
2000
0000
3020
0230
,
0302
0000
1003
0010
0001
1000
0100
0001
,
0020
0000
0130
0010
0002
0000
1003
0010
,
0200
0000
0301
0010
1000
0001
0100
1000
,
0020
0000
0130
0010
2000
0100
0100
3100
,
1001
0000
0000
0000
0001
0000
0000
0000
0001
0000
0000
1000
0100
0000
1000
0000
,
0010
0100
0001
0010
0100
1000
0002
0000
0000
0003
0000
0000
,
1001
0000
0000
0000
1100
0000
0000
0000
1010
0000
0000
1000
0001
0000
0010
0000
,
0100
0000
0100
0000
0010
0000
0001
0000
0200
0000
0300
0001
1000
0000
0100
0000
,
1000
0000
0000
0000
0010
0000
0000
0000
M010
0000
0000
0000
0001
0000
0000
0000
0010
0000
0000
0000
001M
0000
0000
0000
2000
0000
0000
0000
0000
0000
3000
0000
0000
0001
0000
0000
0100
0000
0000
0000
0000
0000
0010
0000
0000
0000
0000
0000
,
1000
0000
0000
0010
0000
0000
0100
0000
0000
0000
0000
0000
0001
0000
0000
0010
0000
0000
0100
0000
0000
0000
0000
0000
1000
0000
0000
0000
0010
0000
0000
0000
0001
0000
0000
0000
0010
0000
0000
0000
0000
0000
1000
0000
0000
0000
0000
0000
,
1001
0000
0000
0000
0101
0000
0000
0000
0011
0000
0000
0001
1000
0000
0010
0000
,
0100
0000
0100
0000
0010
0000
1000
0000
0200
0000
0300
1000
0001
0000
0100
0000
,
0001
0000
0000
0000
0010
0000
0000
0000
001M
0000
0000
0000
1000
0000
0000
0000
0010
0000
0000
0000
M010
0000
0000
0000
0002
0000
0000
0000
0000
0000
0003
0000
0000
1000
0000
0000
0100
0000
0000
0000
0000
0000
0010
0000
0000
0000
0000
0000
,
0001
0000
0000
0010
0000
0000
0100
0000
0000
0000
0000
0000
1000
0000
0000
0010
0000
0000
0100
0000
0000
0000
0000
0000
0001
0000
0000
0000
0010
0000
0000
0000
1000
0000
0000
0000
0010
0000
0000
0000
0000
0000
0001
0000
0000
0000
0000
0000
,
1001
1000
1000
0100
0001
0100
0010
0100
,
1000
0010
0010
1000
0200
0000
0002
0303
,
0100
1000
0010
M010
0001
1000
0100
M100
,
0001
1000
0010
M010
0002
0000
0023
0130
,
2001
0000
3001
0100
0010
0001
0010
0100
,
0002
0000
0013
0100
2000
0000
3001
0100
,
0020
0000
1030
0100
0010
1000
0010
0100
,
2000
0000
3010
0100
0002
0000
0013
0100
,
2002
3003
0000
0000
0000
0000
0000
0000
;
