#TITLE:華麗なる大犬円舞曲;
#SUBTITLE:;
#ARTIST:Wiktoria;
#TITLETRANSLIT:Kareinaru ooinu enbukyoku;
#SUBTITLETRANSLIT:;
#ARTISTTRANSLIT:;
#GENRE:;
#CREDIT:;
#BANNER:;
#BACKGROUND:;
#LYRICSPATH:;
#CDTITLE:;
#MUSIC:Kareinaru ooinu enbukyoku.ogg;
#OFFSET:-0.771648;
#SAMPLESTART:3.297000;
#SAMPLELENGTH:12.000000;
#SELECTABLE:YES;
#BPMS:0.000000=284.000000
,342.000000=142.000000
,378.000000=284.000000
,427.000000=260.000000
,429.000000=200.000000
,430.000000=160.000000
,431.000000=120.000000
,432.000000=240.000000
,435.000000=280.000000
,438.000000=294.000000
;
#STOPS:
;
#BGCHANGES:;
#KEYSOUNDS:;
#ATTACKS:;

//---------------dance-single - nobarben----------------
#NOTES:
     dance-single:
     nobarben:
     Hard:
     16:
     0.817884,1.325009,0.215464,0.315501,0.096189,744.000000,716.000000,28.000000,41.000000,0.000000,0.000000,0.817884,1.325009,0.215464,0.315501,0.096189,744.000000,716.000000,28.000000,41.000000,0.000000,0.000000:
0000
0000
0000
0000
,
0000
0000
0000
0000
,
0000
0000
0000
0000
,
0001
0000
0100
0001
0000
1000
0100
0000
,
0010
0000
0001
0000
1000
0000
0100
1000
,
0000
0001
0100
0000
0010
0000
1000
0000
,
0001
0010
0001
0010
0100
0000
1000
0100
,
1000
0100
0010
0000
0001
0100
0010
1000
,
0010
0100
0001
1000
0100
0010
0001
0000
,
1000
0000
0100
1000
0000
0001
0100
0000
,
0010
0000
1000
0000
0001
0000
0100
0001
,
0000
1000
0100
0000
0010
0000
0001
0000
,
1000
0100
1000
0100
0010
0000
0001
0100
,
0001
0100
0010
0000
1000
0100
1000
0000
,
1000
0001
1000
0000
1000
0010
1000
0000
,
0001
0000
0100
0001
0000
0010
0100
0000
,
1000
0000
0010
0000
0010
0100
0010
0000
,
0010
1000
0001
0000
0010
0000
0110
0000
,
0001
0010
0001
0010
0100
0000
1000
0010
,
1000
0010
0100
0000
0001
0010
0100
1000
,
0001
1000
0010
0100
0001
0010
0100
1000
,
0001
0010
0001
0000
0001
1000
0001
0000
,
0001
0100
0001
0000
0001
0010
0001
0000
,
0001
0100
0010
0000
1000
0000
1001
0000
,
0001
0100
0001
0100
0010
0000
1000
0100
,
1000
0100
0010
0000
0002
0000
0000
0000
,
0000
0013
0100
1000
,
0001
0100
0010
1000
0010
0100
0001
0000
,
1000
0000
0001
0000
1000
0100
0010
0001
,
0010
0100
1000
0000
0001
0000
0100
0001
,
1000
0000
1000
0100
0020
0000
0031
0000
,
0001
0100
0020
0000
1030
0000
0001
0010
,
0100
1000
0001
0000
0010
0000
0100
0000
,
1000
0100
1000
0010
0100
0001
1000
0000
,
0010
0000
0100
0000
0001
0100
0001
0010
,
0100
1000
0001
0000
0010
0000
0100
0000
,
1000
0000
0010
1000
0000
0100
0010
0000
,
0001
1000
0001
0200
,
0000
0000
0301
0000
0020
0000
0000
0130
,
2000
0000
3001
0100
0000
0001
1000
0000
,
0100
0000
0010
0001
0020
0000
0130
1000
,
0000
0001
0200
0000
0320
0000
0000
1030
,
0002
0000
1003
0100
0000
1000
0002
0000
,
0203
0000
0000
0310
2000
0000
3100
1000
,
0000
0010
0200
0000
0302
0000
0013
0000
,
0020
0000
0130
0010
0000
0001
2000
0000
,
3010
0000
0100
0001
2000
0000
3001
0010
,
0100
1000
0002
0000
0103
0000
0010
1000
,
0002
0000
1003
0100
0010
0001
0010
0001
,
0100
0000
0001
0000
2000
0000
3001
0100
,
0010
1000
0010
1000
0100
0000
1000
0000
,
0002
0000
0000
0103
0000
0100
0010
0000
,
1000
0000
0001
1000
0001
0000
1000
0100
,
0000
0010
0100
0000
0001
0000
0100
1000
,
0002
0000
0000
0103
0000
0100
0010
0000
,
1000
0000
0001
1000
0010
0000
0100
0010
,
0000
0001
0010
0000
0100
0000
0001
1000
,
0200
0000
0000
0010
0000
0000
1300
0000
,
0010
0000
0100
0001
2000
0000
0000
0010
,
0000
0000
3100
0000
0010
0000
0001
1000
,
0200
0000
0000
0010
0000
0000
0301
0000
,
0100
0000
0010
0001
0200
0000
0000
0010
,
0000
1300
0100
0001
,
0010
0001
0010
0100
1000
0001
1000
0010
,
0100
0001
1000
0000
0001
0000
1000
0100
,
0000
1000
0020
0000
0100
0000
0130
0000
,
0010
1000
0010
0100
0001
1000
0001
0010
,
0100
1000
0001
0000
0010
0000
0100
1000
,
0000
0002
2000
0000
0000
0000
3003
0000
,
0001
0000
0100
0001
1000
0001
0010
0000
,
0100
1000
0001
0100
0010
0000
0100
0001
,
0010
0100
1000
0000
0100
0010
0001
1000
,
1000
0000
0010
1000
0010
0000
0100
0000
,
0010
0001
0010
0000
0010
0000
0100
1000
,
0100
0010
0100
0000
0001
0100
0010
1000
,
0001
0000
1000
0100
1000
0000
0100
0010
,
0100
0000
0010
0001
0010
0000
0001
1000
,
0001
0000
0100
0001
0100
0000
0010
1000
,
1010
0101
1100
0011
,
1100
0000
0101
0000
0110
0000
1000
0001
,
1001
0000
1001
0000
0110
0000
0001
1000
,
2002
0000
0000
0000
,
0000
0000
0000
0000
,
0000
0000
0000
0000
,
0000
0000
0000
0000
,
3003
0000
0000
0000
1001
0000
1000
0001
,
0100
0010
2000
0000
0001
0000
3100
0000
,
0110
0001
1000
1001
,
0001
0100
0110
0010
,
1000
0000
0000
0001
1000
0001
0010
0000
0000
0000
0000
0000
0100
0000
0000
0000
0000
0000
1000
0000
0000
0001
0000
0000
,
1001
0100
0010
0110
,
0000
0000
0000
0000
0000
0000
0001
0010
0001
1000
0010
1000
,
0100
0010
0100
1000
0010
1000
0001
0100
0001
0010
0100
1000
,
0001
0000
0010
0000
0001
0000
0100
0000
0010
0000
0100
0000
1000
0000
0000
0000
0000
0000
0100
0000
0000
0010
0000
0000
,
0100
0001
1000
0100
0010
0001
2000
0000
0000
0000
0000
0000
,
0000
0000
0000
0000
,
0200
0000
0000
0000
,
3300
0000
0000
0000
1000
0100
1000
0000
,
0001
0000
1000
0100
1000
0000
0001
0000
,
0100
0001
0010
0001
,
0100
0000
0001
0000
0010
0000
0010
0001
,
0010
0000
0000
0000
0000
0000
0010
0000
0000
0100
0000
0000
0010
0000
0000
0000
0100
0000
0000
0000
1000
0000
0000
0000
,
0020
0100
1000
0230
,
0001
0010
0302
0010
,
1000
0023
0100
1000
,
0130
0010
0110
0010
,
0001
0000
0100
0000
0010
1000
0001
1000
,
0001
1000
0001
0000
0010
0000
0100
0000
,
1000
0000
0010
0100
0010
0000
1000
0100
,
0010
0100
0010
0000
0001
0100
0010
1000
,
0010
0100
0001
0000
1000
0000
0001
0000
,
1000
0100
0010
0001
1000
0000
0001
0100
,
0010
1000
0001
0000
1000
0100
0010
0001
,
1000
0001
0100
0001
0010
0100
1000
0000
,
1001
0000
0001
1000
0100
1000
0010
0000
,
1000
0001
0100
0001
0010
0100
0010
0000
,
0010
0001
0100
0000
0010
0000
0110
0000
,
0001
0100
0010
1000
0100
0000
1000
0100
,
0010
0001
0100
0000
0001
0010
0100
1000
,
0010
0100
0001
0100
0010
1000
0001
1000
,
0100
0010
0100
0000
0100
0001
0100
0000
,
0100
1000
0100
0000
0010
0100
0010
0000
,
0010
1000
0010
0000
0010
0001
0010
0000
,
1001
0000
0001
0100
1000
0100
0001
0000
,
1000
0010
0001
0010
1000
0000
0001
0100
,
1000
0100
0010
1000
0100
0010
0001
1000
,
1001
0000
1000
0100
0001
0100
1000
0000
,
0001
0010
1000
0010
0001
0000
1000
0100
,
0001
0100
0010
0001
0100
0010
1000
0001
,
0010
0100
0010
1000
0010
0001
1000
0010
,
0100
0010
0001
0010
1000
0100
1000
0001
,
0010
0100
0010
0001
0100
0010
0100
1000
,
0100
0010
1000
0010
0001
0010
0100
0010
,
1000
0000
0000
0000
0001
0000
0000
0000
1000
0000
0000
0000
0100
0000
0000
0000
0010
0000
0000
0000
0000
0000
0000
0000
0000
0000
0000
0000
0000
0101
0000
0000
,
0000
0000
1010
0000
,
0000
0000
1100
2200
0000
0000
0000
0000
,
0000
0000
0000
0000
,
0000
0000
0000
3300
;

//---------------dance-single - ----------------
#NOTES:
     dance-single:
     :
     Edit:
     18:
     0.998171,1.327413,0.484794,0.261635,0.627155,908.000000,845.000000,63.000000,34.000000,0.000000,0.000000,0.998171,1.327413,0.484794,0.261635,0.627155,908.000000,845.000000,63.000000,34.000000,0.000000,0.000000:
0000
0000
0000
0000
,
0000
0000
0000
0000
,
0000
0000
0000
0000
,
1000
0000
0001
0100
0010
1000
0100
0000
,
0110
0000
0000
0000
0000
0000
0011
0000
0000
0000
0000
0000
0001
0000
0010
0000
0001
0000
1000
0000
0000
0100
0000
0000
,
0010
0001
0100
0000
0110
0000
1010
0000
,
0001
0100
0001
0100
0001
0100
0010
0000
0000
1000
0100
1000
,
0100
1000
0100
0010
0000
0000
0001
0010
0001
1000
0001
1000
,
0010
0000
1000
0000
0010
0000
0100
0000
0000
0001
0000
0000
1000
0000
0000
0100
0000
0000
0010
0000
0000
0000
0000
0000
,
0001
0000
1000
0010
0100
0001
0010
0000
,
0110
0000
0000
0000
0000
0000
1100
0000
0000
0000
0000
0000
1000
0000
0100
0000
1000
0000
0001
0000
0000
0010
0000
0000
,
0100
1000
0010
0000
0110
0000
0101
0000
,
1000
0100
0010
0100
1000
0001
0100
0010
,
0100
1000
0100
0001
1000
1000
0100
0000
,
1000
1000
0001
0000
1000
1000
0010
0000
,
1000
0000
0100
0010
0001
1000
0010
0000
,
0110
0000
0101
0000
0011
0001
0010
0000
,
0110
0100
1000
0000
0010
0000
0100
0000
,
0001
0100
0001
0100
0010
1000
0001
0000
0000
1000
0100
1000
,
0100
0010
0001
1000
0000
0000
0001
0010
0001
1000
0001
1000
,
0010
0000
1000
0000
0010
0000
0100
0000
0000
0001
0000
0000
1000
0000
0000
0100
0000
0000
0010
0000
0000
0001
0000
0000
,
1000
1000
0010
0000
0100
0100
0001
0000
,
1000
1000
0100
0000
0010
0010
0001
0000
,
1000
0010
0100
0000
0001
0000
0010
0000
,
0100
1000
0001
1000
0010
0000
0100
0001
,
1000
0001
0010
0100
2000
0000
0010
0000
,
3001
0100
0010
0000
1000
0000
0001
0000
,
0010
0100
0010
0001
1000
0001
0100
0010
,
1000
0010
0100
0001
1000
0100
1000
0010
,
0100
0001
0010
0100
0010
1000
0010
0001
,
1000
0000
0000
0100
0000
0000
1000
0000
0000
0100
0000
0000
0010
0000
0001
0000
0010
0000
0001
0000
0000
0100
0000
0000
,
0001
0000
0000
0100
0000
0000
0010
0000
1000
0000
0010
0000
0100
0000
0000
0001
0000
0000
1000
0000
0000
0100
0000
0000
,
0010
0001
2000
0000
3020
0000
0032
0000
,
0013
1000
0100
0010
0100
1000
0001
0000
,
0010
0000
0110
0000
0010
0001
0100
0010
,
0100
0000
0000
0001
0000
0000
1000
0000
0000
0000
0000
0000
0010
0000
0000
0000
0000
0000
1000
0000
0100
0000
0010
0000
,
0001
0000
1000
0010
0000
0100
0001
0000
,
0010
0100
1000
2100
,
0000
0000
3001
0000
0200
0000
0000
0310
,
1000
0000
0100
1000
0000
0001
1000
0000
,
0100
0000
0010
0001
0100
0000
0010
1000
,
0000
0001
0002
0000
0203
0000
0000
0010
,
0310
0000
0100
0000
0001
1000
2000
0000
,
3200
0000
0000
0010
0320
0000
0031
1000
,
0000
0001
0002
0000
0203
0000
0010
0000
,
0320
0000
1030
0001
0000
1000
0200
0000
,
0010
0000
0310
0000
0002
0000
1003
0010
,
0100
0001
0010
0100
1000
0100
0010
0001
,
0100
0000
0000
0001
0100
0001
1000
0100
1000
0100
0010
0001
,
1000
0000
0000
0010
0000
0000
0110
0000
0000
1000
0100
1000
,
0001
0000
0100
0000
0001
0000
0100
0000
0010
0000
1000
0000
0001
0000
0000
0000
0000
0000
1000
0000
0000
0001
0000
0000
,
1000
0000
0001
0100
0000
0010
1000
0000
,
0100
0000
0010
0001
0010
0000
0100
1000
,
0000
1000
0001
0000
0100
0000
0010
1000
,
0002
0000
0000
0103
0000
1000
0100
0000
,
0010
0000
1000
0100
0020
0000
0000
1000
,
0000
0130
0010
0000
0001
0000
1000
0100
,
0010
0000
0001
0100
0000
0100
1000
0000
,
0100
0000
0010
1000
0001
0000
0001
0010
,
0000
0010
1000
0000
0010
0000
0100
1000
,
0001
0000
1000
0010
0000
0010
0001
0000
,
0010
0000
0100
0001
1000
0000
1000
0100
,
0000
0100
0001
0000
0100
0000
1000
0000
,
0010
0001
0010
0100
0001
1000
0100
0010
,
1000
0010
0100
1000
0001
0000
0100
0010
,
0000
0010
2000
0000
0010
0000
3010
0000
,
0100
1000
0100
0010
1000
0001
0010
0100
,
0001
0100
0010
0001
1000
0000
0010
0100
,
0000
0200
0020
0000
0000
0000
0330
0000
,
0001
1000
0100
0010
0001
1000
1000
0001
,
0100
0010
1000
0001
0001
1000
0100
0010
,
0001
1000
1000
0001
0100
0010
1000
0001
,
1000
0000
0000
0010
0000
0000
0100
0000
0001
0000
0100
0000
0010
0000
0000
1000
0000
0000
0010
0000
0000
1000
0000
0000
,
0100
0000
1000
0000
0100
0000
0010
0000
0000
0001
0000
0000
0100
0000
0000
0001
0000
0000
0010
0000
0001
0000
0010
0000
,
0100
0000
0000
1000
0000
0000
0100
0000
0000
1000
0000
0000
0010
0000
1000
0000
0010
0000
0100
0000
0000
0001
0000
0000
,
1000
0000
0000
0001
0010
0001
1000
0000
0000
0010
0100
0010
,
1000
0000
0000
0001
0100
0001
0010
0000
0000
0100
1000
0100
,
0010
0000
0000
0001
1000
0001
0100
0000
0000
0010
1000
0010
,
1010
0101
0011
0101
,
1010
0000
1100
0000
1001
0000
0110
0110
,
0110
0000
1001
0000
0110
0000
1001
1001
,
2002
0000
0000
0000
,
0000
0000
0000
0000
,
0000
0000
0000
0000
,
0000
0000
0000
0000
,
3003
0000
0000
0000
2100
0000
0000
3001
,
0100
1000
0200
0000
0000
0000
0001
0000
,
0302
0010
1000
0203
,
0010
1000
0302
1000
,
0013
0000
0000
0100
0010
0100
2000
0000
0000
0000
0000
0000
0010
0000
0000
0000
0000
0000
0000
0000
0000
3001
0000
0000
,
0102
0000
0000
0000
0010
0000
0000
0000
0000
0003
0000
0000
0110
0000
0000
0000
,
0000
0000
0000
0000
0000
0000
0001
0010
1000
0001
0100
1000
,
0001
0100
0010
0001
1000
0100
0001
1000
0100
0001
1000
0010
,
0001
0000
0100
0000
0010
0000
0001
0000
0010
0000
0100
0000
0001
0000
0000
0000
0000
0000
0010
0000
0000
0100
0000
0000
,
1000
0100
0001
1000
0010
0001
0200
0000
0000
0000
0000
0000
,
0000
0000
0000
0000
,
0020
0000
0000
0000
,
0000
0000
0330
0000
0100
0100
0100
0000
,
0010
0000
0100
0100
0100
0000
0010
0000
,
0100
0001
0100
1000
,
0100
0000
0010
0000
0100
0000
0100
0100
,
0100
0000
0100
0100
0100
0000
0100
0100
,
0001
1000
0100
0010
0001
1000
0100
0000
0000
1000
0001
0100
,
0010
1000
0001
0100
0000
0000
0010
0100
0001
1000
0001
0010
,
0100
0000
0000
0010
0100
1000
0001
1000
0010
0100
0000
0000
,
0001
0100
1010
0001
,
1000
0000
0110
0000
0001
1000
0001
1000
,
0001
1000
0001
0010
0100
1000
0001
0100
,
0110
0000
1000
0100
0001
0000
0100
0010
,
0001
0000
0000
1000
0000
0000
0010
0000
0000
0000
0000
0000
0100
0000
0001
0000
1000
0000
0100
0000
0000
0010
0000
0000
,
0001
1000
0010
0000
0110
0000
0101
0000
,
0010
1000
0001
0010
0100
1000
0001
0000
0000
0100
0001
1000
,
0100
0010
0001
1000
0000
0000
0010
1000
0001
0010
0001
1000
,
0100
0000
1000
0000
0001
0000
0100
0000
0000
0010
0000
0000
1000
0000
0000
0001
0000
0000
0010
0000
0000
0000
0000
0000
,
0110
0000
0010
0001
0100
0010
0110
0000
,
0010
1000
0100
0010
0110
0100
0010
0000
,
0110
0100
1100
0000
1010
0000
0101
0000
,
1000
0100
0010
0001
0100
0001
0010
0000
0000
0001
0100
0010
,
1000
0100
1000
0010
0000
0000
1000
0010
0100
0001
1000
0001
,
0010
0000
0100
0000
1000
0000
0001
0000
0000
0100
0000
0000
0010
0000
0000
0001
0000
0000
0010
0000
0000
0100
0000
0000
,
0101
0001
0010
0000
0110
0100
1000
0000
,
1100
1000
0010
0000
1010
0010
0100
0000
,
0110
0100
0001
0000
0101
0001
0010
0000
,
0011
1000
0100
0010
0100
1000
1010
0001
,
0100
0010
0100
0001
0011
1000
0100
0010
,
0100
1000
1010
0001
0100
0010
1000
0100
,
1100
0010
0100
1000
0001
0100
0101
0010
,
0100
0001
1000
0100
1100
0010
0100
1000
,
0001
0100
0110
1000
0001
0010
0100
1000
,
0001
0100
0010
0001
1000
0100
0010
1000
,
0001
0000
0000
0010
0000
0000
0100
0000
0000
1000
0000
0000
0001
0000
0100
0000
0001
0000
1000
0000
0100
0000
1000
0000
,
0001
0010
0001
1000
0010
1000
0001
0100
0010
1000
0001
0010
,
0100
1000
0001
1000
0100
0010
0001
1000
0010
0100
0001
1000
,
0100
0000
0000
0000
0000
0000
0000
0000
0000
0000
0000
0000
0000
0000
0000
0000
0010
0000
0000
0000
0000
0000
0000
0000
0000
0000
0000
0000
0000
0000
0000
0000
0001
0000
0000
0000
0000
0000
0000
0000
0000
0000
0000
0000
0000
0000
0000
0000
0100
0000
0000
0000
0000
0000
0000
0000
0000
0000
0000
0000
0000
0000
0000
0000
0010
0000
0000
0000
0000
0000
0000
0000
0000
0000
0000
0000
0000
0000
0000
0000
1000
0000
0000
0000
0000
0000
0000
0000
0000
0000
0000
0000
0000
0000
0000
0000
0100
0000
0000
0000
0000
0000
0000
0000
0000
0000
0000
0000
0000
0000
0000
0000
0000
0000
0000
0000
0000
0000
0000
0000
0000
0000
0000
0000
0000
0000
0000
0000
0000
0000
0000
0000
0000
0000
0000
0000
0000
0000
0000
0000
0000
0000
0000
0000
0000
0000
0000
0000
0000
0000
0000
0000
0000
0000
0000
0000
0000
0000
0000
0000
0000
0000
0000
0000
0000
0000
0000
0000
0000
0000
0000
0000
0000
0000
0101
0000
0000
0000
0000
0000
0000
0000
0000
0000
0000
0000
0000
0000
0000
0000
0000
0000
,
0000
0000
0011
0000
,
0000
0000
1100
2200
0000
0000
0000
0000
,
0000
0000
0000
0000
,
0000
0000
0000
0000
,
3300
0000
0000
0000
;

//---------------dance-single - ----------------
#NOTES:
     dance-single:
     :
     Medium:
     14:
     0.580434,0.901006,0.061561,0.400148,0.026933,528.000000,520.000000,8.000000,52.000000,0.000000,0.000000,0.580434,0.901006,0.061561,0.400148,0.026933,528.000000,520.000000,8.000000,52.000000,0.000000,0.000000:
0000
0000
0000
0000
,
0000
0000
0000
0000
,
0000
0000
0000
0000
,
0001
0000
0000
0100
0000
0000
0001
0000
,
0010
0000
0100
0000
1000
0000
0000
0010
,
0000
1000
0100
0010
,
0001
0000
0100
0001
0100
0000
0010
0000
,
1000
0010
1000
0000
0001
0010
0100
0000
,
1000
0010
0100
0010
,
1000
0000
0000
0100
0000
0000
1000
0000
,
0010
0000
0100
0000
0001
0000
0000
0010
,
0000
0001
0100
0010
,
1000
0000
0100
1000
0100
0000
0010
0000
,
0001
0010
0001
0000
1000
0010
1000
0000
,
0010
0100
0010
0000
0100
0001
0100
0000
,
0001
0000
0000
1000
0000
0000
0100
0000
,
0010
0000
0100
0000
1000
0001
1000
0000
,
0001
0100
0010
0000
1000
0000
0100
0000
,
0010
0000
0001
1000
0001
0000
0010
0000
,
0100
1000
0100
0000
1000
0010
0100
0000
,
0001
1000
0100
0010
,
0001
0100
0001
0000
0100
0010
0100
0000
,
0010
1000
0010
0000
1000
0001
1000
0000
,
0100
0010
0001
0000
1000
0000
0001
0000
,
0100
0100
0010
1000
,
1000
0001
0020
0000
,
0000
0130
0010
0001
,
1000
0000
0001
0000
0100
0000
0010
1000
,
0010
1000
0001
1000
,
0100
0000
0010
0001
0010
0000
0001
0000
,
1000
0000
0010
0100
0002
0000
1003
0000
,
0100
0010
0002
0000
1003
0000
0001
0000
,
0100
0010
0100
0000
1000
0000
0100
0000
,
0001
0000
0010
0100
0000
1000
0001
0000
,
0100
0000
0010
0000
1000
0000
0100
0010
,
0000
0001
1000
0000
0010
0000
0100
0000
,
0001
0000
0010
0100
0000
0000
0010
0000
,
0001
1000
1000
0020
,
0000
0000
0031
0000
0020
0000
0000
1030
,
0002
0000
0000
1003
,
0100
0000
0010
0001
0020
0000
0000
0000
,
0030
0001
0100
0000
0020
0000
0000
1030
,
0002
0000
0000
0000
0003
1000
0100
0000
,
0020
0000
0000
0031
0200
0000
0000
0000
,
0300
0010
0100
0000
1000
0000
0100
0000
,
0002
0000
0000
2003
,
0000
0000
0000
0000
3100
0000
0010
0001
,
0010
0001
1000
0000
0010
0000
0000
0100
,
0002
1000
1000
1003
,
0000
0000
0000
0001
0020
0000
0100
0000
,
0100
0130
0000
0000
,
2000
0000
0000
0100
0000
0000
3001
0000
,
0010
0000
0100
0000
0020
0000
0000
0100
,
0000
0031
1000
0001
,
0200
0000
0000
0010
0000
0310
1000
0000
,
0100
0000
0010
0000
0200
0000
0000
0010
,
0000
1300
0001
0100
,
0020
0000
0000
2030
,
0000
0000
3200
0000
,
0000
0302
0000
0000
,
0203
0000
0000
2300
,
0000
0000
3002
0000
,
0000
0103
0010
1000
,
0001
0010
0100
0010
0100
1000
0001
0000
,
0100
0010
2000
0000
,
0000
3100
0010
0100
,
1000
0010
0100
0010
0100
0001
1000
0000
,
0100
0010
0001
0000
,
0000
1000
0020
0000
0000
0000
0030
0000
,
0200
0000
0000
0302
,
0000
0000
0023
0000
,
0000
2030
0000
0000
,
3020
0000
0000
0032
,
0000
0000
0203
0000
,
0000
0320
0000
0000
,
1030
0001
0100
0001
,
0010
0001
1000
0001
,
0100
0001
0010
0100
,
1000
0100
0110
0001
,
0100
0000
0110
0000
1001
0000
1000
0001
,
1000
0000
1001
0000
1001
0000
1000
0002
,
2000
0000
0000
0000
,
0000
0000
0000
0000
,
0000
0000
0000
0000
,
0000
0000
0000
0000
,
3003
0000
0000
0000
0002
0000
0000
0103
,
0001
0100
0020
0000
0000
0000
1030
0000
,
2000
0100
3001
0002
,
0010
1003
2000
0010
,
3001
0100
0001
0000
0010
0000
0000
0100
,
1000
0001
0000
0101
,
0000
0000
0000
0000
0010
1000
0001
0010
,
0100
0000
0010
0001
1000
0010
0100
0000
,
0001
0100
0010
1000
0100
0000
1000
0100
,
0010
0001
1000
0001
0100
0010
0200
0000
0000
0000
0000
0000
,
0000
0000
0000
0000
,
0020
0000
0000
0000
,
0000
0000
0330
0000
1000
0010
1000
0000
,
0001
0000
1000
0010
1000
0000
0001
0000
,
0010
0001
1000
0001
,
0010
0000
0001
0000
1000
0000
0001
0100
,
0001
0000
0000
0000
0000
0000
0100
0000
0000
0001
0000
0000
0100
0000
0000
0000
0001
0000
0000
0000
1000
0000
0000
0000
,
0002
0100
0000
2003
,
0010
0000
3200
0010
,
0000
2300
0010
0000
,
3001
0100
0001
0010
,
0100
1000
0001
0001
,
0001
1000
1000
1000
,
0010
0000
0000
0100
,
0010
0000
0100
0000
0001
1000
0100
0000
,
0010
0001
1000
0001
,
0010
0000
0100
0010
0001
0000
0100
0000
,
0010
0100
0001
0000
0010
0000
0100
1000
,
0001
0000
0200
0000
0000
0010
0000
0000
,
0301
0000
0100
0010
0100
0000
1000
0000
,
0100
0010
0100
0000
0001
1000
0001
0000
,
1000
0001
0010
0000
0100
0000
1000
0000
,
0010
1000
0100
0000
0010
0000
0100
1000
,
0010
0000
0100
0000
0001
0010
0100
1000
,
0001
1000
0001
0000
0100
0000
0010
0000
,
1000
0010
1000
0000
0010
0100
0010
0000
,
0100
0001
0100
0000
0001
0010
0001
0000
,
0010
0100
0010
0000
0100
1000
0100
0000
,
0010
0000
0001
0100
0010
0000
1000
0000
,
0001
0010
0100
0000
1000
0000
0001
0100
,
0010
0000
1000
0010
0100
0001
1000
0000
,
0010
0000
1000
0100
0010
0000
0001
0000
,
1000
0010
0100
0000
0001
0000
1000
0100
,
0010
0000
0001
0010
0100
1000
0001
0000
,
1000
0010
1000
0001
0010
0001
1000
0100
,
1000
0001
0100
0010
1000
0000
0100
0000
,
0001
0100
0010
0001
,
0100
1000
0100
0010
,
1000
0000
0000
0000
0000
0000
0000
0000
0100
0000
0000
0000
0000
0000
0000
0000
0010
0000
0000
0000
0000
0000
0000
0000
0000
0000
0000
0000
0000
0011
0000
0000
,
0000
0000
1100
0000
,
0000
0000
0002
2000
0000
0000
0000
0000
,
0000
0000
0000
0000
,
0000
0000
0000
3003
;

//---------------dance-single - ----------------
#NOTES:
     dance-single:
     :
     Easy:
     10:
     0.390254,0.636004,0.230854,0.353977,0.011543,355.000000,325.000000,30.000000,46.000000,0.000000,0.000000,0.390254,0.636004,0.230854,0.353977,0.011543,355.000000,325.000000,30.000000,46.000000,0.000000,0.000000:
0000
0000
0000
0000
,
0000
0000
0000
0000
,
0000
0000
0000
0000
,
0001
0000
0000
0010
,
0001
0010
0100
0000
,
0000
1000
0100
1000
,
0001
0001
0000
0100
,
0100
0000
0010
1000
,
0010
0100
0100
0001
,
1000
0000
0000
0100
,
1000
0100
0010
0000
,
0000
0001
0010
0001
,
1000
1000
0000
0010
,
0010
0000
1010
0000
,
0110
0000
0101
0000
,
1001
0000
0000
1000
,
0100
0010
0001
0000
,
0001
1000
0001
0100
,
0010
0010
0000
1000
,
1000
0000
0001
0010
,
0100
1000
0100
0010
,
0011
0000
0110
0000
,
1100
0000
1001
0000
,
0000
0001
0100
0001
,
1000
1000
0000
0010
,
0010
0000
0200
0000
,
0000
0301
1000
0001
,
0020
0000
0000
0130
,
1000
0100
0020
0000
,
0000
0031
0100
0001
,
1000
0000
0200
0310
,
0000
0002
0103
0010
,
1000
0001
0001
0001
,
0010
0000
0000
0001
0000
0000
1000
0000
,
0001
0000
0010
0000
0100
0000
0000
1000
,
0000
0001
1000
0010
,
0100
0000
0000
0001
,
1000
0100
0010
0010
,
0000
0001
0100
0000
,
0110
0000
0000
0001
,
0100
0001
0020
0000
,
0000
0130
1000
0000
,
1002
0000
0000
0103
,
0010
0000
1002
0000
,
0000
0013
0100
0010
,
0002
0000
0000
0203
,
0000
0000
0320
0000
,
0000
1030
0100
0010
,
0001
0100
0001
0010
,
0000
0000
0100
1000
,
0010
1000
0000
0000
,
2000
3000
0001
0100
,
0001
1000
0020
0030
,
1000
0100
1000
0100
,
0020
0030
0001
0010
,
0100
1000
0002
0003
,
0100
0001
0100
0010
,
2000
0000
0000
3200
,
0000
0000
0320
0000
,
0000
0032
0000
0000
,
2003
0000
0000
3020
,
0000
0000
0230
0000
,
0000
0302
0000
0000
,
0013
0100
0010
0001
,
1000
0001
0100
0000
,
0000
0110
0000
0000
,
0010
1000
0010
0100
,
0001
1000
0100
0000
,
0000
0110
0000
0000
,
0001
0000
0000
0001
,
0000
0000
1000
0000
,
0000
1000
0000
0000
,
0010
0100
0000
0001
,
1000
0000
0001
0010
,
0000
0100
1000
0000
,
0010
0010
0000
1000
,
0000
0001
0000
0010
,
0000
0100
0000
1000
,
0001
1000
0001
0100
,
0010
0100
0001
0001
,
0001
1000
1000
1000
,
1001
0000
0000
0000
,
0000
0000
0000
0000
,
0000
0000
0000
0000
,
0000
0000
0000
0000
,
0000
0000
0002
0000
,
0000
0023
0000
0000
,
0230
0000
0000
2300
,
0000
0000
3020
0000
,
0000
0130
0001
1000
,
0002
0000
0000
0023
,
0000
0000
0130
1000
,
0100
0010
0001
1000
,
0001
0000
0100
0000
0010
0000
1000
0100
,
0010
0001
1000
0000
2002
0000
0000
0000
,
0000
0000
0000
0000
,
3003
0000
0000
0000
,
0000
0000
0001
0000
,
0100
0010
0000
1000
,
0001
0000
0010
0000
,
0100
0000
1000
0000
,
0010
0000
0000
0000
0000
0000
0100
0000
0001
0000
1000
0000
,
0002
0000
0000
0023
,
0000
0000
0230
0000
,
0000
2300
0000
0000
,
3001
0100
0001
1000
,
0100
1000
0010
0100
,
0010
0200
0000
0300
,
0001
0000
0000
1000
,
0100
0010
0001
0000
,
0000
0010
0100
1000
,
0010
1000
0001
0100
,
0001
1000
0001
0010
,
0100
1000
0000
0000
,
1001
0000
0000
0110
,
0000
0000
0001
0001
,
0001
1000
0100
0010
,
0100
1000
0001
0010
,
0001
1000
0001
0010
,
0100
1000
0010
0100
,
0101
0000
1001
0000
,
0011
0000
1100
0000
,
1001
0000
1010
0000
,
1001
0000
0000
0110
,
0000
0000
1001
0000
,
0000
0100
0010
0100
,
0110
0000
0000
1001
,
0000
0000
0110
0000
,
0000
0001
0100
0010
,
2000
0000
0000
0000
,
0000
0000
3200
0000
,
0320
0000
0032
0000
,
0203
0000
2300
0000
,
3200
0000
0000
0000
0000
0000
0000
0000
0000
0000
0000
0000
0000
0000
0000
0000
0301
0000
0000
0000
0000
0000
0000
0000
0000
0000
0000
0000
0000
0010
0000
0000
,
0000
0000
0100
0000
,
0000
2002
0000
0000
,
0000
0000
0000
0000
,
0000
0000
0000
3003
;

//---------------dance-double - ----------------
#NOTES:
     dance-double:
     :
     Hard:
     16:
     0.806891,1.113007,0.207769,0.315501,0.080799,734.000000,707.000000,27.000000,41.000000,0.000000,0.000000,0.806891,1.113007,0.207769,0.315501,0.080799,734.000000,707.000000,27.000000,41.000000,0.000000,0.000000:
// measure 0
00000000
00000000
00000000
00000000
,  // measure 1
00000000
00000000
00000000
00000000
,  // measure 2
00000000
00000000
00000000
00000000
,  // measure 3
00010000
00000000
00001000
00010000
00000000
00000100
00001000
00000000
,  // measure 4
00000010
00000000
00000100
00000000
00001000
00000000
00010000
00001000
,  // measure 5
00000000
00100000
00010000
00000000
01000000
00000000
00100000
00000000
,  // measure 6
00010000
00001000
01000000
00001000
00010000
00000000
00001000
00010000
,  // measure 7
00000100
00010000
00001000
00000000
00010000
00001000
01000000
00010000
,  // measure 8
10000000
01000000
00100000
00010000
00100000
00001000
00010000
00000000
,  // measure 9
00001000
00000000
00010000
00001000
00000000
01000000
00010000
00000000
,  // measure 10
00100000
00000000
01000000
00000000
00010000
00000000
00001000
00010000
,  // measure 11
00000000
00000010
00001000
00000000
00000100
00000000
00000010
00000000
,  // measure 12
00001000
00010000
00000010
00010000
00001000
00000000
00010000
00001000
,  // measure 13
00100000
00001000
00010000
00000000
00001000
00010000
00001000
00000000
,  // measure 14
00001000
01000000
00001000
00000000
00001000
00100000
00001000
00000000
,  // measure 15
00010000
00000000
00001000
00010000
00000000
00000100
00000010
00000000
,  // measure 16
00001000
00000000
00010000
00000000
00010000
00001000
00010000
00000000
,  // measure 17
00010000
00001000
01000000
00000000
00100000
00000000
00010000
00000000
,  // measure 18
00001000
00010000
00000100
00010000
00001000
00000000
00010000
00001000
,  // measure 19
01000000
00001000
00010000
00000000
00001000
00010000
00000100
00001000
,  // measure 20
00000001
00000100
00000010
00001000
00000100
00010000
00001000
00000000
,  // measure 21
00010000
00001000
00010000
00000000
00010000
00000100
00010000
00000000
,  // measure 22
00010000
00000010
00010000
00000000
00010000
00001000
00010000
00000000
,  // measure 23
00001000
00010000
00000100
00000000
00000010
00000000
00001000
00000000
,  // measure 24
00010000
00001000
00100000
00010000
01000000
00000000
00001000
00010000
,  // measure 25
00000010
00001000
00000100
00000000
00000020
00000000
00000000
00000000
,  // measure 26
00000000
00000031
00000100
00000010
,  // measure 27
00001000
00000010
00000100
00000010
00001000
00000100
00010000
00000000
,  // measure 28
00001000
00000000
01000000
00000000
00010000
00100000
01000000
00100000
,  // measure 29
00010000
01000000
00001000
00000000
00010000
00000000
00001000
00000000
,  // measure 30
00010000
00000000
00010000
00001000
00000020
00000000
00001030
00000000
,  // measure 31
00001000
00010000
00200000
00000000
00310000
00000000
00001000
00000100
,  // measure 32
00000010
00001000
00000100
00000000
00010000
00000000
00001000
00000000
,  // measure 33
00010000
01000000
00100000
00010000
00100000
01000000
00010000
00000000
,  // measure 34
00001000
00000000
00010000
00000000
00001000
00000100
00000010
00001000
,  // measure 35
00000010
00000100
00001000
00000000
00010000
00000000
00001000
00000000
,  // measure 36
00100000
00000000
01000000
00100000
00000000
00010000
00100000
00000000
,  // measure 37
00001000
00010000
00000100
00000020
,  // measure 38
00000000
00000000
00000031
00000000
00000200
00000000
00000000
00001300
,  // measure 39
00020000
00000000
01030000
10000000
00000000
00010000
10000000
00000000
,  // measure 40
00100000
00000000
01000000
00010000
02000000
00000000
03100000
10000000
,  // measure 41
00000000
00010000
00200000
00000000
02300000
00000000
00000000
03100000
,  // measure 42
00002000
00000000
00013000
00001000
00000000
00000100
00000020
00000000
,  // measure 43
00002030
00000000
00000000
00003100
00020000
00000000
00031000
00010000
,  // measure 44
00000000
01000000
00200000
00000000
00302000
00000000
00013000
00000000
,  // measure 45
00020000
00000000
00030100
00000010
00000000
00000001
00002000
00000000
,  // measure 46
00003001
00000000
00000100
00000010
00002000
00000000
00003100
00010000
,  // measure 47
00000000
00001000
00010000
00000000
01000000
00000000
00100000
00010000
,  // measure 48
20000000
00000000
30100000
01000000
00100000
00010000
00100000
00010000
,  // measure 49
00001000
00000000
00000100
00000000
00000002
00000000
00000013
00000100
,  // measure 50
00000010
00001000
00000010
00001000
00010000
00000000
00001000
00000000
,  // measure 51
00020000
00000000
00000000
00030100
00000000
00000010
00000001
00000000
,  // measure 52
00001000
00000000
00000001
00000100
00000020
00000000
00000000
00000031
,  // measure 53
00000000
00000010
00000100
00000000
00000001
00000000
00000010
00000100
,  // measure 54
00002000
00000000
00000000
00013000
00000000
00001000
00000100
00000000
,  // measure 55
00010000
00000000
00001000
01000000
00020000
00000000
00000000
00031000
,  // measure 56
00000000
00010000
01000000
00000000
00100000
00000000
10000000
00010000
,  // measure 57
00200000
00000000
00000000
00010000
00000000
00000000
01300000
00000000
,  // measure 58
00100000
00000000
00001000
00010000
00002000
00000000
00000000
00010000
,  // measure 59
00000000
00000000
00003100
00000000
00000001
00000000
00000010
00000100
,  // measure 60
00000020
00000000
00000000
00000100
00000000
00000000
00001030
00000000
,  // measure 61
00010000
00000000
01000000
10000000
02000000
00000000
00000000
00010000
,  // measure 62
00000000
03100000
00010000
01000000
,  // measure 63
00100000
10000000
00100000
01000000
00010000
01000000
00001000
01000000
,  // measure 64
00010000
00100000
01000000
00000000
00100000
00000000
00001000
00010000
,  // measure 65
00000000
00000100
00002000
00000000
00000100
00000000
00003100
00000000
,  // measure 66
00000010
00000001
00000010
00000100
00001000
00000100
00010000
00000100
,  // measure 67
00001000
00000010
00000100
00000000
00000010
00000000
00010000
00001000
,  // measure 68
00000000
01000000
00020000
00000000
01000000
00000000
01030000
00000000
,  // measure 69
00100000
00000000
10000000
01000000
10000000
01000000
00100000
00000000
,  // measure 70
00010000
00100000
00010000
00100000
00001000
00000000
00010000
00001000
,  // measure 71
00010000
00001000
00000100
00000000
00000010
00000100
00000010
00000100
,  // measure 72
00000001
00000000
00000010
00000100
00000010
00000000
00001000
00000000
,  // measure 73
00000010
00000100
00000010
00000000
00000100
00000000
00010000
00001000
,  // measure 74
00010000
00100000
00010000
00000000
00001000
00010000
01000000
10000000
,  // measure 75
01000000
00000000
10000000
00100000
10000000
00000000
00100000
00010000
,  // measure 76
00100000
00000000
00010000
00001000
00010000
00000000
00001000
00000100
,  // measure 77
00001000
00000000
00000100
00000001
00000100
00000000
00000001
00000010
,  // measure 78
00000011
00000110
00001100
00010100
,  // measure 79
00011000
00000000
01001000
00000000
00011000
00000000
00010000
00001000
,  // measure 80
00011000
00000000
00010100
00000000
00011000
00000000
00001000
00010000
,  // measure 81
00022000
00000000
00000000
00000000
,  // measure 82
00000000
00000000
00000000
00000000
,  // measure 83
00000000
00000000
00000000
00000000
,  // measure 84
00000000
00000000
00000000
00000000
,  // measure 85
00033000
00000000
00000000
00000000
00011000
00000000
00001000
00010000
,  // measure 86
00000100
00001000
00000200
00000000
00000010
00000000
00001300
00000000
,  // measure 87
00001001
00000001
00000100
00000110
,  // measure 88
00000010
00001000
00001100
00010000
,  // measure 89
00001000
00000000
00000000
00010000
00001000
00010000
00001000
00000000
00000000
00000000
00000000
00000000
01000000
00000000
00000000
00000000
00000000
00000000
00100000
00000000
00000000
10000000
00000000
00000000
,  // measure 90
10010000
00100000
01000000
01100000
,  // measure 91
00000000
00000000
00000000
00000000
00000000
00000000
10000000
01000000
00100000
00010000
10000000
00010000
,  // measure 92
01000000
00000000
00000000
00001000
00010000
00000100
00001000
00000100
00000010
00000001
00000000
00000000
,  // measure 93
00000100
00000000
00000010
00000000
00000100
00000000
00001000
00000000
00010000
00000000
00001000
00000000
00100000
00000000
00000000
00000000
00000000
00000000
01000000
00000000
00000000
10000000
00000000
00000000
,  // measure 94
00100000
01000000
00010000
10000000
01000000
00010000
00002000
00000000
00000000
00000000
00000000
00000000
,  // measure 95
00000000
00000000
00000000
00000000
,  // measure 96
00020000
00000000
00000000
00000000
,  // measure 97
00000000
00000000
00033000
00000000
00010000
00001000
00010000
00000000
,  // measure 98
00000100
00000000
00010000
00001000
00010000
00000000
00000010
00000000
,  // measure 99
00010000
00001000
00010000
01000000
,  // measure 100
00010000
00000000
00001000
00000000
00010000
00000000
00010000
00001000
,  // measure 101
00010000
00000000
00000000
00000000
00000000
00000000
00010000
00000000
00000000
00000100
00000000
00000000
00010000
00000000
00000000
00000000
01000000
00000000
00000000
00000000
10000000
00000000
00000000
00000000
,  // measure 102
00020000
01000000
10000000
02030000
,  // measure 103
00100000
00010000
03200000
01000000
,  // measure 104
00010000
02300000
00010000
03001000
,  // measure 105
00010000
00001000
00011000
00000100
,  // measure 106
00000010
00000000
00000100
00000000
00001000
00000001
00001000
00000001
,  // measure 107
00001000
00000001
00000100
00000000
00001000
00000000
00010000
00000000
,  // measure 108
00100000
00000000
10000000
00100000
10000000
00000000
00010000
00100000
,  // measure 109
00010000
00100000
00001000
00000000
00010000
00000100
00001000
00000100
,  // measure 110
00000010
00000001
00000100
00000000
00001000
00000000
00010000
00000000
,  // measure 111
00001000
00010000
00000100
00001000
00000010
00000000
00010000
00001000
,  // measure 112
01000000
00010000
00100000
00000000
00010000
00100000
01000000
10000000
,  // measure 113
00010000
10000000
00100000
01000000
00010000
00100000
00001000
00000000
,  // measure 114
00011000
00000000
00001000
00010000
00000100
00000000
00000110
00000000
,  // measure 115
00000010
00000001
00000100
00000000
00000110
00000010
00000100
00000000
,  // measure 116
00001000
00010000
00011000
00000000
00001000
00000000
00100000
00000000
,  // measure 117
00001000
00010000
01000000
00100000
00001000
00000000
00010000
00001000
,  // measure 118
00000100
00000010
00010000
00000000
00000100
00001000
00000010
00000100
,  // measure 119
00001000
00010000
00001000
00000100
00000010
00001000
00000100
00010000
,  // measure 120
00001000
00010000
00001000
00000000
00001000
00100000
00001000
00000000
,  // measure 121
00001000
01000000
00001000
00000000
00010000
00001000
00010000
00000000
,  // measure 122
00010000
00000010
00010000
00000000
00010000
00000100
00010000
00000000
,  // measure 123
00011000
00000000
00001000
01000000
00100000
10000000
00010000
00000000
,  // measure 124
10000000
01000000
00100000
00001000
00010000
00000000
00000100
00000010
,  // measure 125
00000001
00001000
00000001
00000100
00000010
00001000
00000100
00010000
,  // measure 126
00011000
00000000
00010000
00000100
00000010
00000001
00001000
00000000
,  // measure 127
00000001
00000100
00000010
00010000
00001000
00000000
01000000
00100000
,  // measure 128
10000000
00010000
10000000
01000000
00100000
00010000
01000000
00001000
,  // measure 129
00010000
00000100
00001000
00000100
00000010
00000001
00001000
00000001
,  // measure 130
00000100
00000001
00000010
00000100
00001000
00000100
00001000
00000100
,  // measure 131
00010000
00001000
00010000
00001000
01000000
00010000
01000000
00010000
,  // measure 132
10000000
00100000
10000000
00100000
10000000
01000000
00100000
00001000
,  // measure 133
00010000
00000000
00000000
00000000
00000100
00000000
00000000
00000000
00000010
00000000
00000000
00000000
00000001
00000000
00000000
00000000
00000100
00000000
00000000
00000000
00000000
00000000
00000000
00000000
00000000
00000000
00000000
00000000
00000000
00000011
00000000
00000000
,  // measure 134
00000000
00000000
00001100
00000000
,  // measure 135
00000000
00000000
00010000
00022000
00000000
00000000
00000000
00000000
,  // measure 136
00000000
00000000
00000000
00000000
,  // measure 137
00000000
00000000
00000000
00033000
;

//---------------dance-double - ----------------
#NOTES:
     dance-double:
     :
     Medium:
     13:
     0.572739,0.901006,0.107732,0.423233,0.026933,521.000000,507.000000,14.000000,55.000000,0.000000,0.000000,0.572739,0.901006,0.107732,0.423233,0.026933,521.000000,507.000000,14.000000,55.000000,0.000000,0.000000:
// measure 0
00000000
00000000
00000000
00000000
,  // measure 1
00000000
00000000
00000000
00000000
,  // measure 2
00000000
00000000
00000000
00000000
,  // measure 3
10000000
00000000
00000000
01000000
00000000
00000000
00100000
00000000
,  // measure 4
00001000
00000000
00010000
00000000
00001000
00000000
00000000
00000100
,  // measure 5
00000000
00000010
00001000
00000001
,  // measure 6
00000010
00000010
00000100
00001000
,  // measure 7
00001000
00000001
00000100
00000100
,  // measure 8
00001000
00010000
00001000
00000100
,  // measure 9
00000001
00000000
00000000
00000010
00000000
00000000
00000100
00000000
,  // measure 10
00010000
00000000
00001000
00000000
00010000
00000000
00000000
00100000
,  // measure 11
00000000
01000000
00010000
10000000
,  // measure 12
01000000
01000000
00100000
00010000
,  // measure 13
00010000
00000000
10000000
00000000
00100000
01000000
00100000
00000000
,  // measure 14
10000000
00100000
10000000
00000000
00010000
10000000
00010000
00000000
,  // measure 15
10000000
00000000
00000000
01000000
00000000
00000000
00010000
00000000
,  // measure 16
00001000
00000000
00010000
00000000
00001000
00010000
00001000
00000000
,  // measure 17
00000100
00000001
00000010
00000100
,  // measure 18
00001000
00001000
00000010
00000001
,  // measure 19
00000001
00000010
00001000
00000100
,  // measure 20
00010000
00001000
00010000
01000000
,  // measure 21
00100000
00010000
00100000
00000000
00001000
00010000
00001000
00000000
,  // measure 22
00010000
00000100
00010000
00000000
00000100
00000010
00000100
00000000
,  // measure 23
00000010
00000001
00001000
00000000
00000001
00000000
00000100
00000000
,  // measure 24
00001000
00001000
00010000
01000000
,  // measure 25
01000000
10000000
00020000
00000000
,  // measure 26
00000000
10030000
00100000
00010000
,  // measure 27
00100000
00000000
10000000
00000000
01000000
00000000
00100000
00001000
,  // measure 28
00010000
00001000
00000010
00000001
,  // measure 29
00000100
00000000
00000010
00010000
00001000
00000000
00010000
00000000
,  // measure 30
00100000
00000000
10000000
00010000
10000000
00000000
01000000
00000000
,  // measure 31
10000000
00010000
10000000
00000000
00100000
00000000
10000000
00000000
,  // measure 32
01000000
00100000
00010000
00000000
00001000
00000000
00000100
00000000
,  // measure 33
00000010
00000000
00000001
00001000
00000000
00000001
00000100
00000000
,  // measure 34
00001000
00000000
00010000
00000000
00100000
00000000
10000000
00010000
,  // measure 35
00000000
10000000
01000000
00000000
00010000
00000000
00001000
00000000
,  // measure 36
00000010
00000000
00001000
00010000
00000000
00000000
00001000
00000000
,  // measure 37
00010000
00000100
00000100
00000020
,  // measure 38
00000000
00000000
00000031
00000000
00000200
00000000
00000000
00001300
,  // measure 39
00020000
00000000
00000000
01030000
,  // measure 40
10000000
00000000
00010000
10000000
00020000
00000000
00000000
00000000
,  // measure 41
00030000
01000000
00100000
00000000
20000000
00000000
30000000
00010000
,  // measure 42
00200000
00000000
00000000
00000000
00300000
01000000
00100000
00000000
,  // measure 43
00002000
00000000
00003000
00010000
00000200
00000000
00000000
00000000
,  // measure 44
00000300
00000010
00000001
00000000
00000100
00000000
00001000
00000000
,  // measure 45
00020000
00000000
00000000
00230000
,  // measure 46
00000000
00000000
00000000
00000000
10300000
00000000
01000000
00100000
,  // measure 47
01000000
00100000
00010000
00000000
00100000
00000000
00000000
00001000
,  // measure 48
00020000
00001000
00001000
00031000
,  // measure 49
00000000
00000000
00000000
00010000
00000200
00000000
00000010
00000000
,  // measure 50
00000010
00000310
00000000
00000000
,  // measure 51
00000002
00000000
00000000
00000010
00000000
00000000
00001003
00000000
,  // measure 52
00000010
00000000
00000100
00000010
00000200
00000000
00000000
00000010
,  // measure 53
00000000
00000000
00001300
00000000
00010000
00000000
00001000
00010000
,  // measure 54
00002000
00000000
00000000
00010000
00000000
00000000
00103000
00000000
,  // measure 55
00010000
00000000
00100000
01000000
20000000
00000000
00000000
00100000
,  // measure 56
00000000
00000000
31000000
00000000
00100000
00000000
00010000
00100000
,  // measure 57
00002000
00000000
00000000
00003200
,  // measure 58
00000000
00000000
00000302
00000000
,  // measure 59
00000000
00000023
00000000
00000000
,  // measure 60
00002030
00000000
00000000
00023000
,  // measure 61
00000000
00000000
02030000
00000000
,  // measure 62
00000000
13000000
00100000
10000000
,  // measure 63
00010000
00100000
00010000
00100000
00010000
00000000
10000000
00000000
,  // measure 64
01000000
00010000
00002000
00000000
,  // measure 65
00000000
00013000
00010000
00000100
,  // measure 66
00001000
00000010
00001000
00000010
00001000
00000000
00000001
00000000
,  // measure 67
00000100
00001000
00020000
00000000
,  // measure 68
00030000
00002000
00020000
00000000
00000000
00000000
00033000
00000000
,  // measure 69
00002000
00000000
00000000
00023000
,  // measure 70
00000000
00000000
02030000
00000000
,  // measure 71
00000000
23000000
00000000
00000000
,  // measure 72
30200000
01300000
00000000
00002000
,  // measure 73
00013000
00000000
00000200
00000310
,  // measure 74
00000000
00000002
00001003
00000000
,  // measure 75
00000001
00000100
00001000
00000100
,  // measure 76
00000010
00000100
00001000
00010000
,  // measure 77
01000000
10000000
01000000
00100000
,  // measure 78
00010000
10000000
10010000
00100000
,  // measure 79
01000000
00000000
01100000
00000000
10010000
00000000
10000000
00010000
,  // measure 80
10000000
00000000
10010000
00000000
10010000
00000000
10000000
01000000
,  // measure 81
00020000
00000000
00000000
00000000
,  // measure 82
00000000
00000000
00000000
00000000
,  // measure 83
00000000
00000000
00000000
00000000
,  // measure 84
00000000
00000000
00000000
00000000
,  // measure 85
00030000
00000000
00000000
00000000
00002000
00000000
00000000
00013000
,  // measure 86
00001000
01000000
00020000
00000000
00000000
00000000
10030000
00000000
,  // measure 87
20000000
01000000
30010000
00020000
,  // measure 88
00100000
10030000
20000000
30200000
,  // measure 89
00310000
00001000
00020000
00000000
00030200
00000000
00000300
00000010
,  // measure 90
00000002
00000103
00000000
00000110
,  // measure 91
00000000
00000000
00000000
00000000
00000001
00000100
00000010
00001000
,  // measure 92
00000100
00000000
00010000
00001000
01000000
00010000
10000000
00000000
,  // measure 93
00100000
10000000
01000000
00100000
00010000
00000000
00001000
00000100
,  // measure 94
00000010
00000001
00000010
00000001
00001000
00000001
00000200
00000000
00000000
00000000
00000000
00000000
,  // measure 95
00000000
00000000
00000000
00000000
,  // measure 96
00000020
00000000
00000000
00000000
,  // measure 97
00000000
00000000
00000330
00000000
00000100
00000010
00000100
00000000
,  // measure 98
00000001
00000000
00000100
00000010
00000100
00000000
00000001
00000000
,  // measure 99
00000100
00001000
00010000
00001000
,  // measure 100
00000100
00000000
00001000
00000000
00010000
00000000
00001000
00010000
,  // measure 101
00001000
00000000
00000000
00000000
00000000
00000000
00010000
00000000
00000000
00001000
00000000
00000000
00010000
00000000
00000000
00000000
00001000
00000000
00000000
00000000
00010000
00000000
00000000
00000000
,  // measure 102
00002000
00010000
00000000
00203000
,  // measure 103
00010000
00000000
02300000
00100000
,  // measure 104
00000000
23000000
00100000
00000000
,  // measure 105
30010000
01000000
00010000
00100000
,  // measure 106
01000000
10000000
00010000
00010000
,  // measure 107
00010000
10000000
10000000
10000000
,  // measure 108
00100000
00000000
00000000
10000000
,  // measure 109
01000000
00000000
00100000
00000000
00001000
00010000
00001000
00000000
,  // measure 110
00010000
00000100
00000010
00000000
00000001
00000000
00001000
00000000
,  // measure 111
00000001
00000000
00000100
00000010
00000100
00000000
00001000
00000000
,  // measure 112
00000100
00000010
00000100
00000000
00000001
00000000
00001000
00000100
,  // measure 113
00010000
00000000
00002000
00000000
00000000
00000100
00000000
00000000
,  // measure 114
00013000
00000000
00001000
00010000
00001000
00000000
01000000
00000000
,  // measure 115
00010000
01000000
00010000
00000000
10000000
01000000
10000000
00000000
,  // measure 116
01000000
00100000
00010000
00000000
10000000
00000000
00100000
00000000
,  // measure 117
10000000
00000000
01000000
00100000
01000000
00000000
00010000
00000000
,  // measure 118
01000000
00100000
01000000
00000000
10000000
00010000
10000000
00000000
,  // measure 119
00100000
00010000
00001000
00010000
,  // measure 120
00000100
00001000
00000100
00000000
00000010
00000100
00000010
00000000
,  // measure 121
00000001
00000010
00000001
00000000
00001000
00000001
00001000
00000000
,  // measure 122
00000010
00001000
00000010
00000000
00010000
00000010
00010000
00000000
,  // measure 123
00011000
00001000
01000000
01001000
,  // measure 124
01000000
00100000
01100000
00100000
,  // measure 125
10000000
00000000
00010000
10000000
01000000
00000000
00010000
00000000
,  // measure 126
00011000
00010000
00000100
00010100
,  // measure 127
00000100
00000010
00000110
00000010
,  // measure 128
00000001
00000000
00001000
00000001
00000100
00000000
00001000
00000000
,  // measure 129
00010000
00001000
00010000
00001000
00010000
00001000
00100000
00010000
,  // measure 130
00100000
00010000
00100000
00010000
10000000
00000000
00100000
00000000
,  // measure 131
00010000
00001000
00000010
00000001
,  // measure 132
00000100
00001000
00010000
01000000
,  // measure 133
10000000
00000000
00000000
00000000
00000000
00000000
00000000
00000000
00100000
00000000
00000000
00000000
00000000
00000000
00000000
00000000
00010000
00000000
00000000
00000000
00000000
00000000
00000000
00000000
00000000
00000000
00000000
00000000
00000000
00010010
00000000
00000000
,  // measure 134
00000000
00000000
00001100
00000000
,  // measure 135
00000000
00000000
00020000
00002000
00000000
00000000
00000000
00000000
,  // measure 136
00000000
00000000
00000000
00000000
,  // measure 137
00000000
00000000
00000000
00033000
;
