#VERSION:0.83;
#TITLE:KIGURUMI;
#SUBTITLE:;
#ARTIST:ALUVI;
#TITLETRANSLIT:;
#SUBTITLETRANSLIT:;
#ARTISTTRANSLIT:;
#GENRE:ANIME IS REAL;
#CREDIT:;
#MUSIC:KIGURUMI.ogg;
#BANNER:banner.png;
#BACKGROUND:bg.png;
#CDTITLE:create_cdtitle.png;
#SAMPLESTART:48.097;
#SAMPLELENGTH:13.500;
#SELECTABLE:YES;
#OFFSET:-0.097;
#BPMS:0.000=160.000;
#STOPS:;
#SPEEDS:0.000=1.000=0.000=0,
163.125=0.900=0.000=0,
163.250=1.000=0.000=0,
163.375=0.900=0.000=0,
163.500=1.000=0.000=0,
163.625=0.900=0.000=0,
163.750=1.000=0.000=0,
164.125=0.900=0.000=0,
164.250=1.000=0.000=0,
164.375=0.900=0.000=0,
164.500=1.000=0.000=0,
164.625=0.900=0.000=0,
164.750=1.000=0.000=0,
164.875=0.900=0.000=0,
165.000=1.000=0.000=0,
165.125=0.900=0.000=0,
165.250=1.000=0.000=0,
165.375=0.900=0.000=0,
165.500=1.000=0.000=0,
165.625=0.900=0.000=0,
165.750=1.000=0.000=0,
166.125=0.900=0.000=0,
166.250=1.000=0.000=0,
166.375=0.900=0.000=0,
166.500=1.000=0.000=0,
166.625=0.900=0.000=0,
166.750=1.000=0.000=0,
166.875=0.900=0.000=0,
167.000=1.000=0.000=0,
167.125=0.900=0.000=0,
167.250=1.000=0.000=0,
167.375=0.900=0.000=0,
167.500=1.000=0.000=0,
167.625=0.900=0.000=0,
167.750=1.000=0.000=0,
168.125=0.900=0.000=0,
168.250=1.000=0.000=0,
168.375=0.900=0.000=0,
168.500=1.000=0.000=0,
168.625=0.900=0.000=0,
168.750=1.000=0.000=0,
168.875=0.900=0.000=0,
169.000=1.000=0.000=0,
169.125=0.900=0.000=0,
169.250=1.000=0.000=0,
169.375=0.900=0.000=0,
169.500=1.000=0.000=0,
169.625=0.900=0.000=0,
169.750=1.000=0.000=0,
170.125=0.900=0.000=0,
170.250=1.000=0.000=0,
170.375=0.900=0.000=0,
170.500=1.000=0.000=0,
170.625=0.900=0.000=0,
170.750=1.000=0.000=0,
170.875=0.900=0.000=0,
171.000=1.000=0.000=0,
171.125=0.900=0.000=0,
171.250=1.000=0.000=0,
171.375=0.900=0.000=0,
171.500=1.000=0.000=0,
171.625=0.900=0.000=0,
171.750=1.000=0.000=0,
179.125=0.900=0.000=0,
179.250=1.000=0.000=0,
179.375=0.900=0.000=0,
179.500=1.000=0.000=0,
179.625=0.900=0.000=0,
179.750=1.000=0.000=0,
180.125=0.900=0.000=0,
180.250=1.000=0.000=0,
180.375=0.900=0.000=0,
180.500=1.000=0.000=0,
180.625=0.900=0.000=0,
180.750=1.000=0.000=0,
180.875=0.900=0.000=0,
181.000=1.000=0.000=0,
181.125=0.900=0.000=0,
181.250=1.000=0.000=0,
181.375=0.900=0.000=0,
181.500=1.000=0.000=0,
181.625=0.900=0.000=0,
181.750=1.000=0.000=0,
182.125=0.900=0.000=0,
182.250=1.000=0.000=0,
182.375=0.900=0.000=0,
182.500=1.000=0.000=0,
182.625=0.900=0.000=0,
182.750=1.000=0.000=0,
182.875=0.900=0.000=0,
183.000=1.000=0.000=0,
183.125=0.900=0.000=0,
183.250=1.000=0.000=0,
183.375=0.900=0.000=0,
183.500=1.000=0.000=0,
183.625=0.900=0.000=0,
183.750=1.000=0.000=0
;
#SCROLLS:0.000=1.000,
159.750=0.000,
159.875=2.000,
160.000=1.000,
161.750=0.000,
161.875=2.000,
162.000=1.000,
163.750=0.000,
163.875=2.000,
164.000=1.000,
165.750=0.000,
165.875=2.000,
166.000=1.000,
167.750=0.000,
167.875=2.000,
168.000=1.000,
169.750=0.000,
169.875=2.000,
170.000=1.000,
171.750=0.000,
171.875=2.000,
172.000=1.000,
174.750=0.000,
174.875=2.000,
175.000=1.000,
175.750=0.000,
175.875=2.000,
176.000=1.000,
177.750=0.000,
177.875=2.000,
178.000=1.000,
179.750=0.000,
179.875=2.000,
180.000=1.000,
181.750=0.000,
181.875=2.000,
182.000=1.000
;
#JACKET:jacket.png;
#BGCHANGES:0.000=bgvideo.avi=1.000=1=0=0=StretchNoLoop==CrossFade==,
208.000=finalbg.png=1.000=0=0=0=StretchNoLoop====
;
#FGCHANGES:;

//--------------- dance-single - FS JU- ----------------
#NOTEDATA:;
#STEPSTYPE:dance-single;
#DESCRIPTION:FS JU-;
#DIFFICULTY:Medium;
#METER:12;
#RADARVALUES:0,0,0,0,0;
#CHARTNAME:Miku less real;
#CREDIT:Create!;
#NOTES:
0000
0000
0000
0000
,
0000
0000
0000
0000
,
0000
0000
0000
0000
,
0000
0000
0000
0000
,
1001
0000
1000
0010
0100
0001
0010
0100
,
1000
0001
1000
0001
0100
0010
1000
0010
,
0110
0000
0001
0010
0100
1000
0010
0100
,
0001
1000
0001
1000
0100
0010
0001
0010
,
0110
0000
1000
0010
0100
0001
0010
0100
,
1000
0001
1000
0001
0100
0010
1000
0001
,
0011
0000
0001
0100
0010
1000
0100
0010
,
0001
1000
0001
1000
0010
0100
0001
1000
,
1100
0000
1000
0010
0100
0001
0010
0100
,
1000
0001
1000
0010
0100
0010
1000
0010
,
0110
0000
0001
0010
0100
1000
0010
0100
,
0001
1000
0001
0010
0100
0010
0001
0010
,
0110
0000
1000
0010
0100
0001
0010
0100
,
1000
0001
1000
0010
0100
0001
1000
0001
,
0011
0000
0000
0000
0001
0000
0100
0000
0001
0000
1000
0000
0100
0010
0100
0010
,
0001
0000
1000
0010
0400
0300
0004
1003
,
0100
0000
0100
0000
,
0100
0000
0000
0000
1000
0010
1000
0000
,
0001
0000
0001
0000
,
0100
0000
0100
0000
0010
0000
0010
1000
,
0100
0010
0001
1000
0010
0100
0001
1000
,
0100
0010
0001
1000
0010
0100
0001
1000
,
0001
0000
0010
0000
0100
0000
1000
0000
0001
1000
0000
0010
0M00
0010
0000
0000
,
0001
0000
1000
0010
0000
0000
0100
0000
0001
0000
0000
0001
0000
0000
0001
0000
,
1000
0000
0000
0000
0100
00M0
0100
0000
0001
0000
0000
0000
0010
0000
0000
0000
,
0001
0000
1000
0000
0001
0000
1000
0000
0010
0000
1000
0000
0100
00M0
0100
0000
,
0002
0000
1000
0010
,
0000
0000
0000
0000
1003
0000
0000
0000
0010
000M
0010
0000
0001
0000
1000
0000
,
0001
0000
0100
0000
0010
0000
1000
0000
0001
1000
0000
0100
00M0
0100
0000
0000
,
0001
0000
1000
0100
0000
0000
0010
0000
0004
0000
0000
0000
0000
0000
0000
0000
,
1003
0000
0000
0000
0010
0M00
0010
0000
0001
0000
1000
0000
0100
0000
0000
0000
,
0010
0000
0001
0000
0010
0000
0001
0000
1000
0000
0001
0000
0100
00M0
0100
0000
,
2000
0000
0001
0010
,
0000
0000
0000
0000
3001
0000
0000
0000
0010
M000
0010
0000
1000
0000
0001
0000
,
1000
0000
0100
0000
0010
0000
0001
0000
1000
0001
0000
0100
00M0
0100
0000
0000
,
1000
0000
0001
0000
1000
0000
0001
0000
0010
0000
0000
0010
0000
0000
0010
0000
,
0400
0000
1300
0004
,
0403
0000
0340
0000
,
4030
0000
3004
0000
,
0013
0000
0100
1000
0100
0000
0010
0000
0001
0000
0100
0000
0100
0000
0000
0000
,
0110
0000
1000
0400
,
0340
0000
0034
0000
,
1003
0000
0010
0000
0100
0000
0001
0000
1000
0001
0000
0010
0M00
0010
0000
0000
,
1000
0000
0001
0010
0000
0000
0100
0000
4000
0000
3000
0000
0004
0000
0003
0000
,
0100
0000
0010
0000
0100
0001
0010
0100
,
1000
0000
0001
0000
0100
0001
0100
0001
,
0010
0000
0100
0000
0010
0001
0100
0010
,
1000
0000
0001
0000
0010
0100
0010
0100
;

//--------------- dance-single - XO- JU- FS GH- ----------------
#NOTEDATA:;
#STEPSTYPE:dance-single;
#DESCRIPTION:XO- JU- FS GH-;
#DIFFICULTY:Hard;
#METER:14;
#RADARVALUES:0,0,0,0,0;
#CHARTNAME:Miku real;
#CREDIT:Create!;
#NOTES:
0000
0000
0000
0000
,
0000
0000
0000
0000
,
0000
0000
0000
0000
,
0000
0000
0000
0000
,
1001
0000
0000
0000
0001
0010
0100
0000
0010
0000
0001
0000
0100
0000
0010
0000
,
1000
0001
1000
0001
0010
0100
0001
0100
,
1100
0000
0000
0000
0001
0100
0010
0000
1000
0010
1000
0000
0100
0010
0001
0000
,
1000
0001
1000
0001
0100
0010
0001
0010
,
1010
0000
0000
0000
0001
0010
0100
0000
1000
0001
1000
0000
0010
0000
0100
0000
,
0001
1000
0001
0010
0100
0010
1000
0010
,
0011
0000
0000
0000
1000
0010
0100
0000
0001
0100
0001
0000
0010
0000
0100
0000
,
1000
0001
1000
0001
0010
0100
0001
0100
,
1100
0000
0000
0000
0001
0100
0010
1000
0010
0000
1000
0000
0100
0000
0010
0000
,
0001
1000
0001
1000
0010
0100
1000
0100
,
0101
0000
0000
0000
1000
0000
0100
0010
0100
0000
1000
0000
0010
0000
0100
0000
,
0001
1000
0001
1000
0100
0010
1000
0010
,
0011
0000
0000
0000
1000
0010
0100
0000
0010
1000
0001
1000
0100
0010
0100
0000
,
1000
0001
1000
0001
0100
0010
0001
0010
,
1010
0000
0000
0000
0001
0010
0100
0000
1000
0001
1000
0000
0010
0100
0010
0100
,
0001
0000
1000
0100
0040
0030
0004
1003
,
0010
0000
0010
1000
,
0001
0000
0000
0000
1000
0100
1000
0000
,
0001
0000
0001
0100
,
0010
0000
0010
0000
1000
0000
1000
0001
,
0010
0100
1000
0001
0100
0010
1000
0001
,
0010
0100
1000
0001
0100
0010
1000
0001
,
1000
0100
0010
0100
1000
0001
1000
0010
0100
0010
1000
0001
1000
0001
0010
0001
,
0100
0000
0010
0000
0100
0000
0001
0000
1001
0000
0000
1100
0000
0000
0110
0000
,
0001
0000
0000
0000
0100
00M0
0100
0000
1000
0000
0000
0000
0010
0000
0000
0000
,
1000
0000
0100
0010
0001
0000
1000
0000
0010
0100
0001
1000
0100
00M0
0100
0000
,
0001
0000
2000
0000
3200
00M0
0000
0000
0001
0000
0000
0000
0010
0000
0000
0000
,
0001
0000
0000
0000
0010
0000
0000
0000
0310
000M
0010
0000
0001
0000
0100
0000
,
0001
0000
0010
0000
0001
0000
1000
0000
0010
1000
0000
0100
00M0
0100
0000
0000
,
0001
0000
1000
0010
0000
0000
0100
0000
0001
1000
0001
0010
0100
1000
0001
0100
,
0001
0000
0000
0000
0010
0M00
0010
0000
1000
0000
0001
0000
0010
0000
0000
0000
,
0001
0000
0100
0010
1000
0000
0001
0000
0010
0100
1000
0001
0100
00M0
0100
0000
,
1000
0000
0002
0000
0203
00M0
0000
0000
1000
0000
0000
0000
0010
0000
0000
0000
,
1000
0000
0000
0000
0010
0000
0000
0000
0310
000M
0010
0000
1000
0000
0100
0000
,
0010
0000
0001
0000
1000
0000
0100
0000
0010
0001
0000
0100
00M0
0100
0000
0000
,
1000
0000
0010
0000
1000
0000
0010
0000
0110
0000
0000
0101
0000
0000
1001
0000
,
1100
0000
0000
0000
0000
0000
0000
0000
1000
0000
0000
0000
0020
0000
0000
0030
,
0021
0000
0000
0000
0000
0000
0000
0030
1020
0000
0000
0000
0000
0000
0000
0030
,
0021
0000
0000
0000
0000
0000
0000
0030
1020
0000
0000
0000
0000
0000
0000
0030
,
0011
0000
0001
1000
0001
0000
1000
0000
0010
0000
1000
0000
1001
0000
0000
0000
,
0011
0000
0000
0000
0000
0000
0000
0000
0001
0000
0000
0000
0200
0000
0000
0300
,
1200
0000
0000
0000
0000
0000
0000
0300
0201
0000
0000
0000
0000
0000
0000
0300
,
0001
0000
0010
0000
0001
0000
1000
0000
0010
1000
0000
0100
00M0
0100
0000
0000
,
0001
0000
1000
0010
0000
0000
0100
0000
0004
0000
0003
0000
4000
0000
3000
0000
,
0100
0000
0010
0000
0100
1000
0010
0100
,
0001
0000
1000
0000
0100
1000
0100
1000
,
0010
0000
0100
0000
0010
1000
0100
0010
,
0001
0000
1000
0000
0010
0100
0010
0100
;
