#TITLE:廻廻奇譚;
#SUBTITLE:;
#ARTIST:Eve;
#TITLETRANSLIT:KAIKAI KITAN;
#SUBTITLETRANSLIT:;
#ARTISTTRANSLIT:;
#GENRE:J-ROCK;
#CREDIT:;
#BANNER:Kaikai Kitan.png;
#BACKGROUND:Kaikai Kitan-bg.png;
#LYRICSPATH:;
#CDTITLE:cdtitle.png;
#MUSIC:Kaikai Kitan.ogg;
#OFFSET:0.266000;
#SAMPLESTART:48.180000;
#SAMPLELENGTH:15.000000;
#SELECTABLE:YES;
#BPMS:0.000000=185.000000
;
#STOPS:
;
#BGCHANGES:0.000=KAIKAI KITAN.avi=1.000=0=0=0=StretchNoLoop==CrossFade_Fastest==,
99999=-nosongbg-=1.000=0=0=0 // don't automatically add -songbackground-
;
#KEYSOUNDS:;
#ATTACKS:;

//---------------dance-single - Daff_4K----------------
#NOTES:
     dance-single:
     Daff_4K:
     Beginner:
     3:
     0.134752,0.217170,0.098713,0.000000,0.000000,86.000000,77.000000,9.000000,0.000000,0.000000,0.000000,0.134752,0.217170,0.098713,0.000000,0.000000,86.000000,77.000000,9.000000,0.000000,0.000000,0.000000:
0000
0000
0000
0000
,
0000
0000
0000
0000
,
0000
0000
0000
0000
,
0000
0000
0000
0000
,
0000
0000
0001
0000
,
0000
0000
1000
0000
,
0000
0000
0010
0000
,
0100
0000
0010
0000
,
0000
0000
1000
0000
,
0000
0000
0001
0000
,
0000
0000
0010
0000
,
0100
0000
0010
0000
,
0000
0000
1001
0000
,
0000
0000
0000
0000
,
1000
0000
0000
0000
,
0100
0000
0000
0000
,
0010
0000
0000
0000
,
0001
0000
1000
0000
,
0001
0000
0000
0000
,
0100
0000
0000
0000
,
0010
0000
0000
0000
,
1000
0000
0001
0000
,
1000
0000
0100
0000
,
1000
0000
0000
0000
,
0100
0000
0000
0000
,
0010
0000
0000
0000
,
0001
0000
0100
0000
,
0001
0000
0000
0000
,
0100
0000
0000
0000
,
0010
0000
0000
0000
,
1000
0000
0000
0000
,
0100
0000
0010
0000
,
0001
0000
0000
0000
,
0100
0000
0010
0000
,
0110
0000
0000
0000
,
0000
0000
0000
0000
,
1000
0000
0001
0000
,
1000
0000
0000
0000
,
1001
0000
0000
0000
,
0110
0000
0000
0000
,
0001
0000
1000
0000
,
0001
0000
0000
0000
,
0100
0000
0000
0000
,
0010
0000
0000
0000
,
1000
0000
0001
0000
,
1000
0000
0000
0000
,
1001
0000
0000
0000
,
0110
0000
0000
0000
,
1000
0000
0001
0000
,
1000
0000
0001
0000
,
0010
0000
0000
0000
,
0100
0000
0000
0000
,
1000
0000
1000
0000
,
0001
0000
0001
0000
,
1001
0000
0000
0000
,
1000
0000
0000
0000
,
0001
0000
0000
0000
,
1000
0000
0000
0000
,
0010
0000
0010
0000
,
0100
0000
0000
0000
,
0110
0000
0000
0000
,
0000
0000
0000
0000
,
0010
0000
0000
0000
,
1000
0000
0000
0000
,
0100
0000
0010
0000
,
0100
0000
0000
0000
,
1001
0000
0000
0000
;

//---------------dance-single - Daff_4K----------------
#NOTES:
     dance-single:
     Daff_4K:
     Easy:
     6:
     0.314943,0.518246,0.186459,0.285172,0.000000,201.000000,184.000000,17.000000,26.000000,0.000000,0.000000,0.314943,0.518246,0.186459,0.285172,0.000000,201.000000,184.000000,17.000000,26.000000,0.000000,0.000000:
0000
0000
0000
0000
,
0000
0000
0000
0000
,
0000
0000
0000
0000
,
0000
0000
0000
0000
,
0000
0000
2000
0100
,
0000
3100
0020
0001
,
0000
0031
1000
0001
,
0100
0100
0010
0010
,
1000
0000
0002
0100
,
0000
0103
0020
1000
,
0000
1030
0001
1000
,
0100
0100
0010
0010
,
0001
0000
2002
0000
,
0000
0000
3003
0000
,
2000
0000
0001
0000
,
0001
0000
3001
0000
,
1000
0100
0010
0000
,
0001
0001
1000
1000
,
0002
0000
1000
0000
,
1000
0000
1003
0000
,
0001
0100
0010
0000
,
1000
0001
1001
0000
,
0002
0000
0103
0000
,
0020
0000
1030
0000
,
0100
0100
0010
0000
,
0001
0100
0010
0010
,
2000
0000
3100
0000
,
0020
0000
0031
0000
,
0100
0100
0010
0000
,
1000
0100
0010
0010
,
0002
0000
0100
0000
,
0103
0001
1000
0001
,
2000
0000
0100
0000
,
3100
1000
0001
1000
,
2002
0000
0000
0000
,
0000
0000
3003
0000
,
1000
0100
1000
0001
,
0100
0001
0000
0110
,
1001
0110
0000
0110
,
1001
0110
0000
0010
,
0100
0001
0010
0100
,
1000
0001
2000
0010
,
3010
0100
0002
0010
,
0013
0100
1000
1000
,
0001
0001
0010
0100
,
1000
0001
0100
1001
,
0110
1001
0000
1001
,
0110
1001
0000
1000
,
1000
0001
0001
0010
,
0100
1000
0010
0100
,
0001
0001
0010
0100
,
1000
1000
0010
0100
,
0001
0010
1000
0010
,
0001
0100
0010
0010
,
2000
0000
0100
0000
,
3100
0010
0001
1000
,
0002
0000
0100
0000
,
0103
0010
1000
0001
,
0010
0010
0100
0100
,
1000
0001
1000
0000
,
2002
0000
0000
0000
,
3003
0000
0000
0000
,
0002
0010
0000
0013
,
2000
0010
0000
3010
,
0001
0001
1000
1000
,
0100
0000
0010
0000
0100
0000
0000
2002
,
0000
0000
0000
0000
,
0000
0000
3003
0000
;

//---------------dance-single - Daff_4K----------------
#NOTES:
     dance-single:
     Daff_4K:
     Medium:
     9:
     0.496701,0.592281,0.416790,0.383886,0.016452,317.000000,279.000000,38.000000,35.000000,0.000000,0.000000,0.496701,0.592281,0.416790,0.383886,0.016452,317.000000,279.000000,38.000000,35.000000,0.000000,0.000000:
0000
0000
0000
0000
,
0000
0000
0000
0000
,
1000
0000
0010
1000
0000
0001
0010
0000
,
0001
0000
0100
0000
0000
0000
0010
0000
1000
0000
0000
0001
0000
0000
1000
0000
,
0000
0000
0000
0000
1001
0000
0001
1000
,
0000
0100
0000
0001
0000
0100
0000
1000
,
0001
1000
0000
0020
0000
0130
0001
0000
,
1001
0000
1000
0200
0000
1300
0001
0000
,
0200
0000
0310
0000
1001
0000
1000
0001
,
0000
0100
0000
1000
0000
0100
0000
0001
,
1000
0001
0000
0020
0000
0130
1000
0000
,
1001
0000
0001
0200
0000
0301
1000
0000
,
0100
0010
0100
0000
2002
0000
0000
0000
,
0000
0000
0000
3003
,
0001
0000
1000
0000
1001
0000
0001
0100
,
0000
0100
0010
0000
0010
1000
0000
1000
,
0100
0000
0100
0010
0000
0010
0001
0000
,
2001
3010
1002
0013
,
0001
0000
1000
0000
0010
0100
0000
0100
,
0001
0000
0010
0100
0000
0100
1000
0000
,
0010
0000
0000
0100
0000
0000
0010
0000
1000
0000
0000
0000
0001
0000
1000
0000
,
0000
0001
0020
0000
0100
0130
0000
0000
,
1000
0000
0001
0000
0100
0010
0000
0010
,
1000
0000
0000
0001
0000
0000
1000
0000
0001
0000
0010
0000
0000
0000
0200
0000
,
0000
0310
0000
0001
1000
0000
0010
0000
,
1002
0013
2001
3010
,
1000
0000
0001
0000
1000
0100
0000
0100
,
0010
0000
0001
0100
0000
0100
0010
0000
,
1000
0001
0000
0010
0100
0000
0010
0001
,
0000
1000
0010
0000
0110
0000
1001
0000
,
0001
0000
0011
0000
0100
1000
0100
0000
,
1000
0001
0100
0000
0010
0000
1001
0000
,
1000
0000
1010
0000
0100
0001
0100
0000
,
0001
1000
0100
0000
0010
0000
0001
0000
,
2002
0000
0000
0000
,
0000
0000
3003
0000
0010
0100
0010
0000
,
1000
0001
0000
1000
0001
0000
0010
0200
,
0000
0010
0310
0000
0001
0000
1000
0001
,
0000
0110
0000
0001
1000
0000
1000
0001
,
0000
0110
0000
0001
1000
0000
0100
0020
,
0000
0031
2000
0000
3010
0000
0002
0000
,
0013
1000
0002
0100
,
1003
0001
2000
0100
,
3001
0000
1000
0000
0001
0000
0100
0010
,
0000
1000
0001
0000
0010
0100
0010
0002
,
0000
1003
0001
0000
1000
0000
0001
1000
,
0000
0110
0000
1000
0001
0000
0001
1000
,
0000
0110
0000
1000
0001
0000
0100
0020
,
0000
1030
0001
0000
0011
0000
0110
0000
,
1100
1010
0110
0101
,
0002
0013
2000
3010
,
0002
0000
1003
0000
0010
0100
0010
0000
,
1000
0100
1000
0000
0001
0100
0001
0000
,
1000
0001
1001
0110
,
1002
0000
0000
0010
0000
0000
1000
0000
,
0000
0103
0000
0010
1000
0000
0001
0000
,
2001
0000
0000
0010
0000
0000
0001
0000
,
0000
3100
0000
0010
0001
0000
1000
0000
,
1010
0000
0000
0101
0000
0000
0011
0000
,
0000
1100
0000
0000
0110
0000
0000
2002
,
0000
0000
0000
0000
,
3003
0000
0000
0000
0000
0000
0000
0001
,
0000
1000
0001
1000
0000
0100
0000
0001
,
0000
0100
0000
1000
0001
1000
0000
0020
,
0000
0130
0001
0000
1001
0000
1000
0200
,
0000
0310
0002
0000
1003
0000
0000
2002
,
0000
0000
0000
0000
,
0000
0000
3003
0000
;

//---------------dance-single - Daff_4K----------------
#NOTES:
     dance-single:
     Daff_4K:
     Hard:
     12:
     0.633020,0.703333,0.592281,0.690994,0.032904,404.000000,350.000000,54.000000,63.000000,0.000000,0.000000,0.633020,0.703333,0.592281,0.690994,0.032904,404.000000,350.000000,54.000000,63.000000,0.000000,0.000000:
0000
0000
0000
0000
,
0000
0000
0000
0000
,
1000
0100
0010
0002
0000
1003
0001
0100
,
0010
0000
2000
0000
0000
0000
3001
0000
0020
0000
0000
0100
0000
0000
0130
0000
,
0000
0000
0000
0000
1001
0000
1000
0200
,
0000
0301
0000
0110
0000
1001
0000
0001
,
0100
0010
1000
0002
0000
1003
0100
0010
,
0002
0000
1003
0020
0000
0130
0010
1000
,
0002
0000
0013
0000
1001
0000
0001
0200
,
0000
1300
0000
0110
0000
1001
0000
1000
,
0100
0010
0001
2000
0000
3001
0100
0010
,
2000
0000
3001
0020
0000
0130
0010
0001
,
2000
3010
2002
0000
,
0000
0000
0000
3003
,
0011
0000
1100
0000
1001
0000
0001
0200
,
0000
0301
2000
0000
3001
0020
0000
0130
,
2000
0000
3010
0200
0000
0301
1000
0200
,
0000
0310
0001
0000
0110
0000
1001
0000
,
0001
1000
0200
0000
1300
0002
0000
1003
,
0020
0000
0130
0002
0000
0013
0200
0000
,
1300
0000
0000
1001
0000
0000
0001
0000
0200
0000
0000
0000
0310
0000
2000
0000
,
0000
3100
0010
0001
1000
1001
0000
0000
,
0001
0100
0020
0000
1030
0200
0000
0310
,
0001
0000
0000
1001
0000
0000
1000
0000
0010
0000
0100
0000
0000
0000
0110
0000
,
0000
1002
0000
0013
0100
2000
0000
3002
,
0000
0103
0010
0000
0110
0000
1001
0000
,
1000
0100
0020
0000
0031
0200
0000
0310
,
2000
0000
3001
0020
0000
0130
2000
0000
,
3010
0200
0000
0301
1000
0100
0010
0002
,
0000
1003
0010
0000
0110
0000
1001
0000
,
1100
0000
0011
0000
0001
0100
1000
0000
,
0100
0010
1000
0100
0010
0001
0100
0000
,
0101
0000
1010
0000
1000
0100
0001
0000
,
0100
0010
0001
0100
0010
1000
0100
0000
,
2002
0000
0000
0000
,
0000
0000
3003
0000
0001
1000
0010
0100
,
0001
0010
1000
0001
0100
1000
0010
0200
,
0000
0301
1000
0001
0010
1000
0010
0001
,
0000
0110
0000
0001
0010
1000
0010
0001
,
0000
0110
0000
0001
0010
0100
1000
0002
,
0000
1003
0010
0100
0001
0010
1000
0020
,
0000
0000
0100
0000
0130
0000
0000
0000
0011
0000
0000
1100
0000
0000
1001
0000
,
0000
0000
0001
0000
0100
0000
0010
0000
1010
0000
0000
0101
0000
0000
1001
0000
,
0000
1000
0100
0010
0001
0100
0010
2000
,
0000
3100
0010
0000
1001
0000
0001
1000
,
0001
0010
0100
1000
0010
0001
0010
1000
,
0000
0110
0000
1000
0010
0001
0010
1000
,
0000
0110
0000
1000
0010
0100
0001
1000
,
1100
0011
0101
1010
,
0110
0000
0000
0000
1001
0000
0000
0000
0001
0000
1000
0001
1000
0000
0020
0000
,
0000
0130
0010
0001
0010
1000
0001
1000
,
0100
0020
0000
0031
1000
0001
0100
0010
,
1000
0100
0001
1000
0010
0001
0100
0010
,
0000
1001
0000
1100
0000
0011
0000
0001
,
2000
0000
3010
0200
0000
0310
2000
0000
,
3001
0020
0000
0130
2000
0000
3010
0000
,
1002
0000
0013
0200
0000
0310
0002
0000
,
1003
0010
0100
0001
1000
0000
1001
0000
,
0001
0010
1000
0001
0100
1000
0010
0001
,
1000
0100
0001
0010
0100
0010
0000
2002
,
0000
0000
0000
0000
0000
0000
0000
3003
,
0000
0010
0010
0000
0100
0100
0000
1001
,
0000
1000
0001
0010
0000
1001
0000
0110
,
0000
1001
0000
0001
1000
0010
0100
0002
,
0000
1003
0001
0010
0200
0000
1300
0002
,
0000
1003
0001
0100
0010
1000
0000
2002
,
0000
0000
0000
0000
,
0000
0000
3003
0000
;

//---------------dance-single - 呪術師 ~The Sorcerer~----------------
#NOTES:
     dance-single:
     呪術師 ~The Sorcerer~:
     Challenge:
     15:
     0.748969,0.888421,0.482599,0.778739,0.246784,478.000000,434.000000,44.000000,71.000000,0.000000,0.000000,0.748969,0.888421,0.482599,0.778739,0.246784,478.000000,434.000000,44.000000,71.000000,0.000000,0.000000:
// measure 0
0000
0000
0000
0000
,  // measure 1
0000
0000
0000
0000
,  // measure 2
0001
0100
0010
2010
0000
3001
1000
0100
,  // measure 3
0010
0000
0012
0000
0000
0000
1003
0000
1010
0000
0000
0101
0000
0000
1001
0000
,  // measure 4
0000
0000
0000
0000
2001
0000
3100
0001
,  // measure 5
0000
0000
0110
0000
0000
0000
1001
0000
0000
0000
0101
0000
0000
0000
0010
1000
,  // measure 6
0001
1000
0100
0020
0000
0032
0100
2003
,  // measure 7
0010
3001
1000
0200
0000
0301
0100
1000
,  // measure 8
0010
0000
0100
0010
0100
0000
0001
0000
1002
0000
0000
0000
0103
0000
1000
0000
,  // measure 9
0000
0000
0110
0000
0000
0000
1001
0000
0000
0000
1100
0000
0000
0000
0010
0001
,  // measure 10
1000
0001
0100
0020
0000
2030
0100
3002
,  // measure 11
0010
1003
0001
0200
0000
1300
0100
0001
,  // measure 12
0010
0100
0010
0000
0001
0000
1000
0000
2002
0000
0000
0000
0000
0000
0000
0000
,  // measure 13
0000
0000
0000
3003
,  // measure 14
1000
0010
0001
0000
0110
0000
2000
0100
,  // measure 15
0000
3002
0100
0000
2003
0010
0000
3002
,  // measure 16
0010
0000
0203
1000
0000
0301
1000
0200
,  // measure 17
0000
0310
0001
1000
1010
0000
0101
0000
,  // measure 18
0001
0020
1000
0000
0032
0100
0000
2003
,  // measure 19
0100
0000
3020
0100
0000
1030
0001
0010
,  // measure 20
0110
0000
0000
1001
0000
0000
1000
0000
0001
0000
0100
0000
0010
0000
2001
0000
,  // measure 21
0000
0000
3100
0010
0100
0000
1000
0000
0001
0000
1001
0000
0000
0000
0000
0000
,  // measure 22
0001
2000
0010
0000
3002
0010
0000
0103
,  // measure 23
0110
0000
0000
1001
0000
0000
1000
0000
0100
0000
0001
0000
0000
0000
0110
0000
,  // measure 24
0000
1002
0000
0103
1000
0100
0010
2000
,  // measure 25
0000
0000
3001
1000
0001
0000
0010
0000
0110
0000
0000
0000
1001
0000
0000
0000
,  // measure 26
0001
0200
1000
0000
0302
0010
0000
2003
,  // measure 27
0010
0000
3002
0100
0000
2003
0100
0000
,  // measure 28
3020
0001
0000
0230
1000
0000
0302
1000
,  // measure 29
0000
0000
0013
0000
0100
0010
0100
0000
1000
0000
0001
0000
0100
0000
0120
0000
,  // measure 30
0000
1030
0002
0000
1003
0001
0020
0000
,  // measure 31
1030
0000
0010
0000
0001
0000
0100
0010
0100
0000
0010
0000
1000
0000
0100
0000
,  // measure 32
0010
0001
2000
0000
3001
1000
0020
0000
,  // measure 33
0031
0000
0010
0000
1000
0000
0100
0010
0100
0000
0010
0000
0001
0000
1000
0000
,  // measure 34
2002
0000
0000
0000
,  // measure 35
0000
0000
3003
0000
0000
0000
1000
0001
0100
0000
0010
0000
1000
0000
0001
0000
,  // measure 36
1000
0100
1000
0000
0100
0000
0010
0001
0010
0000
0001
0000
1000
0000
0020
0000
,  // measure 37
0000
0130
0001
1000
0100
0100
0001
1000
,  // measure 38
0000
0110
0000
1000
0100
0100
0001
1000
,  // measure 39
0000
0110
0000
1000
0100
0001
0100
2000
,  // measure 40
0000
0000
3010
0000
0100
0010
0100
0000
0001
0000
0010
0000
0100
0000
2000
0000
,  // measure 41
0010
0000
3002
0000
0010
0000
1003
0000
0001
0000
0100
0010
0100
0001
1000
0001
,  // measure 42
1000
0000
0100
0000
0001
0000
1000
0000
0010
0000
0001
1000
0000
0001
1000
0000
,  // measure 43
0001
0100
1000
0001
0010
1000
0100
0010
,  // measure 44
0002
0100
2003
0100
3001
1000
0110
1002
,  // measure 45
0000
0000
0103
0010
1000
0000
0001
0000
0100
0000
0100
0000
1000
0000
0001
0000
,  // measure 46
0000
0110
0000
0001
0100
0100
1000
0001
,  // measure 47
0000
0110
0000
0001
0100
1000
0100
0001
,  // measure 48
1000
0001
0020
0100
0032
0100
2003
0100
,  // measure 49
3020
0000
0100
0000
1030
0000
0001
0000
0010
0100
0010
0000
0100
1000
0002
0000
,  // measure 50
0000
0000
0103
0010
0100
0000
0001
0000
1000
0000
0100
0000
0010
0000
0001
0000
,  // measure 51
0100
0000
1000
0000
0100
0000
0001
0000
0010
0100
0010
0000
0001
0000
1000
0000
,  // measure 52
0010
0100
0010
0000
1000
0000
0100
1000
0100
0000
0010
0000
0001
0010
0001
0000
,  // measure 53
1000
0000
0010
1000
0001
0000
0010
0001
1000
0000
0100
1000
0001
0000
0100
0001
,  // measure 54
2000
0000
0100
3200
0000
0010
0320
0000
,  // measure 55
0001
0000
0032
0000
0000
0000
1000
0000
1003
0001
1000
0000
0010
0100
0010
0000
,  // measure 56
2000
0000
0100
3200
0000
0001
0302
0000
,  // measure 57
0100
0000
0103
0000
1000
0000
0001
1000
0001
0000
0100
0000
0010
0000
1000
0000
,  // measure 58
0001
0010
0001
0000
0010
0000
0100
1000
0100
0000
1000
0000
0010
0100
0010
0000
,  // measure 59
1000
0000
0001
0000
0010
0100
0010
0100
1000
0000
0001
0000
0100
0000
2002
0000
,  // measure 60
0000
0000
0000
0000
0000
0000
0000
3003
,  // measure 61
0000
0001
0101
0000
1000
1100
0000
1002
,  // measure 62
0000
0103
0010
1000
0000
1001
0000
0011
,  // measure 63
0000
0000
1100
0000
0000
0000
1000
0001
1000
0000
0001
0000
0100
0000
0020
0000
,  // measure 64
0000
2030
0100
3002
0100
0013
0100
2001
,  // measure 65
0000
0000
3010
0000
0110
0000
0100
0001
1000
0000
0001
1000
0100
0010
0200
0000
,  // measure 66
0000
0000
0000
0000
,  // measure 67
0000
0000
0300
0000
;
