#TITLE:Judge's Paradox;
#SUBTITLE:;
#ARTIST:dj VERTICAI;
#TITLETRANSLIT:;
#SUBTITLETRANSLIT:;
#ARTISTTRANSLIT:;
#GENRE:;
#CREDIT:;
#BANNER:Judge's Paradox.png;
#BACKGROUND:Judge's Paradox-bg.png;
#LYRICSPATH:;
#CDTITLE:;
#MUSIC:Judge's Paradox.ogg;
#OFFSET:-0.018458;
#SAMPLESTART:24.635071;
#SAMPLELENGTH:15.000000;
#SELECTABLE:YES;
#BPMS:0.000000=156.000000
;
#STOPS:
;
#BGCHANGES:;
#KEYSOUNDS:;
#ATTACKS:;

//---------------dance-single - ----------------
#NOTES:
     dance-single:
     :
     Beginner:
     4:
     0.188883,0.247425,0.139177,0.000000,0.000000,171.000000,153.000000,18.000000,0.000000,0.000000,0.000000,0.188883,0.247425,0.139177,0.000000,0.000000,171.000000,153.000000,18.000000,0.000000,0.000000,0.000000:
0000
0000
0000
0000
,
0000
0000
0000
0000
,
0000
0000
0000
0000
,
0000
0000
0000
0000
,
1000
0000
0100
0000
,
0001
0000
0100
0000
,
0110
0000
1001
0000
,
0001
0001
0001
0000
,
0010
0000
0001
0001
,
0000
0000
1000
1000
,
0000
0000
0010
0000
,
0010
0000
0010
0000
,
0000
1001
0000
1000
,
0000
1000
1000
1000
,
0000
0001
0000
0001
,
0000
0001
0001
0000
,
1001
0000
0001
0000
,
1001
0000
1000
0000
,
0110
0000
0100
0000
,
0010
0010
0010
0000
,
1001
0000
0100
0000
,
1001
0000
0010
0000
,
1001
0000
1000
0000
,
0001
0001
0001
0000
,
1001
0000
0001
0000
,
1001
0000
0010
0000
,
0010
0010
0010
0000
,
0100
0000
0010
0000
,
1001
0000
1000
0000
,
1001
0000
0010
0000
,
1000
1000
1000
0000
,
0001
0001
0001
0000
,
1001
0000
0000
0000
,
1000
0000
0000
0000
,
0001
0000
0000
0000
,
0010
0000
0000
0000
,
0100
0000
0100
0000
,
0010
0000
0010
0000
,
0001
0000
1000
0000
,
0010
0000
0000
0010
,
0000
0000
0010
0000
,
1001
0000
0000
0000
,
0001
0001
0001
0000
,
1000
1000
1000
0000
,
0010
0000
0010
0000
,
0100
0100
0010
0010
,
1000
0000
0001
0000
,
0010
0010
0010
0000
,
0001
0001
0100
0100
,
0001
0000
0010
0000
,
0100
0000
0000
0000
,
0100
0000
0000
0000
,
1000
0000
0000
0000
,
0001
0000
1000
0000
,
0001
0000
0000
0000
,
1000
0000
0000
1000
,
1000
0000
0000
0000
,
0010
0000
0010
0010
,
1001
0000
0000
0000
,
1000
0000
0001
0000
,
1000
0000
0100
0000
,
0001
0000
0100
0000
,
1000
0000
0010
0000
,
0001
0000
0010
0000
,
0010
0000
1000
0000
,
0001
0001
1000
0000
,
0000
0100
1000
0000
,
0001
0000
0110
0000
,
1000
0000
0000
0000
,
0100
0000
0000
0000
,
0010
0000
0000
0000
,
0001
0000
0000
0000
,
0001
0100
0001
0000
,
0010
0010
0100
0000
,
0100
0010
0100
0000
,
1001
0000
0000
0000
,
0010
0000
0000
0000
,
0001
0000
0000
0000
,
0010
0000
0010
0000
,
0001
0000
1000
0000
,
0100
0000
0000
0000
;

//---------------dance-single - ----------------
#NOTES:
     dance-single:
     :
     Easy:
     9:
     0.310386,0.407092,0.085052,0.185569,0.023196,281.000000,270.000000,11.000000,24.000000,0.000000,0.000000,0.310386,0.407092,0.085052,0.185569,0.023196,281.000000,270.000000,11.000000,24.000000,0.000000,0.000000:
0000
0000
0000
0000
,
0000
0000
0000
0000
,
0000
0000
0000
0000
,
0000
0000
0000
0000
,
1000
0001
1000
0000
0010
0100
0001
0000
,
1000
0010
1001
0000
,
0001
0000
0010
0000
1000
0010
0100
0000
,
1000
0001
1000
1000
,
1001
0000
1000
0100
0010
0000
0002
0000
,
0003
0000
0001
0100
0010
0000
2000
0000
,
3000
0000
1000
0001
1000
0000
0200
0000
,
0320
0000
0000
0030
,
0001
0000
0000
0000
1001
0000
0000
0001
0100
0000
0000
0000
0001
0000
0000
1000
,
0100
0000
0000
0000
1000
0000
0000
0001
0100
0000
0000
0000
0020
0000
0000
0000
,
1030
0000
0000
0000
1000
0000
0000
0001
0100
0000
0000
0000
0001
0000
0000
1000
,
0100
0000
1000
0100
0020
0000
0030
0000
,
1001
0000
0001
0001
,
1001
0000
1000
1000
,
0010
0000
0010
0000
,
0100
0000
0010
0000
,
1001
0000
0100
0100
,
1001
0000
0010
0010
,
0100
0000
0100
0000
,
1000
0000
0001
0000
,
2000
0010
3001
0000
,
0002
0100
1003
0000
,
0001
0100
0010
1000
,
0100
0010
0100
1000
,
0002
0010
1003
0000
,
2000
0100
3001
0000
,
1000
0100
1000
0000
,
0001
0100
0001
1000
,
0100
0000
0010
0000
,
0001
0000
1000
0000
,
0010
0000
1000
0000
,
0001
0000
0100
0000
,
0100
0100
0100
0000
,
0010
0010
0010
0000
,
2000
3000
0002
0003
,
0010
0000
0000
0010
0000
0000
0010
0000
,
0000
0010
0000
0000
0100
0000
1000
0000
,
0002
0000
0000
0003
,
0001
1000
0100
0010
,
0100
0100
1000
0010
,
1000
0001
0100
0010
,
0100
0100
0001
0010
,
0001
0010
1000
0010
,
0001
0100
0010
0010
,
1000
0010
0100
0001
,
0010
0001
0010
0000
0200
0000
0300
0000
,
0100
1000
0001
0100
,
0100
0001
1000
0100
,
1000
0001
0001
1000
,
0001
0100
0010
1000
,
2002
3003
0001
0100
,
0010
1000
0001
0010
,
0020
0030
0001
1000
,
0010
0100
0010
0010
,
2002
0000
0000
3003
,
1000
0000
0000
0100
0000
0000
0010
0000
,
0001
0000
1000
0000
0010
0100
0001
0000
,
1000
0000
0001
0000
0010
0100
1000
0000
,
0001
0000
0100
0000
0010
0100
0001
0000
,
1000
0000
0000
0000
0100
0000
0000
0000
0010
0000
0000
0010
0000
0000
0010
0000
,
0010
0100
1000
0001
,
1000
0000
0020
0000
0130
0000
0001
0002
,
0000
1003
0100
0010
,
0200
1300
0002
0103
,
0001
0010
0100
0000
,
1000
0010
0100
0100
,
0001
1000
0010
0010
,
0100
0001
1000
1001
,
0001
0100
0001
0001
,
0010
0010
0100
0010
,
0100
1000
0100
0010
,
1001
0000
0000
1000
0000
0001
0000
0000
,
1000
0010
1000
0000
,
0001
0010
0001
0000
,
0010
0100
0010
0100
,
1000
0001
1000
0001
,
0200
0000
0000
0000
,
0300
0000
0000
0000
;

//---------------dance-single - ----------------
#NOTES:
     dance-single:
     :
     Medium:
     12:
     0.465027,0.538923,0.355674,0.154641,0.096650,421.000000,375.000000,46.000000,20.000000,0.000000,0.000000,0.465027,0.538923,0.355674,0.154641,0.096650,421.000000,375.000000,46.000000,20.000000,0.000000,0.000000:
0000
0000
0000
0000
,
0000
0000
0000
0000
,
0000
0000
0000
0000
,
0000
0000
0000
0000
,
1000
0100
0010
0001
0100
1000
0100
0010
,
1000
0000
0000
0100
0000
0000
0001
0000
0200
0000
0000
0000
0310
0000
0000
0000
,
0110
0000
0001
0000
1000
0010
0100
0000
,
0001
1000
0001
0000
0100
0010
1000
0000
,
0010
0000
0000
0000
1001
0000
0000
0000
0001
0000
0000
0001
0000
0000
0100
0000
,
0010
0000
0100
0000
0110
0000
0000
0000
1000
0000
0000
1000
0000
0000
0100
0000
,
0010
0000
0100
0000
0110
0000
0000
0000
0001
0000
0000
0001
0000
0000
1000
0000
,
0020
2030
3002
0013
,
0110
0000
0000
0000
1001
0000
0000
0001
0100
0000
0010
0000
0010
0000
0000
1000
,
0100
0000
0010
0000
0010
0000
0000
0001
0100
0000
0010
0000
0020
0000
0000
0000
,
1030
0000
0001
0000
1000
0000
0000
0001
0100
0000
0010
0000
1000
0000
0100
0000
,
0001
0100
1000
0010
0001
0000
0110
0000
,
1010
1000
0010
0100
,
0101
0001
0010
0100
,
0110
0110
0110
0110
,
0001
1000
0010
0010
,
1001
0000
0001
0000
1000
0100
1000
0000
,
1001
0000
1000
0000
0001
0010
0001
0000
,
0110
0110
0110
0110
,
1000
0100
0010
0011
,
1002
0100
0010
0103
,
2001
0100
0010
3100
,
0001
0000
1001
0000
1000
0010
0100
0001
,
0010
0000
0001
0010
0100
1000
0010
0000
,
0120
0000
1000
0000
0130
0001
0010
0000
,
0120
0000
0001
0000
0130
1000
0010
0000
,
1001
0000
0001
1000
0100
0000
0010
0000
,
0011
0000
1100
0000
0001
1000
0001
0000
,
0001
0000
0001
0000
,
1000
0000
1000
0000
,
0010
0000
0010
0000
,
0100
0000
0100
0010
,
1000
1000
0001
0001
,
0010
0001
0010
0000
0100
1000
0100
0000
,
2000
3000
0002
0003
,
1000
0000
0100
0010
0000
0010
0001
0000
,
1000
0010
0000
0010
0100
0000
0100
0001
,
2000
0000
0000
0000
,
3001
0000
0010
0001
0000
0000
0010
0000
0100
0000
1000
0100
0000
0000
1000
0000
,
0001
0000
0100
0010
0000
0000
0100
0000
0001
0000
0000
0000
0010
0000
0100
0000
,
1000
0000
0010
1000
0000
0000
0010
0000
0100
0000
0001
0100
0000
0000
0001
0000
,
0010
0000
0100
0010
0000
0000
0100
0000
1000
0000
0001
1000
0000
0000
0001
0000
,
0100
0000
0001
0010
0000
0000
0001
0000
1000
0000
0010
1000
0000
0000
0100
0000
,
0010
0000
0001
1000
0000
0000
0001
0000
0100
0000
0000
0000
0010
0000
1000
0000
,
0001
0000
1000
0010
0100
0010
1000
0100
,
0010
0100
0100
0000
1100
0000
0101
0000
,
1000
0010
0100
0001
,
1000
0100
1000
0000
0001
0000
1000
0000
,
0001
0010
0100
1000
,
0001
0100
0001
0000
1000
0000
0010
0000
,
1000
1100
0100
0110
,
0010
0000
0011
0000
0001
0100
0010
0000
,
1000
1010
0010
0110
,
0100
0000
0101
0000
0001
0010
0100
0000
,
2002
0000
0000
3003
,
1000
0001
0000
0001
0010
0000
0010
0100
,
1000
0010
0100
0000
0001
1000
0100
0000
,
1000
0100
0010
0000
0001
1000
0010
0000
,
0100
0010
1000
0000
0001
0010
0100
0000
,
0100
0000
0010
0000
0001
0000
0000
0000
1000
0000
0000
0010
0000
0000
0100
0000
,
0010
0000
1000
0000
0010
0000
0000
0000
1000
0000
0000
0100
0000
0000
0010
0000
,
0001
0000
0002
0000
1003
0000
0010
0200
,
0000
0310
0100
0000
0001
0000
0010
0000
,
0002
0103
0020
0130
,
0001
0000
0000
0100
0000
0000
0000
0010
0000
0000
1000
0000
0001
0000
0000
0000
,
1000
0000
0000
0100
0000
0000
0000
0010
0000
0000
0001
0000
1000
0000
0000
0000
,
1001
0000
0000
1010
0000
0000
0101
0000
,
1001
0000
0000
0011
0000
0000
1100
0000
,
1000
0001
0010
0000
0100
0010
0001
0000
,
1000
0000
0010
0000
0100
0010
0100
0000
,
0001
1000
0100
0000
0010
0000
0100
0000
,
1000
0000
0000
1000
0000
0000
1000
0000
0000
0000
0001
0000
0000
0000
0000
0000
,
1000
0010
0101
0000
,
0001
0010
1100
0000
,
0001
0001
1000
1000
,
0001
0100
0010
1000
,
2002
0000
0000
0000
,
0000
0000
0000
0000
,
3003
0000
0000
0000
;

//---------------dance-single - ----------------
#NOTES:
     dance-single:
     :
     Hard:
     14:
     0.646177,0.760833,0.270621,0.278353,0.347942,585.000000,550.000000,35.000000,36.000000,0.000000,0.000000,0.646177,0.760833,0.270621,0.278353,0.347942,585.000000,550.000000,35.000000,36.000000,0.000000,0.000000:
0000
0000
0000
0000
,
0000
0000
0000
0000
,
0000
0000
0000
0000
,
0000
0000
0000
0000
,
0001
0000
0100
0000
0001
1000
0100
0000
0001
0000
0100
0000
1000
0010
0100
0000
,
1000
0000
0001
0000
0010
0000
1000
0000
0200
0000
0000
0000
1300
0000
0001
1000
,
0100
0000
0000
0000
0010
0000
0100
0010
0001
0000
1000
0010
0000
0000
0100
0000
,
0001
0000
0010
0000
1000
0000
0010
0000
0001
0000
0000
0001
0010
0000
0100
0000
,
1000
0000
0000
0000
1001
0000
0001
0100
0020
0000
0000
2030
0000
0000
3100
0000
,
0100
0000
1100
0000
1001
0000
1000
0010
0200
0000
0000
0302
0000
0000
0013
0000
,
0010
0000
0011
0000
1001
0000
0001
0100
0010
0000
1000
0100
0000
0100
0010
0000
,
0210
0001
0010
1300
,
1000
0000
0100
0000
1001
0000
0000
0001
0100
0000
0100
0000
0010
0000
0000
1000
,
0100
0000
0100
0000
0010
0000
0000
0001
0100
0000
0100
0000
0010
0000
1000
0100
,
0010
0000
0001
0000
1000
0000
0000
0001
0010
0000
0010
0000
0100
0000
1000
0010
,
0100
0001
0101
1000
1100
0000
1001
0000
,
0101
0000
0000
0001
1000
0000
1000
0000
0100
0000
0010
0000
0100
0000
0010
0000
,
0011
0000
0000
0010
0001
0000
0001
0000
0100
0000
0010
0000
0100
0000
0010
0000
,
0110
1001
0110
1001
,
0010
1000
0100
0000
0010
0100
0100
0010
,
1001
0000
0000
1000
0001
0000
0001
0000
1000
0000
0100
0000
0001
0000
0100
0000
,
0110
0000
0000
0100
1000
0000
1000
0000
0001
0000
0100
0000
1000
0000
0100
0000
,
0110
1001
0110
1001
,
0001
0000
0100
0000
0010
0000
0000
0010
1000
0000
0100
0000
0110
0000
0000
0000
,
1001
0000
0000
0000
0001
0000
0100
0000
0001
0000
0100
0001
1000
0000
1000
0000
,
0100
0000
0000
0000
1000
0000
0100
0000
1000
0000
0100
1000
0001
0000
0001
0000
,
0100
0010
0100
0001
1000
0100
0010
0001
,
0200
0000
0000
0000
0310
0000
0100
0000
0001
0000
1000
0001
1000
0000
0001
0000
,
0011
0000
0000
0000
0001
0000
0010
0000
1000
0000
0010
0000
0001
0000
1000
0100
,
1000
0000
0000
0000
1000
0000
0010
0000
0001
0000
0010
0000
1000
0000
0001
0100
,
0001
0000
0000
0000
1000
0000
0001
0000
0100
0000
0000
0010
0000
0000
0010
0000
,
1010
0000
0000
0000
0011
0000
0000
0000
1000
0000
0001
1000
0001
0000
0000
0000
,
0020
0032
1003
1000
,
0020
2030
3001
0001
,
0200
0302
1003
1000
,
0200
0000
0000
0000
1300
0000
0000
0000
1000
0001
0000
1000
0001
0000
0100
0000
,
0002
0000
0023
1000
,
0001
0100
0230
0001
,
1300
0100
0001
0010
,
1000
0100
0100
0001
0100
0100
1000
0010
,
0010
0000
0001
0000
0010
0000
0010
0000
1000
0000
0100
0000
0010
0001
1000
0001
,
2000
0000
0000
0000
,
3001
0000
0100
0010
0000
0100
0001
0000
1000
0000
0100
0010
0000
0100
1000
0000
,
0001
0000
1000
0100
0000
0010
0001
0000
1000
0000
0000
0010
0100
0000
0100
0000
,
0001
0000
0010
0100
0000
0010
0001
0000
1000
0000
0010
0100
0000
0010
1000
0000
,
0001
0000
0010
0100
0000
1000
0001
0000
0100
0000
0010
1000
0000
0001
1000
0000
,
0100
0000
0010
0001
0000
0100
0001
0000
0100
0000
0010
1000
0000
0100
1000
0000
,
0001
0000
0010
0100
0000
1000
0001
0000
0100
0000
0000
0010
1000
0000
1000
0000
,
1000
0000
0000
0000
0100
0000
0010
0000
0001
0100
0001
0000
1000
0100
1000
0000
,
0001
0100
1000
0001
0010
1000
0001
0000
,
1000
0000
1000
0000
0100
0010
0100
0000
1000
0000
0001
0000
0001
0000
0000
0000
,
0100
0100
0100
0100
1000
0100
0010
0100
,
0001
0000
0010
0100
0010
0000
0010
0000
1000
0000
0010
0000
0100
0000
0000
0000
,
0001
0100
1000
0001
0100
1000
0200
0000
,
0301
0000
1000
0000
0100
0000
0010
0001
1000
0000
0001
0000
0100
0000
0010
0000
,
0100
0000
0100
0000
0001
0000
1000
0100
0010
0000
0001
1000
0020
0000
0000
0000
,
0130
0000
0001
0000
1000
0000
0001
0010
0100
0000
0100
0000
1000
0000
0001
0100
,
0002
0023
2030
3002
0203
2300
3020
0230
,
0302
0000
0000
0003
,
1000
0010
0000
0010
0100
0000
0010
0100
0000
0100
0001
0000
1000
0000
0001
0000
,
1000
0000
0010
0000
0100
0000
0001
0000
1000
0000
0100
0010
0000
0100
0010
0000
,
0001
0000
0100
0000
0010
0000
1000
0000
0001
0000
0010
0100
0000
0100
1000
0000
,
0001
0000
0010
0000
0100
0000
1000
0000
0001
0000
0100
0010
0000
0100
0010
0000
,
1000
0000
0100
0000
0010
0000
0001
0000
0100
0001
0000
0010
0001
0000
1000
0000
,
0100
0000
0010
0000
0001
0000
1000
0000
0010
0000
0000
0001
0000
0000
0010
0000
,
0100
0000
2000
0000
3100
0001
0010
0200
,
0000
0310
0001
1000
0010
0000
0110
0000
,
2001
3010
0201
0310
,
0001
0000
0000
1000
0000
0010
0000
0100
0000
0000
0001
0000
0010
0000
0100
0000
,
1000
0000
0000
0001
0000
0100
0000
1000
0000
0000
0100
0000
0001
0000
1000
0000
,
0010
0000
1000
0000
0100
0000
0010
0000
0001
0000
0000
1000
0000
0000
0010
0000
,
0100
0001
0010
0200
0001
0000
0010
0000
,
1300
0000
0001
0000
0100
0000
0010
0000
1000
0000
0100
0000
0010
0001
0010
0000
,
0100
0000
1000
0000
0001
0000
0100
0000
0001
0000
1000
0000
0010
1000
0010
0000
,
0100
1000
0100
0001
1000
0100
0010
0001
,
0100
0000
0000
0100
0000
0000
0100
0000
0000
0000
0010
0000
1000
0001
1000
0000
,
1000
0010
0001
0000
1010
0000
0001
0000
,
0001
0010
1000
0000
0011
0000
1000
0000
,
0010
1010
0011
1100
,
0001
1000
0100
0000
1000
0001
0100
0000
,
0020
0000
0000
0000
,
0200
0000
0000
0000
,
0330
0000
0000
0000
;

//---------------dance-single - ----------------
#NOTES:
     dance-single:
     :
     Challenge:
     16:
     0.799714,0.919339,0.340210,0.340210,0.715214,724.000000,680.000000,44.000000,44.000000,0.000000,0.000000,0.799714,0.919339,0.340210,0.340210,0.715214,724.000000,680.000000,44.000000,44.000000,0.000000,0.000000:
// measure 0
0000
0000
0000
0000
,  // measure 1
0000
0000
0000
0000
,  // measure 2
0000
0000
0000
0000
,  // measure 3
0000
0000
0000
0000
,  // measure 4
1000
0000
0001
0000
0100
0001
1000
0010
1000
0000
0001
0000
0010
0100
1000
0001
,  // measure 5
0100
0000
0001
0000
1000
0100
0001
0000
0100
0010
0100
0010
0001
1000
0010
0100
,  // measure 6
0001
0000
1000
0010
0001
0000
0010
0100
0001
0000
1000
0100
1000
0000
0001
0000
,  // measure 7
1000
0000
0001
0000
0101
0000
0100
0000
0010
0000
0000
0001
0000
0000
0010
0000
,  // measure 8
1000
0000
0001
0000
1001
0000
0001
0100
0010
1000
0001
1000
0100
0000
0010
0000
,  // measure 9
0001
0000
0011
0000
1001
0000
1000
0010
0100
0001
1000
0001
0010
0000
0100
0000
,  // measure 10
1000
0000
1100
0000
1001
0000
0001
0100
0010
1000
0100
0010
0001
0000
1000
0000
,  // measure 11
0020
1000
0100
0031
,  // measure 12
1000
0000
0001
0000
1001
0000
0000
1000
0010
0100
0010
0000
0001
0000
0000
0010
,  // measure 13
0100
0010
1000
0000
0001
0000
0000
1000
0010
0100
0010
0000
0001
0000
0010
0000
,  // measure 14
1000
0000
0001
0000
0011
0000
0000
0001
0010
0100
0010
0000
1000
0000
0000
0010
,  // measure 15
0100
0010
0001
0000
1000
0000
0100
0000
0110
0000
0110
0000
1001
0000
0000
0000
,  // measure 16
0011
0000
0000
1000
0100
0000
0010
0000
0001
0000
0100
0000
1000
0000
0100
0000
,  // measure 17
0101
0000
0000
1000
0010
0000
0100
0000
0001
0000
0010
0000
1000
0000
0010
0000
,  // measure 18
0011
1100
0011
1100
,  // measure 19
0001
0000
0010
0100
0010
0000
0001
0000
0100
0000
0010
0000
0220
0000
0330
0000
,  // measure 20
0101
0000
0000
0001
0010
0000
0001
0000
0100
0000
0001
1000
0001
0000
0010
0000
,  // measure 21
0110
0000
0000
0100
1000
0000
0100
0000
0010
0000
0001
0100
0001
0000
1000
0000
,  // measure 22
1010
0101
1010
0101
,  // measure 23
0100
0000
0001
1000
0001
0000
0010
0000
0001
0100
0001
0000
2002
0000
3003
0000
,  // measure 24
0002
0000
0000
0000
1003
0001
1000
0001
0100
0000
0100
0000
0001
0100
0010
1000
,  // measure 25
0001
0000
0000
0000
0001
1000
0001
1000
0100
0000
0100
0000
1000
0100
0010
0001
,  // measure 26
1000
0000
1000
0000
0001
0000
0001
0000
1000
0010
0100
0001
1000
0001
0010
0100
,  // measure 27
2000
0000
0000
0000
3001
0000
0100
0000
0010
0000
1000
0001
1000
0000
0000
0000
,  // measure 28
1001
0000
0000
0000
0001
0010
0001
0010
0100
0000
0100
0000
0010
0001
1000
0001
,  // measure 29
0100
0000
0000
0000
0010
1000
0010
1000
0100
0000
0100
0000
0010
0001
1000
0001
,  // measure 30
0010
0000
0100
0000
1000
0000
0001
0000
0100
0000
0010
1000
0000
0010
1000
0000
,  // measure 31
1010
0000
0000
0000
0011
0000
0000
0000
1001
0000
0001
1000
0001
0000
0000
0000
,  // measure 32
1002
0100
0010
0010
,  // measure 33
2003
0100
0010
0010
,  // measure 34
3002
0010
1000
1000
,  // measure 35
2003
0000
0000
0000
0010
0000
0000
0000
3001
0010
0000
1000
0010
0000
0001
0000
,  // measure 36
2000
0000
0000
0000
3020
0000
0130
0001
,  // measure 37
1000
0100
0001
0100
2000
0000
0010
0000
,  // measure 38
3002
0000
0000
0023
0000
0000
0230
0000
2300
0000
0000
3020
0000
0000
0230
0000
,  // measure 39
0301
0100
0010
0100
0002
0000
1003
0100
0010
0100
2000
0000
3001
0010
0100
0010
,  // measure 40
0002
0000
1003
0010
0100
0010
2000
0000
3001
0010
0100
1000
0100
0010
0001
1000
,  // measure 41
0002
0000
0000
0000
,  // measure 42
1003
0000
0001
0010
0000
0001
0100
0000
0001
0000
1000
0010
0000
1000
0100
0000
,  // measure 43
0010
0000
0001
0100
0000
0010
1000
0000
0001
0000
1000
0100
0010
0100
1000
0001
,  // measure 44
1000
0000
0010
0100
0000
0001
0100
0000
0001
0000
0010
0100
0000
1000
0100
0000
,  // measure 45
0010
0000
0001
1000
0000
0001
1000
0000
0010
0000
0100
0010
0000
0100
0010
0000
,  // measure 46
1000
0000
0100
0010
0000
0001
1000
0000
0001
0000
0100
0010
0000
1000
0001
0000
,  // measure 47
1000
0000
0100
0010
0000
0001
1000
0000
0010
0000
0100
0001
0010
0001
0100
0010
,  // measure 48
1000
0000
0010
0100
0001
0000
0010
0001
0100
0010
0100
0001
1000
0001
0010
0100
,  // measure 49
0010
0000
0001
0100
1000
0000
1000
0100
0001
0000
0010
0000
0011
0000
0000
0000
,  // measure 50
1100
0000
0000
0100
0000
0000
1000
0000
0000
1000
0000
0000
0100
0000
0000
0001
0000
0000
0100
0000
0010
0000
0001
0000
,  // measure 51
1000
0000
0001
0000
1000
0010
1000
0010
1000
0000
0001
0000
0200
0000
0000
0000
,  // measure 52
1300
0000
0100
0000
0010
0100
0010
0000
1000
0000
0100
0000
0010
0100
0010
0000
,  // measure 53
0001
0100
1000
0001
0010
1000
1001
0000
,  // measure 54
0101
0000
0100
0000
1000
0000
0100
0010
1000
0000
0100
0000
0001
0000
0100
0010
,  // measure 55
0001
1000
0001
0000
0100
0000
0001
0010
0100
0000
1000
0000
1001
0000
0001
0000
,  // measure 56
0101
0000
0100
0000
0010
0000
1000
0100
0001
0000
0100
0000
0010
0000
0001
1000
,  // measure 57
0002
0203
2300
3002
2003
3200
0302
1003
,  // measure 58
2002
0000
0000
3003
,  // measure 59
1000
0100
0010
0001
1000
0000
0001
0100
0010
1000
0001
0000
1000
0100
0010
0100
,  // measure 60
1000
0000
0100
0000
0010
0100
1000
0000
0010
0100
0001
1000
0000
1000
0001
0000
,  // measure 61
1000
0000
0001
0000
0100
0010
1000
0000
0100
0010
0001
1000
0000
1000
0001
0100
,  // measure 62
0001
0000
0010
0000
0100
0010
0001
0000
0100
0010
1000
0001
0000
0001
1000
0000
,  // measure 63
0001
0000
0100
0000
0010
0100
0001
0000
0010
0001
1000
0010
1000
0001
0010
0001
,  // measure 64
0100
0000
0001
0000
0010
0000
0100
0000
0110
0000
0000
1100
0000
0000
1010
0000
,  // measure 65
1001
0000
0001
0100
0002
0000
0000
0000
0013
0001
0010
0000
0010
0100
0002
0000
,  // measure 66
0000
0000
0103
0000
1000
0000
0001
0000
0100
0010
0100
0000
1000
0100
0010
0100
,  // measure 67
0002
0013
2001
3010
,  // measure 68
0001
0000
1000
0010
0000
1000
0000
0100
0000
0010
0100
0000
0010
0000
0010
0000
,  // measure 69
0001
0000
0100
0010
0000
0100
0000
1000
0000
0100
0010
0000
0100
0000
0100
0000
,  // measure 70
0001
1000
0100
0010
0001
1000
0001
0000
1000
0001
0100
0010
0000
0010
1000
0000
,  // measure 71
0001
1000
0010
0000
1000
0001
0020
0000
1000
0000
0000
0000
0100
0000
0000
0000
,  // measure 72
0031
0000
1000
0000
0010
0000
0100
0000
1000
0000
0100
0010
1000
0000
0001
0000
,  // measure 73
0010
0000
1000
0000
0010
0000
0100
0000
1000
0000
0001
0000
0100
0010
1000
0001
,  // measure 74
1000
0100
0010
0100
1000
0000
0002
0000
0103
0000
0001
0000
0100
0010
1000
0001
,  // measure 75
0010
0000
0100
0010
0000
0100
0020
0000
0000
0000
0031
0000
1000
0000
0010
0000
,  // measure 76
1000
0100
0001
0000
1100
0000
0001
1000
,  // measure 77
0001
0100
1000
0000
0101
0000
1000
0100
,  // measure 78
0010
1000
0010
0001
0010
1000
0010
0001
,  // measure 79
0100
0000
0001
1000
0001
0000
0010
0000
0100
0000
1000
0001
1000
0000
0010
0000
,  // measure 80
0200
0000
0000
0000
,  // measure 81
0002
0000
0000
0000
,  // measure 82
0303
0000
0000
0000
;
