#TITLE:色香水;
#SUBTITLE:;
#ARTIST:神山羊;
#TITLETRANSLIT:Irokousui;
#SUBTITLETRANSLIT:;
#ARTISTTRANSLIT:YOH KAMIYAMA;
#GENRE:;
#CREDIT:;
#BANNER:;
#BACKGROUND:;
#LYRICSPATH:;
#CDTITLE:;
#MUSIC:Irokousui.ogg;
#OFFSET:0.011768;
#SAMPLESTART:62.364407;
#SAMPLELENGTH:26.756756;
#SELECTABLE:YES;
#BPMS:0.000000=148.000000
,156.000000=74.000000
,164.000000=148.000000
;
#STOPS:
;
#BGCHANGES:;
#KEYSOUNDS:;
#ATTACKS:;

//---------------dance-single - ----------------
#NOTES:
     dance-single:
     :
     Beginner:
     4:
     0.131611,0.212993,0.008452,0.211302,0.000000,109.000000,108.000000,1.000000,25.000000,0.000000,0.000000,0.131611,0.212993,0.008452,0.211302,0.000000,109.000000,108.000000,1.000000,25.000000,0.000000,0.000000:
0000
0000
0000
0000
,
0000
0000
0000
0000
,
0000
0000
0000
0000
,
0000
0000
0000
0000
,
0000
0000
0000
0000
,
0000
0000
0000
0000
,
0000
0000
0000
0000
,
2000
0000
0000
0000
,
3002
0000
0000
0000
,
2003
0000
0000
0000
,
3002
0000
0000
0000
,
0203
0000
0000
0000
,
0320
0000
0000
0000
,
0230
0000
0000
0000
,
0320
0000
0000
0030
,
0000
0010
0000
0010
,
0000
1000
0000
1000
,
0000
0001
0000
0001
,
0001
0000
1000
0000
,
0000
0100
0000
0100
,
0000
1000
0000
1000
,
0000
0001
0000
0001
,
0000
0000
0000
1001
,
0000
0001
0000
0001
,
0000
0100
0000
0100
,
0000
0010
0000
0010
,
0010
0000
0100
0000
,
0000
0001
0000
0001
,
0000
1000
0000
1000
,
0000
0001
0000
0000
,
0010
0010
0010
0010
,
0020
0000
0000
0000
,
0030
0000
0000
0000
,
1000
0000
0001
0000
,
0100
0000
0010
0000
,
0200
0000
0000
0000
,
0300
0000
0000
0000
,
0001
0000
1000
0000
,
0100
0100
0000
0020
,
0030
0001
0000
0001
,
0000
1000
0000
1000
,
1000
0000
0010
0000
,
0100
0000
0001
0000
,
2000
0000
3002
0000
,
2003
3000
0001
0001
,
0001
0000
1000
1000
,
1000
0000
0010
0010
,
0010
0000
0100
0100
,
0100
0000
0010
0020
,
0030
0000
0100
0000
,
0001
0000
1000
0000
,
0000
0000
0001
0000
,
0010
0000
0100
0100
,
0200
0000
0000
0000
,
2300
0000
0000
0000
,
3002
0000
0000
0000
,
0203
0000
0000
0000
,
0320
0000
0000
0000
,
2030
0000
0000
0000
,
3002
0000
0000
0000
,
0023
0000
0000
0000
,
0130
0000
0000
1000
,
1000
0000
0000
0001
,
0001
0000
0000
0100
,
0100
0000
0000
0010
,
0010
0000
0000
0100
,
0100
0000
0000
0001
,
0001
0000
0000
1000
,
2000
0000
0000
0000
,
0002
0000
0000
0000
,
3003
0000
0000
0000
,
0000
0000
0000
0000
,
1000
0000
0000
0000
;

//---------------dance-single - ----------------
#NOTES:
     dance-single:
     :
     Hard:
     13:
     0.504710,0.828304,0.025356,0.143685,0.126781,418.000000,415.000000,3.000000,17.000000,4.000000,0.000000,0.504710,0.828304,0.025356,0.143685,0.126781,418.000000,415.000000,3.000000,17.000000,4.000000,0.000000:
// measure 0
0000
0000
0000
0000
,  // measure 1
0000
0000
0000
0000
,  // measure 2
0000
0000
0000
0000
,  // measure 3
0000
0000
0000
0000
,  // measure 4
0000
0000
0000
0000
,  // measure 5
0000
0000
0000
0000
,  // measure 6
0000
0000
0000
0000
,  // measure 7
0001
0001
1000
0000
0001
0100
0010
0010
,  // measure 8
1000
1000
0001
0000
1000
0100
0010
0010
,  // measure 9
0001
0001
1000
0000
0001
0100
0010
0010
,  // measure 10
1000
0000
1000
0000
0001
0000
0010
0000
0000
0000
0001
0000
1000
0000
1000
0001
,  // measure 11
1000
1000
0001
0000
0100
0000
1000
0100
,  // measure 12
0001
0001
0010
0000
0100
0000
1000
1000
,  // measure 13
0001
0001
1000
0000
0100
0000
0001
0100
,  // measure 14
1000
1000
0010
0100
0000
0100
0001
0001
,  // measure 15
1000
0000
0100
0000
0010
0100
0010
0001
,  // measure 16
0000
0010
0001
1000
0000
0001
1000
0010
,  // measure 17
0000
1000
0010
0100
0000
0010
0100
0001
,  // measure 18
1000
0000
1000
0000
0001
0000
0000
0000
0001
0000
0001
0000
0010
0000
0010
0001
,  // measure 19
0010
0000
0001
0000
0010
0100
1000
0010
,  // measure 20
0100
0001
1000
0100
0000
1000
0100
0010
,  // measure 21
0000
0000
0100
0000
0010
0000
0001
1000
0000
0000
1000
0000
0010
0000
1000
0001
,  // measure 22
1000
0000
1000
0000
0001
0000
0000
0000
0001
0000
0000
0000
0001
1000
0001
0000
,  // measure 23
1000
0000
0100
0000
0010
0100
1000
0001
,  // measure 24
0100
0010
1000
0001
0000
1000
0001
0010
,  // measure 25
0000
0001
0010
0100
0000
0010
0100
1000
,  // measure 26
0001
0000
0001
0000
1000
0000
0000
0000
1000
0000
1000
0000
0010
0000
0010
1000
,  // measure 27
0010
0000
1000
0000
0010
0100
0001
1000
,  // measure 28
0100
0010
0001
0100
0000
0001
0100
0010
,  // measure 29
0000
0000
0100
0000
0010
0000
1000
0001
0000
0000
0001
0000
0010
0000
0001
0000
,  // measure 30
1000
0000
0010
0000
0100
0000
0010
1000
0000
0100
0010
0000
0001
0000
1000
0000
,  // measure 31
0001
0001
0010
0001
0010
0010
0100
0010
,  // measure 32
0100
0100
1000
0100
1000
1000
0001
0000
,  // measure 33
1000
0010
1000
0001
0010
0100
1000
0010
,  // measure 34
0100
0000
0010
0000
1000
0000
1000
0001
0000
0000
0010
0000
0100
0000
1000
0001
,  // measure 35
1000
1000
0010
0100
0010
0010
0100
0010
,  // measure 36
0100
0100
0001
0100
0001
0001
1000
0000
,  // measure 37
0001
0010
0100
1000
0001
0100
0010
0100
,  // measure 38
0001
0000
0001
0000
0001
0000
0000
0000
1000
0000
1000
0000
0001
1000
0001
1000
,  // measure 39
0MM1
0000
0010
0000
0110
0000
1100
0000
1100
0000
1000
0010
0100
0010
1000
1000
,  // measure 40
0000
0000
1000
0000
0001
0000
0010
0000
0100
0000
0000
0000
1000
0000
0000
0000
0010
0000
0100
0000
0010
0000
1000
0000
0000
0000
1000
0000
0001
0000
1000
0001
,  // measure 41
1MM0
1000
0100
1000
0100
0100
0010
0100
,  // measure 42
0010
0010
0001
0010
0001
0001
1000
0000
,  // measure 43
0001
0000
0001
0200
0010
0000
0301
0020
,  // measure 44
0100
0000
0000
0000
0130
0010
0000
0100
1000
0000
0000
0000
0001
0000
1000
0001
,  // measure 45
1000
0010
0000
0100
0001
0000
0010
0100
,  // measure 46
1000
0010
0000
1000
0100
0000
0010
0100
,  // measure 47
1000
1000
0000
0001
0100
0000
0010
0100
,  // measure 48
0001
0000
0001
0000
1000
0000
0000
0000
0001
1000
0001
0000
0001
0010
0001
0010
,  // measure 49
0000
0000
0000
1000
0010
0100
0001
0020
,  // measure 50
0001
0000
0100
0230
0000
1000
1300
0000
,  // measure 51
0010
0000
1000
0100
0010
0000
0010
0200
,  // measure 52
1000
0000
0010
0320
0000
0001
0031
1000
,  // measure 53
0001
0001
1000
0010
0100
0001
0010
0010
,  // measure 54
0001
0001
0100
0001
0010
0100
2000
0000
,  // measure 55
3010
0010
1000
0001
0010
0100
1000
1000
,  // measure 56
0010
0000
0010
0000
1000
0000
0100
0000
0000
0000
0010
0000
0001
0000
0001
1000
,  // measure 57
0001
0001
0100
0001
1000
0100
0001
0100
,  // measure 58
1000
1000
0001
0100
0010
1000
0001
0001
,  // measure 59
1000
1000
0100
1000
0001
0100
1000
0100
,  // measure 60
0001
0001
1000
0010
0100
0001
0001
0001
,  // measure 61
0002
0000
0000
1000
,  // measure 62
0023
0000
0000
0001
,  // measure 63
0230
0000
0000
0010
,  // measure 64
2300
0000
0000
0001
,  // measure 65
3020
0000
0000
1000
,  // measure 66
0230
0000
0000
0010
,  // measure 67
0302
0000
0000
0100
,  // measure 68
2003
0001
0000
0001
0000
3001
1000
0200
,  // measure 69
0020
0000
0000
0000
,  // measure 70
0330
0000
0000
0000
;

//---------------dance-single - ----------------
#NOTES:
     dance-single:
     :
     Medium:
     9:
     0.326009,0.562064,0.194398,0.354988,0.025356,270.000000,247.000000,23.000000,42.000000,0.000000,0.000000,0.326009,0.562064,0.194398,0.354988,0.025356,270.000000,247.000000,23.000000,42.000000,0.000000,0.000000:
0000
0000
0000
0000
,
0000
0000
0000
0000
,
0000
0000
0000
0000
,
0000
0000
0000
0000
,
0000
0000
0000
0000
,
0000
0000
0000
0000
,
0000
0000
0000
0000
,
0002
1000
0000
1000
,
0023
0001
0000
0001
,
0230
0010
0000
0010
,
2300
0100
0000
0100
,
3002
1000
0100
0010
,
2003
0001
0010
0100
,
3002
1000
0100
0010
,
2003
0000
0001
0000
0010
0000
3100
0100
,
1000
0010
1000
0100
,
0010
0000
0001
1000
0000
1000
0010
0000
,
0200
0310
0200
0301
,
0010
0100
1000
1001
,
0110
0001
0010
0001
,
0100
0000
0010
1000
0000
1000
0001
0000
,
0010
0000
0000
0000
0100
0000
0000
0100
0000
0000
0000
0000
0010
0000
0000
0010
,
0000
0110
0110
1001
,
1000
0100
1000
0010
,
0100
0000
0001
1000
0000
1000
0100
0000
,
0020
0130
0020
0031
,
0100
0010
1000
1001
,
0110
0001
0100
0001
,
0010
0000
0100
1000
0000
1000
0001
0000
,
0100
0000
0000
0000
0010
0000
0000
0010
0000
0000
0000
0000
0000
0000
0110
0000
,
0000
0000
0000
0000
0010
0000
0000
0010
0000
0000
1000
0000
1000
0000
0000
0000
,
0200
1000
0010
0001
,
0301
0101
0100
1100
,
0001
0100
1000
0010
,
0001
0000
0000
0000
1000
0000
0000
1000
0000
0000
0000
0000
0000
0000
0001
0000
,
0200
0001
0010
1300
,
1000
1100
0100
0101
,
1000
0100
0001
0010
,
1000
0001
1000
0000
0100
0000
0110
0000
,
1001
0000
0011
0100
0100
1000
1010
0000
,
1000
0000
1010
0100
0001
1000
1100
0010
,
0200
1000
0010
0001
,
0301
0101
0100
1100
,
0002
1000
0203
0001
,
0310
0000
0000
0000
0100
0000
0000
0100
0000
0000
0000
0000
0110
0000
0000
0000
,
1000
0100
0001
0100
,
1000
0010
1000
0100
,
0010
0001
0100
0001
,
0010
0100
0110
2002
,
3003
0000
0000
0000
0001
0000
1000
2000
,
0000
0000
0010
3020
0000
0100
0130
0000
,
0100
0000
0001
0000
1000
0000
0001
0002
,
0000
0000
0010
0023
0000
0100
0130
0010
,
0002
0000
0010
0000
0000
0000
1003
0001
,
0200
0001
0000
0320
,
2030
0000
0010
0000
0000
0000
3001
1000
,
0200
0000
1000
0000
0000
0000
0310
0010
,
0002
0000
0010
0000
1000
0000
0103
0001
,
2000
0000
0010
0000
0001
0000
3100
1000
,
0002
0000
0010
0000
1000
0000
0103
0001
,
2000
0000
0010
0000
3001
1000
1000
0001
,
2000
0000
0000
0001
,
3020
0000
0000
1000
,
0230
0000
0000
0010
,
0302
0000
0000
1000
,
0023
0000
0000
0001
,
0230
0000
0000
0010
,
2300
0000
0000
0100
,
3002
0000
0000
1000
0000
1003
0000
2000
,
0002
0000
0000
0000
,
3003
0000
0000
0000
;

//---------------dance-single - ----------------
#NOTES:
     dance-single:
     :
     Easy:
     6:
     0.241488,0.379076,0.126781,0.414152,0.000000,200.000000,185.000000,15.000000,49.000000,0.000000,0.000000,0.241488,0.379076,0.126781,0.414152,0.000000,200.000000,185.000000,15.000000,49.000000,0.000000,0.000000:
0000
0000
0000
0000
,
0000
0000
0000
0000
,
0000
0000
0000
0000
,
0000
0000
0000
0000
,
0000
0000
0000
0000
,
0000
0000
0000
0000
,
0000
0000
0000
0000
,
2000
0000
0000
0010
,
3002
0000
0000
1000
,
0023
0000
0000
0001
,
0230
0000
0000
0320
,
0230
0010
0000
1300
,
0020
0100
0000
1030
,
0200
0010
0000
1300
,
0020
0100
0000
1030
,
0001
0010
0100
0000
,
0010
0100
1000
0000
,
2000
3010
0002
0013
,
1000
1000
0001
0001
,
1000
0010
0100
0000
,
0010
0100
0001
0000
,
0101
0000
1001
0000
,
0011
0000
1000
1000
,
0010
0100
0001
0000
,
0100
0001
1000
0000
,
0200
0310
0002
1003
,
0010
0010
0100
0100
,
0010
0100
0001
0000
,
0100
0001
1000
0000
,
1100
0000
0110
0000
,
0011
1000
1000
0001
,
0200
0000
0000
0010
,
0302
0000
0000
0003
0000
0000
0000
0000
,
1000
0100
0001
0010
,
1000
0001
0000
1000
,
0200
0000
0000
0010
,
2300
0000
0000
3000
0000
0000
0000
0000
,
0001
0100
1000
0010
,
0001
1001
0000
2000
,
3001
0000
0100
0010
0010
0000
0110
0000
,
1000
1010
0001
1001
,
1000
0001
0010
1000
,
1000
0010
0002
0010
,
2003
0001
3020
1000
,
0130
1001
0000
0110
,
1000
0000
0001
0010
,
1000
0000
0001
0100
,
1000
0000
0001
0100
,
1000
0000
0110
2002
,
3003
0000
1000
0100
,
0020
0001
0100
0031
,
0000
0010
0100
1000
,
0020
1000
0100
1030
,
0002
0010
1000
0203
,
2300
0001
0000
3002
,
0023
0001
0100
2030
,
3002
1000
0000
2003
,
3200
0010
0001
0320
,
0032
0100
2003
3002
,
0203
0010
1000
0320
,
2030
0100
3001
1001
,
2000
0000
0000
0010
,
3020
0000
0000
1000
,
2030
0000
0000
0001
,
3002
0000
0000
0010
,
0023
0000
0000
0100
,
0230
0000
0000
1000
,
2300
0000
0000
0001
,
0002
0000
0000
0000
,
3003
0000
0000
0000
;
