#VERSION:0.83;
#TITLE:Intersection;
#SUBTITLE:;
#ARTIST:ELECTROCUTICA;
#TITLETRANSLIT:;
#SUBTITLETRANSLIT:;
#ARTISTTRANSLIT:;
#GENRE:Orchestral DnB;
#ORIGIN:;
#TAGS:;
#CREDIT:;
#BANNER:Intersection-bn.png;
#BACKGROUND:Intersection-bg.png;
#PREVIEWVID:;
#JACKET:Intersection-jk.png;
#CDIMAGE:;
#DISCIMAGE:;
#LYRICSPATH:;
#CDTITLE:;
#MUSIC:Intersection.ogg;
#OFFSET:0.000000;
#SAMPLESTART:33.583000;
#SAMPLELENGTH:17.608999;
#SELECTABLE:YES;
#BPMS:0.000000=184.000000
;
#STOPS:;
#DELAYS:;
#WARPS:;
#TIMESIGNATURES:0.000000=1=4
,1.000000=3=4
,103.000000=4=4
,223.000000=3=4
,235.000000=4=4
,239.000000=3=4
,269.000000=2=4
,271.000000=4=4
,303.000000=3=4
;
#TICKCOUNTS:0.000000=4
;
#COMBOS:0.000000=1
;
#SPEEDS:0.000000=1.000000=0.000000=0
;
#SCROLLS:0.000000=1.000000
,239.000000=0.700000
,271.000000=1.000000
;
#LABELS:0.000000=Song Start
;
#BGCHANGES:;
#KEYSOUNDS:;
#ATTACKS:
;

//---------------dance-single - ----------------
#NOTEDATA:;
#CHARTNAME:;
#CHARTHASH:230876359;
#STEPSTYPE:dance-single;
#BANNER:;
#DESCRIPTION:;
#CHARTSTYLE:;
#DIFFICULTY:Beginner;
#METER:5;
#METERF:0.000000;
#LASTSECONDHINT:114.619568;
#RADARVALUES:0.139063,0.227100,0.034458,0.051687,0.000000,113.000000,109.000000,4.000000,6.000000,0.000000,0.000000,0.000000,0.000000,0.000000,0.139063,0.227100,0.034458,0.051687,0.000000,113.000000,109.000000,4.000000,6.000000,0.000000,0.000000,0.000000,0.000000,0.000000;
#CREDIT:Embrace;
#NOTES:
0000
0000
0000
0000
,
0000
0000
0000
0000
,
0000
0000
0000
0000
,
0000
0000
0000
0000
,
0000
0000
0000
0000
,
0000
0000
0000
0000
,
0000
0000
0000
0000
,
0000
0000
0000
0000
,
0000
0000
1000
0000
,
0000
0001
0000
0000
,
0010
0000
0000
0100
,
0000
0000
1000
0000
,
0000
0010
0000
0000
,
0100
0000
0000
0001
,
0000
0000
1000
0000
,
0000
0001
0000
0000
,
0010
0000
0000
1001
,
0000
0000
1000
0000
,
0000
0010
0000
0000
,
0100
0000
0000
0001
,
0000
0000
0010
0000
,
0000
0001
0000
0000
,
0100
0000
0000
0010
,
0000
0000
1000
0000
,
0000
0100
0000
0000
,
0000
0000
0000
1001
,
0000
0000
0000
0001
,
0000
0001
0000
1000
,
0000
0000
0000
0100
,
0000
0100
0000
0010
,
0000
0000
0000
0001
,
0000
0000
0000
2000
,
0000
0000
0000
3000
,
0000
0000
0000
0010
,
0000
0010
0000
0010
,
0000
0000
0000
0100
,
0000
0100
0000
0100
,
0000
0000
0000
0002
,
0000
0003
0000
1000
,
0000
0000
0000
2000
,
0000
3000
0000
0001
,
0000
0010
0000
0001
,
0000
0000
0000
1000
,
0000
0010
0000
0100
,
0000
0000
0000
0010
,
0000
1000
0000
0001
,
0000
0000
0000
0010
,
0000
0100
0000
1000
,
0000
0000
0000
0001
,
0000
0100
0000
0010
,
0000
0000
0000
0100
,
0000
0001
0000
1000
,
0000
0000
0000
0100
,
0000
0010
0000
0001
,
0000
0000
0000
1000
,
0000
0010
0000
0100
,
0000
0000
0001
0000
,
0000
1000
0000
0000
,
0100
0000
0000
2000
,
0000
0000
3000
1000
,
0000
0000
0001
0000
,
0000
1000
0000
0000
,
0010
0000
0000
0100
,
0000
0000
0001
0000
,
0000
1000
0000
0000
,
0100
0000
0000
0010
,
0000
0000
0001
0000
,
0000
1000
0000
1001
,
0000
0001
0000
1000
,
0000
0001
0000
0100
,
0000
0010
0000
1000
,
0000
0001
0000
0010
,
0000
0001
0000
1000
,
0000
0100
0000
1000
,
0000
0001
0000
0200
,
0000
0300
0000
0110
,
0000
0000
0001
0000
,
0000
1000
0000
0000
,
0100
0000
0000
0010
,
0000
0000
0001
0000
,
0000
1000
0000
0000
,
0010
0000
0000
0100
,
0000
0000
0001
0000
,
0000
1000
0000
0000
,
0001
0000
0000
0010
,
0000
0000
0100
0000
,
0000
2000
0000
0000
,
0000
0000
0000
0000
0000
0000
0000
3000
;

//---------------dance-single - ----------------
#NOTEDATA:;
#CHARTNAME:;
#CHARTHASH:2461800337;
#STEPSTYPE:dance-single;
#BANNER:;
#DESCRIPTION:;
#CHARTSTYLE:;
#DIFFICULTY:Easy;
#METER:9;
#METERF:0.000000;
#LASTSECONDHINT:114.619568;
#RADARVALUES:0.311354,0.416351,0.198134,0.094760,0.000000,253.000000,230.000000,23.000000,11.000000,0.000000,0.000000,0.000000,0.000000,0.000000,0.311354,0.416351,0.198134,0.094760,0.000000,253.000000,230.000000,23.000000,11.000000,0.000000,0.000000,0.000000,0.000000,0.000000;
#CREDIT:Embrace;
#NOTES:
0000
0000
0000
0000
,
0000
0000
0000
0000
,
0000
0000
0000
0000
,
0000
0000
0000
0000
,
0000
0000
0000
0000
,
0000
0000
0000
0000
,
0000
0000
0000
0000
,
0000
0000
0000
0000
,
0000
0000
0000
0000
1001
0000
0000
0001
,
0000
0000
0010
0000
0000
0100
0000
0000
,
0010
0000
0000
0001
0000
0000
0100
0000
,
0000
0010
0000
0000
1000
0000
0000
0100
,
0000
0000
1000
0000
0000
0010
0000
0010
,
0100
0000
0000
0001
0000
0000
0010
0000
,
0000
0100
0000
0000
1000
0000
0000
0010
,
0000
0000
0100
0000
0000
0001
0000
0000
,
0010
0001
0000
1001
,
0000
1000
0000
0000
0010
0000
0000
0110
,
0000
0000
0001
0000
0000
1000
0000
0000
,
1100
0000
0000
0001
0000
0000
0010
0000
,
0000
0110
0000
0000
0011
0000
0000
1000
,
0000
1000
0010
0000
0000
0110
0000
0000
,
1000
0000
0000
0001
0000
0000
0110
0000
,
0000
1000
0000
0000
0001
0000
0000
0100
,
0000
0010
1000
0000
,
0002
0000
0003
1001
,
1000
0000
0000
1000
0000
0000
0100
0000
,
0010
0001
1000
0000
,
0010
0000
0100
0001
,
1000
0100
1000
0001
,
0100
0000
0000
0100
0000
0000
0001
0000
,
0010
0000
0001
0000
0100
0000
0001
0002
,
0000
0003
1000
0100
,
0010
0001
1000
1001
,
0001
0000
0000
0001
0000
0000
0100
0000
,
0001
0000
1000
0100
,
0010
0000
0000
0010
0000
0000
0001
0000
,
0000
1000
0010
1000
,
0000
1001
0000
0000
0001
0000
1000
0000
,
0100
0000
0010
0002
,
0003
2000
3000
0020
,
0000
0030
0100
0001
,
0000
1000
0000
0001
,
0010
1000
0010
0001
,
0000
0100
0000
0010
,
1000
0100
1000
0010
,
0000
1000
0000
0001
,
0100
1000
0100
0001
,
0000
0010
0000
0100
,
0010
0001
0100
0110
,
0000
0010
0000
1000
,
0100
0001
0100
1000
,
0000
0001
0000
0100
,
0001
0010
0001
1000
,
0000
0001
0000
1000
,
0010
0001
0010
1000
,
0000
0001
0000
0000
0010
0000
0000
0100
,
0000
0000
1000
0000
0000
0010
0000
0000
,
0100
0000
0000
0001
0000
0000
2002
0000
,
0000
0000
3003
1000
,
0000
1000
0000
0000
0100
0000
0000
0100
,
0000
0000
0010
0000
0000
0020
0000
0000
,
0031
0000
0000
0001
0000
0000
1000
0000
,
0000
1000
0000
0000
0010
0000
0000
0010
,
0000
0000
0100
0000
0000
0100
0000
0000
,
0001
0000
0000
0001
0000
0000
1000
0000
,
0000
0100
0000
0000
0010
0000
0000
0001
,
0000
1000
0010
1010
,
1000
0001
0010
0001
,
0100
0020
0030
1000
,
0100
0010
0001
1000
,
0000
0010
0000
0200
,
0000
0300
0002
0000
,
0003
1000
0100
0001
,
0100
1000
0100
0001
,
0100
0010
0001
1001
,
0000
1000
0000
0000
0010
0000
0000
0110
,
0000
0000
1000
0000
0000
0001
0000
0000
,
0011
0000
0000
0010
0000
0000
0100
0000
,
0000
0011
0000
0000
1000
0000
0000
0010
,
0000
0010
0100
0000
0000
0101
0000
0000
,
1010
0000
0000
1001
0000
0000
0011
0000
,
0000
1000
0000
0000
0001
0000
0000
0100
,
0000
0010
1000
0000
,
0001
0010
0000
0001
,
0100
0000
0010
1000
,
0000
0001
0010
1000
,
0010
0000
0001
0000
0100
0000
0000
0110
;

//---------------dance-single - ----------------
#NOTEDATA:;
#CHARTNAME:;
#CHARTHASH:2125012024;
#STEPSTYPE:dance-single;
#BANNER:;
#DESCRIPTION:;
#CHARTSTYLE:;
#DIFFICULTY:Medium;
#METER:12;
#METERF:0.000000;
#LASTSECONDHINT:114.619568;
#RADARVALUES:0.525486,0.605601,0.051687,0.189520,0.000000,427.000000,421.000000,6.000000,22.000000,0.000000,0.000000,0.000000,0.000000,0.000000,0.525486,0.605601,0.051687,0.189520,0.000000,427.000000,421.000000,6.000000,22.000000,0.000000,0.000000,0.000000,0.000000,0.000000;
#CREDIT:Embrace;
#NOTES:
0000
0000
0000
0000
,
0000
0000
0000
0000
,
0000
0000
0000
0000
,
0000
0000
0000
0000
,
0000
0000
0000
0000
,
0000
0000
0000
0000
,
0000
0000
0000
0000
,
0000
0000
0000
0000
,
0000
0001
0011
0010
,
0100
1000
0010
1000
,
0100
0000
0010
0001
0010
0000
0010
0000
,
0100
1000
0001
0000
0100
0000
0010
0100
,
0001
0000
1000
0000
1000
0100
0000
0100
,
1000
0000
0001
0100
0001
0000
1000
0000
,
0010
0100
0001
0000
1000
0000
0001
0010
,
0100
0000
1000
0000
0100
0010
0100
0000
,
1000
0001
0100
0010
0000
0000
1001
0000
,
1000
0100
0000
0100
0010
0000
0010
0001
,
1000
0001
0100
0010
0000
1000
0001
0000
,
0100
0001
0000
0001
0010
0000
0100
0000
,
1000
0100
0010
0001
0100
0010
2000
0000
,
3001
0000
0010
0001
0000
0100
0010
0000
,
0100
0000
0001
1000
0100
0010
0100
0000
,
1000
0001
0100
0010
2000
0000
3001
0100
,
0001
0000
0010
0100
1000
0001
0000
0000
,
0200
0000
0000
0000
0000
0300
0110
0000
,
0001
0000
0010
0001
0010
0000
0100
0000
,
1000
0010
0100
0001
0100
0020
0000
0030
,
1000
0001
0000
0001
0000
0001
1000
0001
,
0000
0010
0000
0010
0100
0000
1000
0000
,
0010
0000
0100
0010
0100
0000
0010
1000
,
0001
0010
0000
0100
0000
1000
0001
0002
,
0000
0000
0003
1000
0010
0100
0001
1000
,
0000
0100
0000
0010
0002
0000
1003
0000
,
0010
0100
0000
0010
0000
1000
0100
0000
,
0010
0000
0000
0001
1000
0000
0010
0000
,
0100
0010
0000
1000
0000
0001
0010
0000
,
0000
0100
1000
0001
0010
0001
0100
0000
,
0010
1000
0010
0000
0100
0000
0001
1000
,
0001
0000
0000
0010
0100
0000
1000
2000
,
0000
0000
3001
0100
0010
0000
0100
0001
,
0010
0100
0000
1000
0001
0100
0010
1000
,
0000
0001
0100
0000
1000
0100
0000
0001
,
1000
0100
0010
0000
0010
0000
0010
0100
,
0000
1000
0100
0000
0001
0100
0000
1000
,
0100
0010
0001
0010
0001
0000
1000
0010
,
0000
0100
0010
0000
0001
0010
0000
1000
,
0010
0100
0001
0000
0001
0000
0001
1000
,
0000
0001
0010
0000
1000
0010
0000
0001
,
0100
0010
0100
0001
0010
0100
1000
0001
,
0000
1000
0010
0000
0001
0010
0000
1000
,
0010
0100
0001
0010
0001
0000
1000
0010
,
0000
1000
0100
0000
0001
0100
0000
1000
,
0100
1000
0001
0100
0001
0100
0001
0010
,
0000
1000
0010
0000
0001
0100
0000
0010
,
0100
0001
1000
0100
1000
0100
0020
0031
,
0000
0002
1003
0000
2000
3010
0000
0020
,
0130
0000
0200
0301
0000
0002
1003
0000
,
2000
3100
0000
0200
0310
0000
2002
0000
,
0000
0000
0000
0000
0000
3003
0001
0000
,
0000
1000
0000
0000
0100
0000
0000
1000
,
0000
0000
0010
0000
0000
0200
0000
0000
,
0301
0000
0000
0010
0000
0000
0100
0000
,
0000
1000
0000
0000
0010
0000
0000
0100
,
0000
0000
1000
0000
0000
0100
0000
0000
,
0001
0000
0000
1000
0000
0000
0100
0000
,
0000
0001
0000
0000
1000
0000
0000
0010
,
0000
0000
0001
1000
0010
1000
0001
0000
,
0100
0000
0010
1000
0100
0000
0010
0000
,
0100
0000
1000
0001
0100
0000
0001
0010
,
0001
0000
0100
0000
0010
0100
0000
1000
,
0000
0100
0010
0100
0000
0001
2000
0000
,
3100
0010
0001
0000
1001
0000
1000
0010
,
0000
0100
0001
0000
1000
0100
0010
0001
,
0010
0000
0001
0100
0000
0010
2000
0000
,
3200
0000
0310
0001
0100
0010
1000
0000
,
0001
0010
0100
1000
0001
0000
0010
1000
,
0010
0000
0001
1000
0000
1000
0100
0000
,
0010
0001
1000
0010
0000
0010
0100
0000
,
0001
0010
0000
0010
0100
1000
0002
0000
,
1003
0010
0100
0010
0000
0001
0010
0000
,
1000
0100
0010
0001
0000
0001
0100
0000
,
0010
1000
0100
0010
0001
0000
0100
0001
,
0010
0000
0100
1000
0001
0010
0000
0000
,
0010
0001
0100
0010
0000
0000
0010
0100
,
0001
1000
0000
0000
1000
0100
0010
0001
,
0000
0000
0001
0010
0100
1000
0001
0100
,
0010
1000
0100
0010
0001
0100
0010
0110
;

//---------------dance-single - ----------------
#NOTEDATA:;
#CHARTNAME:;
#CHARTHASH:1558112131;
#STEPSTYPE:dance-single;
#BANNER:;
#DESCRIPTION:;
#CHARTSTYLE:;
#DIFFICULTY:Hard;
#METER:15;
#METERF:0.000000;
#LASTSECONDHINT:114.619568;
#RADARVALUES:0.734696,0.870552,0.223978,0.232592,0.361810,597.000000,571.000000,26.000000,27.000000,0.000000,0.000000,0.000000,0.000000,0.000000,0.734696,0.870552,0.223978,0.232592,0.361810,597.000000,571.000000,26.000000,27.000000,0.000000,0.000000,0.000000,0.000000,0.000000;
#CREDIT:Embrace;
#NOTES:
// measure 0
0000
0000
0000
0000
,  // measure 1
0000
0000
0000
0000
,  // measure 2
0000
0000
0000
0000
,  // measure 3
0000
0000
0000
0000
,  // measure 4
0000
0000
0000
0000
,  // measure 5
0000
0000
0000
0000
,  // measure 6
0000
0000
0000
0000
,  // measure 7
0000
0000
0000
0000
,  // measure 8
0000
0000
1000
0000
1001
0000
0001
0010
,  // measure 9
0000
0001
1000
0000
0100
0000
0000
0000
1000
0000
0010
0000
1000
0000
0000
0000
,  // measure 10
0001
0000
0010
0100
1000
0000
0001
0100
,  // measure 11
0001
0010
0100
0000
0010
0000
0001
1000
,  // measure 12
0000
0000
0010
1000
0001
0000
0000
0001
1000
0000
0000
0000
0100
0000
1000
0000
,  // measure 13
0010
0000
0100
0000
0001
0000
0000
0001
0010
0000
0000
0000
0011
0000
0000
0000
,  // measure 14
0001
1000
0100
1000
0010
0000
0100
0001
,  // measure 15
1000
0010
1000
0000
0001
0000
0010
0000
0100
1000
0000
1000
0001
0000
0000
0000
,  // measure 16
0001
0010
0000
0000
0001
0000
0000
0000
0000
0000
0010
0001
0200
0000
0000
0000
,  // measure 17
0310
0000
1000
0000
0010
0100
0010
0000
1000
0000
0001
0010
0001
0000
0000
0000
,  // measure 18
1000
0000
0000
0100
0010
0000
0001
0000
0000
0000
0010
0001
1000
0000
0000
0000
,  // measure 19
0100
0000
1000
0000
0010
1000
0001
0000
0000
0000
0010
0100
1000
0000
0000
0000
,  // measure 20
0100
0000
1000
0001
1000
0000
0010
0000
0100
0000
0010
1000
0002
0000
0013
0000
,  // measure 21
0100
0000
1000
0000
0001
1000
0100
0000
0000
0000
0100
1000
0001
0000
0000
0000
,  // measure 22
0100
0000
0000
0001
0100
0010
1000
0000
0000
0000
0001
1000
0100
0000
0010
0000
,  // measure 23
0100
0000
1000
0000
0010
1000
0001
0000
0100
0000
0001
0000
1000
0000
0100
0010
,  // measure 24
0000
0010
0100
0000
2000
0000
3020
0000
0230
0000
0302
0000
0003
0000
0000
0000
,  // measure 25
0020
0000
0000
0000
0000
0030
0110
0000
,  // measure 26
0001
0100
0000
0100
0001
0000
1000
0000
,  // measure 27
0010
0010
0100
0001
1000
0200
0010
0000
,  // measure 28
1300
1000
0100
0001
0100
0010
0001
0100
,  // measure 29
0010
0100
0001
2000
0100
0000
3001
0000
,  // measure 30
0010
0001
0000
0001
0100
0000
0010
1000
,  // measure 31
0001
0010
0000
0100
1000
0010
0100
0200
,  // measure 32
0010
0000
0000
1300
0100
0001
0010
0020
,  // measure 33
0000
0000
0130
0000
1000
0000
0100
1000
0001
0100
0000
0100
0010
0000
0000
0000
,  // measure 34
1000
1000
0001
1000
0100
1000
0010
0100
,  // measure 35
0001
0000
0000
1000
0010
0001
0010
0100
,  // measure 36
0001
0001
0010
0001
0100
0001
1000
0000
,  // measure 37
0100
1000
0100
0010
0001
2000
0010
0000
,  // measure 38
3100
0020
0001
0000
0130
0000
0001
0100
,  // measure 39
1000
0000
0000
1000
0010
0000
0120
0100
,  // measure 40
0000
0000
1030
0100
0010
0001
0100
1000
,  // measure 41
0100
0000
0010
0000
1000
0001
0000
1000
0001
0010
0100
0000
1000
0000
0010
0000
,  // measure 42
0000
0010
0100
0000
0100
0001
0000
0010
,  // measure 43
0100
0010
0011
0000
1001
0000
1000
0100
,  // measure 44
1000
0010
0100
0000
0100
0001
0000
0001
,  // measure 45
0100
0000
0010
0000
1000
0000
0100
0000
1000
0000
0010
0100
0010
0000
1000
0000
,  // measure 46
0000
1000
0001
0000
0001
0010
0000
0100
,  // measure 47
1000
0010
0110
0000
0101
0000
0100
1000
,  // measure 48
0100
0001
0010
0000
0001
0100
0000
0010
,  // measure 49
1000
0000
0001
0000
0010
0000
0100
0000
1000
0000
0001
0100
0010
0000
0100
0000
,  // measure 50
0001
0000
1000
0000
0100
0000
0000
0000
0100
0000
0010
0000
0100
1000
0100
0000
,  // measure 51
0010
0001
1001
0000
0101
0000
0100
0010
,  // measure 52
1000
0000
0001
0000
0010
0000
0000
0000
0010
0000
0100
0000
1000
0001
1000
0000
,  // measure 53
0010
0000
0100
0001
0100
0000
0100
0000
0010
0000
1000
0100
0010
0000
0001
0000
,  // measure 54
1000
0010
1000
0000
0001
0000
0010
0000
0100
0000
0010
0001
0000
0010
0001
0000
,  // measure 55
1000
0000
0010
0100
0010
0000
0010
0100
0001
1000
0000
1000
0002
0000
0103
0000
,  // measure 56
0000
0020
1030
0000
0002
0013
0000
0200
,  // measure 57
0310
0000
0002
0103
0000
0020
1030
0000
,  // measure 58
0200
0310
0000
0002
0103
0000
2002
0000
,  // measure 59
0000
0000
3003
0001
,  // measure 60
0000
0000
0011
0000
0000
0010
0100
0000
1000
0000
0000
0000
1000
0000
0010
0000
,  // measure 61
0000
0010
1000
0001
0100
0001
1000
0100
,  // measure 62
0010
0000
0000
1001
0000
0001
0100
0000
,  // measure 63
0000
0110
0000
0010
1000
0001
0010
0001
,  // measure 64
1000
0010
0100
0001
0010
0100
0010
0001
,  // measure 65
1000
0100
1000
0010
1000
0001
0100
0010
,  // measure 66
0100
0001
0010
0100
1000
0010
0100
0010
,  // measure 67
1000
0100
0010
0001
1000
0010
0110
0000
,  // measure 68
0100
0000
0001
1000
0000
0001
1000
0000
0100
0000
0000
0000
0011
0000
0000
0000
,  // measure 69
1000
0000
0010
0100
0000
0010
0100
0000
0001
0000
1000
0000
0100
0000
0010
0000
,  // measure 70
0100
0000
1000
0010
0000
1000
0010
0000
0100
0000
0001
0000
0000
0000
1001
0000
,  // measure 71
0000
0000
1000
0100
0000
1000
0100
0000
0010
0000
0001
1000
0020
0000
0000
0000
,  // measure 72
0130
0000
0001
1000
0000
0001
1000
0000
0100
0000
0000
0000
0011
0000
0010
0000
,  // measure 73
0100
0000
0010
0001
0000
0010
0001
0000
1000
0000
0010
0000
0100
0000
0001
0000
,  // measure 74
0010
0000
0010
0100
0000
0100
1000
0010
,  // measure 75
0100
0000
0000
0001
1000
0100
0010
0001
1000
0100
0010
0000
0002
0000
0103
0000
,  // measure 76
0010
0000
0001
0000
0010
1000
0010
0000
0100
0000
0000
0001
0010
0000
0010
0000
,  // measure 77
0100
0000
0000
0010
0100
0000
0001
0000
0000
0000
0100
1000
0001
0000
0000
0000
,  // measure 78
0010
0000
0001
0100
0000
0001
0010
0000
0000
0000
0100
0010
0001
0000
0000
0000
,  // measure 79
1000
0000
0000
1000
0010
0000
0100
0001
0010
0000
0010
0001
2000
0000
3100
0000
,  // measure 80
0010
0000
0001
0000
0100
0001
1000
0000
0000
0000
1000
0001
0100
0000
0010
0000
,  // measure 81
0001
0000
0000
0010
0100
0001
1000
0000
0000
0000
1000
0100
0010
0000
0000
0000
,  // measure 82
0001
0000
0010
0000
1000
0010
0001
0000
1000
0000
0010
0100
0000
0010
1000
0001
,  // measure 83
0000
0010
0001
1000
0001
0000
0100
0010
0100
0000
0110
0000
0000
0000
0000
0000
,  // measure 84
0001
1000
0100
0011
0000
0000
1000
0010
,  // measure 85
0100
1010
0000
0000
0001
0010
0100
1001
,  // measure 86
0000
0000
0001
1000
0010
0110
1000
0001
,  // measure 87
0010
1100
0001
1000
0010
0110
1000
0011
;

//---------------dance-double - ----------------
#NOTEDATA:;
#CHARTNAME:;
#CHARTHASH:4071115320;
#STEPSTYPE:dance-double;
#BANNER:;
#DESCRIPTION:;
#CHARTSTYLE:;
#DIFFICULTY:Easy;
#METER:9;
#METERF:0.000000;
#LASTSECONDHINT:114.619568;
#RADARVALUES:0.310123,0.416351,0.198134,0.094760,0.000000,252.000000,229.000000,23.000000,11.000000,0.000000,0.000000,0.000000,0.000000,0.000000,0.310123,0.416351,0.198134,0.094760,0.000000,252.000000,229.000000,23.000000,11.000000,0.000000,0.000000,0.000000,0.000000,0.000000;
#CREDIT:Embrace;
#NOTES:
00000000
00000000
00000000
00000000
,
00000000
00000000
00000000
00000000
,
00000000
00000000
00000000
00000000
,
00000000
00000000
00000000
00000000
,
00000000
00000000
00000000
00000000
,
00000000
00000000
00000000
00000000
,
00000000
00000000
00000000
00000000
,
00000000
00000000
00000000
00000000
,
00000000
00000000
00000000
00000000
00011000
00000000
00000000
00001000
,
00000000
00000000
00100000
00000000
00000000
00010000
00000000
00000000
,
01000000
00000000
00000000
00100000
00000000
00000000
10000000
00000000
,
00000000
00010000
00000000
00000000
00100000
00000000
00000000
00001000
,
00000000
00000000
00010000
00000000
00000000
00000100
00000000
00000100
,
00001000
00000000
00000000
00000001
00000000
00000000
00000100
00000000
,
00000000
00000010
00000000
00000000
00010000
00000000
00000000
00001000
,
00000000
00000000
00100000
00000000
00000000
01000000
00000000
00000000
,
10000000
00010000
00000000
01010000
,
00000000
01000000
00000000
00000000
00001000
00000000
00000000
00011000
,
00000000
00000000
00100000
00000000
00000000
00001000
00000000
00000000
,
00011000
00000000
00000000
00010000
00000000
00000000
00000010
00000000
,
00000000
00000110
00000000
00000000
00001001
00000000
00000000
00001000
,
00000000
00001000
00000100
00000000
00000000
00010100
00000000
00000000
,
00010000
00000000
00000000
00001000
00000000
00000000
01001000
00000000
,
00000000
01000000
00000000
00000000
00100000
00000000
00000000
10000000
,
00000000
01000000
00100000
00000000
,
00020000
00000000
00030000
01010000
,
10000000
00000000
00000000
10000000
00000000
00000000
00100000
00000000
,
01000000
00001000
00010000
00000000
,
00000100
00000000
00000010
00000001
,
00000100
00000010
00001000
00000100
,
00000010
00000000
00000000
00000010
00000000
00000000
00000001
00000000
,
00000100
00000000
00000010
00000000
00010000
00000000
00001000
00002000
,
00000000
00003000
00010000
00000100
,
00001000
00000010
00000100
00000110
,
00000001
00000000
00000000
00000001
00000000
00000000
00000010
00000000
,
00000100
00000000
00010000
00001000
,
00100000
00000000
00000000
00100000
00000000
00000000
01000000
00000000
,
00000000
10000000
00100000
01000000
,
00000000
01100000
00000000
00000000
00010000
00000000
00100000
00000000
,
01000000
00000000
00100000
00002000
,
00003000
00020000
00030000
00002000
,
00000000
00003000
00010000
00000010
,
00000000
00000100
00000000
00000001
,
00000100
00001000
00010000
00001000
,
00000000
00100000
00000000
01000000
,
10000000
00010000
01000000
00100000
,
00000000
00100000
00000000
10000000
,
01000000
00010000
00001000
00010000
,
00000000
00000010
00000000
00001000
,
00000001
00000100
00000010
00001010
,
00000000
00001000
00000000
00000001
,
00000010
00001000
00010000
00001000
,
00000000
00100000
00000000
00010000
,
01000000
00010000
00100000
01000000
,
00000000
10000000
00000000
10000000
,
00100000
00010000
00001000
00010000
,
00000000
00000010
00000000
00000000
00001000
00000000
00000000
00000001
,
00000000
00000000
00000010
00000000
00000000
00000100
00000000
00000000
,
00010000
00000000
00000000
00001000
00000000
00000000
00022000
00000000
,
00000000
00000000
00033000
00010000
,
00000000
00010000
00000000
00000000
00001000
00000000
00000000
00001000
,
00000000
00000000
01000000
00000000
00000000
02000000
00000000
00000000
,
03100000
00000000
00000000
00100000
00000000
00000000
10000000
00000000
,
00000000
10000000
00000000
00000000
01000000
00000000
00000000
01000000
,
00000000
00000000
00100000
00000000
00000000
00100000
00000000
00000000
,
00001000
00000000
00000000
00001000
00000000
00000000
00010000
00000000
,
00000000
00000100
00000000
00000000
00000010
00000000
00000000
00000001
,
00000000
00001000
00000001
00001001
,
00001000
00000010
00000100
00000001
,
00000010
00000200
00000300
00010000
,
00001000
01000000
00100000
10000000
,
00000000
01000000
00000000
00200000
,
00000000
00300000
00020000
00000000
,
00030000
00000000
00100000
00001000
,
00010000
01000000
10000000
01000000
,
00010000
00001000
00000010
00000110
,
00000000
00000001
00000000
00000000
00000100
00000000
00000000
00000110
,
00000000
00000000
00010000
00000000
00000000
00001000
00000000
00000000
,
00101000
00000000
00000000
00100000
00000000
00000000
01000000
00000000
,
00000000
10010000
00000000
00000000
10000000
00000000
00000000
00010000
,
00000000
00010000
01000000
00000000
00000000
01001000
00000000
00000000
,
00011000
00000000
00000000
00010010
00000000
00000000
00001001
00000000
,
00000000
00000001
00000000
00000000
00000010
00000000
00000000
00000100
,
00000000
00010000
00001000
00000000
,
01000000
00010000
00000000
00100000
,
01000000
00000000
10000000
00100000
,
00000000
00010000
00001000
00000100
,
00000001
00000000
00000010
00000000
00000100
00000000
00000000
00001001
;

//---------------dance-double - ----------------
#NOTEDATA:;
#CHARTNAME:;
#CHARTHASH:3148109840;
#STEPSTYPE:dance-double;
#BANNER:;
#DESCRIPTION:;
#CHARTSTYLE:;
#DIFFICULTY:Medium;
#METER:12;
#METERF:0.000000;
#LASTSECONDHINT:114.619568;
#RADARVALUES:0.524255,0.567751,0.043073,0.189520,0.000000,426.000000,421.000000,5.000000,22.000000,0.000000,0.000000,0.000000,0.000000,0.000000,0.524255,0.567751,0.043073,0.189520,0.000000,426.000000,421.000000,5.000000,22.000000,0.000000,0.000000,0.000000,0.000000,0.000000;
#CREDIT:Embrace;
#NOTES:
00000000
00000000
00000000
00000000
,
00000000
00000000
00000000
00000000
,
00000000
00000000
00000000
00000000
,
00000000
00000000
00000000
00000000
,
00000000
00000000
00000000
00000000
,
00000000
00000000
00000000
00000000
,
00000000
00000000
00000000
00000000
,
00000000
00000000
00000000
00000000
,
00000000
00000001
00001001
00001000
,
00000100
00010000
00001000
01000000
,
00100000
00000000
10000000
00010000
10000000
00000000
01000000
00000000
,
00100000
00001000
00010000
00000000
00000010
00000000
00001000
00000001
,
00000100
00000000
00000010
00000000
00010000
00001000
00000000
00001000
,
00010000
00000000
00001000
00100000
00010000
00000000
10000000
00000000
,
00100000
10000000
01000000
00000000
00100000
00000000
00001000
00010000
,
00000010
00000000
00001000
00000000
00000100
00000010
00000100
00000000
,
00001000
00000001
00000100
00000010
00000000
00000000
00000110
00000000
,
00001000
00000100
00000000
00000100
00010000
00000000
00001000
01000000
,
00010000
01000000
00100000
10000000
00000000
10000000
00010000
00000000
,
00100000
00001000
00000000
00001000
00010000
00000000
00000010
00000000
,
00001000
00000001
00000010
00000100
00001000
00000010
00002000
00000000
,
00003001
00000000
00000010
00000100
00000000
00010000
00001000
00000000
,
01000000
00000000
00100000
10000000
00010000
00100000
00001000
00000000
,
00010000
00000010
00001000
00000001
00000200
00000000
00000310
00001000
,
00000100
00000000
00000010
00000100
00010000
00001000
00000000
00000000
,
00200000
00000000
00000000
00000000
00000000
00300000
00110000
00000000
,
00010000
00000000
10000000
00100000
10000000
00000000
00010000
00000000
,
00100000
01000000
10000000
00010000
01000000
00002000
00000000
00000000
,
00013000
00001000
00000000
00001000
00000000
00001000
00100000
00001000
,
00000000
00010000
00000000
00010000
00000100
00000000
00000010
00000000
,
00000001
00000000
00000100
00000010
00000100
00000000
00000010
00010000
,
00001000
00100000
00000000
01000000
00000000
00100000
00001000
00002000
,
00000000
00000000
00003000
01000000
00010000
10000000
00100000
01000000
,
00000000
00100000
00000000
10000000
02000000
00000000
03100000
00000000
,
00001000
00010000
00000000
00010000
00000000
00000010
00000100
00000000
,
00000001
00000000
00000000
00000010
00000001
00000000
00000100
00000000
,
00000010
00010000
00000000
00010000
00000000
00001000
00100000
00000000
,
00000000
00010000
00100000
01000000
10000000
00010000
01000000
00000000
,
00001000
00010000
00001000
00000000
00100000
00000000
00010000
01000000
,
00100000
00000000
00000000
10000000
01000000
00000000
00100000
00200000
,
00000000
00000000
00301000
00010000
00000010
00000000
00001000
00000100
,
00000010
00000001
00000000
00001000
00000010
00010000
00001000
00100000
,
00000000
01000000
00100000
00000000
00001000
00010000
00000000
00000010
,
00000100
00000001
00000010
00000000
00000010
00000000
00000010
00000100
,
00000000
00010000
00001000
00000000
01000000
00100000
00000000
10000000
,
01000000
10000000
00010000
01000000
00001000
00000000
00010000
00000100
,
00000000
00000010
00000001
00000000
00000100
00000010
00000000
00010000
,
00001000
00100000
00010000
00000000
00010000
00000000
00010000
01000000
,
00000000
00100000
10000000
00000000
01000000
00100000
00000000
00001000
,
00010000
00000010
00001000
00000001
00000100
00000010
00010000
00001000
,
00000000
00100000
01000000
00000000
10000000
00100000
00000000
01000000
,
00100000
01000000
00001000
00010000
00001000
00000000
00100000
01000000
,
00000000
10000000
01000000
00000000
00100000
00001000
00000000
00010000
,
00000010
00001000
00000001
00000010
00000001
00000010
00000001
00000100
,
00000000
00000010
00010000
00000000
00001000
00100000
00000000
01000000
,
00100000
00010000
10000000
00100000
10000000
00100000
02000000
03001000
,
00000000
00002000
00013000
00000000
00020000
00030100
00000000
00000200
,
00000310
00000000
00000020
00000031
00000000
00000002
00000103
00000000
,
00000200
00000310
00000000
00000020
00010030
00000000
00022000
00000000
,
00000000
00000000
00000000
00000000
00000000
00033000
00001000
00000000
,
00000000
00000100
00000000
00000000
00000001
00000000
00000000
00000010
,
00000000
00000000
00001000
00000000
00000000
00020000
00000000
00000000
,
00030010
00000000
00000000
00000100
00000000
00000000
00001000
00000000
,
00000000
00010000
00000000
00000000
00100000
00000000
00000000
10000000
,
00000000
00000000
01000000
00000000
00000000
00010000
00000000
00000000
,
00001000
00000000
00000000
01000000
00000000
00000000
00100000
00000000
,
00000000
10000000
00000000
00000000
01000000
00000000
00000000
00100000
,
00000000
00000000
00001000
00010000
00000010
00001000
00000001
00000000
,
00000100
00000000
00001000
00010000
00001000
00000000
00100000
00000000
,
00010000
00000000
01000000
00100000
10000000
00000000
01000000
00100000
,
01000000
00000000
00010000
00000000
00001000
00100000
00000000
00010000
,
00000000
01000000
00001000
00010000
00000000
00000100
00000020
00000000
,
00000031
00000100
00000001
00000000
00001010
00000000
00001000
00000001
,
00000000
00000001
00000010
00000000
00000100
00010000
00001000
01000000
,
00100000
00000000
00010000
00001000
00000000
00100000
00020000
00000000
,
20030000
00000000
31000000
00010000
00001000
00010000
00000010
00000000
,
00010000
00001000
00100000
01000000
00100000
00000000
00001000
00010000
,
00000100
00000000
00001000
00000010
00000000
00000010
00001000
00000000
,
00000100
00000010
00000001
00000100
00000000
00000010
00010000
00000000
,
00001000
00100000
00000000
00100000
00010000
10000000
00200000
00000000
,
01300000
00001000
00010000
00000100
00000000
00000010
00000001
00000000
,
00001000
00000010
00000100
00000001
00000000
00000001
00000010
00000000
,
00000100
00010000
00001000
00100000
00010000
00000000
01000000
00100000
,
10000000
00000000
00100000
00010000
00001000
00010000
00000000
00000000
,
00001000
00000010
00000001
00001000
00000000
00000000
00000001
00000100
,
00001000
00010000
00000000
00000000
00001000
00010000
01000000
10000000
,
00000000
00000000
00010000
01000000
00100000
10000000
00010000
01000000
,
00001000
00010000
00000100
00000010
00000001
00000100
00001000
00010000
;

//---------------dance-double - ----------------
#NOTEDATA:;
#CHARTNAME:;
#CHARTHASH:1798530978;
#STEPSTYPE:dance-double;
#BANNER:;
#DESCRIPTION:;
#CHARTSTYLE:;
#DIFFICULTY:Hard;
#METER:15;
#METERF:0.000000;
#LASTSECONDHINT:114.619568;
#RADARVALUES:0.734696,0.870552,0.223978,0.232592,0.361810,597.000000,571.000000,26.000000,27.000000,0.000000,0.000000,0.000000,0.000000,0.000000,0.734696,0.870552,0.223978,0.232592,0.361810,597.000000,571.000000,26.000000,27.000000,0.000000,0.000000,0.000000,0.000000,0.000000;
#CREDIT:Embrace;
#NOTES:
00000000
00000000
00000000
00000000
,
00000000
00000000
00000000
00000000
,
00000000
00000000
00000000
00000000
,
00000000
00000000
00000000
00000000
,
00000000
00000000
00000000
00000000
,
00000000
00000000
00000000
00000000
,
00000000
00000000
00000000
00000000
,
00000000
00000000
00000000
00000000
,
00000000
00000000
00001000
00000000
00101000
00000000
00100000
01000000
,
00000000
10000000
01000000
00000000
00100000
00000000
00000000
00000000
00001000
00000000
00010000
00000000
00001000
00000000
00000000
00000000
,
00000100
00000000
00000001
00000010
00000001
00000000
00000100
00000010
,
00001000
00000100
00000010
00000000
00001000
00000000
00010000
01000000
,
00000000
00000000
10000000
00010000
10000000
00000000
00000000
10000000
00100000
00000000
00000000
00000000
01000000
00000000
00001000
00000000
,
00010000
00000000
00100000
00000000
10000000
00000000
00000000
10000000
01000000
00000000
00000000
00000000
01100000
00000000
00000000
00000000
,
00100000
00001000
00010000
00000010
00000100
00000000
00000010
00001000
,
00000001
00000010
00000001
00000000
00001000
00000000
00000100
00000000
00010000
00001000
00000000
00001000
01000000
00000000
00000000
00000000
,
01000000
00010000
00000000
00000000
01000000
00000000
00000000
00000000
00000000
00000000
00100000
10000000
02000000
00000000
00000000
00000000
,
03100000
00000000
00001000
00000000
00010000
00000010
00010000
00000000
00001000
00000000
00000010
00000001
00000010
00000000
00000000
00000000
,
00000100
00000000
00000000
00001000
00000010
00000000
00000100
00000000
00000000
00000000
00001000
00010000
00000010
00000000
00000000
00000000
,
00001000
00000000
00000001
00000000
00000100
00000010
00001000
00000000
00000000
00000000
00000100
00010000
00001000
00000000
00000000
00000000
,
01000000
00000000
00010000
00100000
00010000
00000000
10000000
00000000
00100000
00000000
01000000
00001000
00020000
00000000
00031000
00000000
,
00000010
00000000
00000100
00000000
00001000
00000001
00000100
00000000
00000000
00000000
00000010
00001000
00000001
00000000
00000000
00000000
,
00000010
00000000
00000000
00000100
00010000
00001000
00100000
00000000
00000000
00000000
00010000
10000000
00100000
00000000
01000000
00000000
,
00010000
00000000
01000000
00000000
00100000
10000000
00010000
00000000
00100000
00000000
00001000
00000000
00010000
00000000
00000010
00000100
,
00000000
00000100
00000010
00000000
00002000
00000000
00003200
00000000
00000320
00000000
00000032
00000000
00000003
00000000
00000000
00000000
,
00002000
00000000
00000000
00000000
00000000
00003000
00000110
00000000
,
00000001
00000010
00000000
00000010
00000001
00000000
00001000
00000000
,
00000100
00000100
00010000
00001000
01000000
00200000
01000000
00000000
,
10300000
10000000
00010000
10000000
01000000
00100000
00001000
00010000
,
00000010
00001000
00000100
00000020
00000001
00000000
00000130
00000000
,
00001000
00000010
00000000
00000010
00010000
00000000
00001000
00010000
,
00100000
10000000
00000000
00010000
01000000
00001000
00010000
00020000
,
00000100
00000000
00000000
01030000
10000000
00010000
01000000
02000000
,
00000000
00000000
03100000
00000000
00010000
00000000
00001000
00010000
00000010
00001000
00000000
00001000
00000001
00000000
00000000
00000000
,
00001000
00001000
00000100
00001000
00000010
00001000
00000100
00000010
,
00000001
00000000
00000000
00001000
00000100
00000001
00000100
00000010
,
00000001
00000001
00000100
00000001
00001000
00000001
00000010
00000000
,
00001000
00010000
01000000
00010000
00001000
02000000
00010000
00000000
,
03100000
20000000
00010000
00000000
31000000
00000000
00010000
00001000
,
00100000
00000000
00000000
00100000
00010000
00000000
00001002
00001000
,
00000000
00000000
00000103
00000010
00001000
00000001
00000010
00001000
,
00010000
00000000
01000000
00000000
00100000
00010000
00000000
00100000
00010000
10000000
01000000
00000000
00100000
00000000
00010000
00000000
,
00000000
00010000
01000000
00000000
01000000
00001000
00000000
00010000
,
00000010
00001000
00001010
00000000
00001001
00000000
00000001
00000100
,
00000001
00000010
00000100
00000000
00000100
00010000
00000000
00010000
,
00001000
00000000
00100000
00000000
00010000
00000000
01000000
00000000
00100000
00000000
00010000
00001000
00010000
00000000
00000010
00000000
,
00000000
00000010
00000100
00000000
00000100
00000001
00000000
00000010
,
00001000
00010000
00011000
00000000
00101000
00000000
00100000
01000000
,
00010000
00001000
00100000
00000000
00010000
01000000
00000000
00100000
,
00010000
00000000
00001000
00000000
00000010
00000000
00000100
00000000
00001000
00000000
00000001
00001000
00000010
00000000
00000100
00000000
,
00000001
00000000
00000100
00000000
00000010
00000000
00000000
00000000
00000010
00000000
00001000
00000000
00000001
00000100
00000001
00000000
,
00001000
00000100
00010100
00000000
00101000
00000000
00001000
00010000
,
01000000
00000000
10000000
00000000
00100000
00000000
00000000
00000000
00100000
00000000
10000000
00000000
00010000
01000000
00010000
00000000
,
00100000
00000000
00001000
00010000
00001000
00000000
00001000
00000000
01000000
00000000
00010000
10000000
00100000
00000000
01000000
00000000
,
00010000
01000000
00010000
00000000
10000000
00000000
00100000
00000000
01000000
00000000
00001000
00010000
00000000
00001000
00010000
00000000
,
00000100
00000000
00010000
00001000
00010000
00000000
00010000
00000010
00001000
00000001
00000000
00000001
00002000
00000000
00003100
00000000
,
00000000
00000020
00000031
00000000
00000200
00000310
00000000
00020000
,
00031000
00000000
00200000
01300000
00000000
20000000
30100000
00000000
,
00020000
00031000
00000000
00000020
00000130
00000000
00022000
00000000
,
00000000
00000000
00033000
00010000
,
00000000
00000000
00001010
00000000
00000000
00000010
00000100
00000000
00000001
00000000
00000000
00000000
00000001
00000000
00000010
00000000
,
00000000
00000010
00000100
00010000
00001000
00010000
00100000
10000000
,
00010000
00000000
00000000
00101000
00000000
00100000
00010000
00000000
,
00000000
00010100
00000000
00010000
00001000
00000010
00000100
00001000
,
00000001
00000100
00000010
00001000
00000001
00001000
00000010
00000100
,
00001000
00010000
01000000
10000000
00010000
00100000
00010000
10000000
,
01000000
00010000
00001000
01000000
00010000
00100000
00001000
00010000
,
00000010
00001000
00000001
00000100
00000010
00001000
00001010
00000000
,
00000010
00000000
00010000
00001000
00000000
00010000
00001000
00000000
00100000
00000000
00000000
00000000
01100000
00000000
00000000
00000000
,
00010000
00000000
10000000
00100000
00000000
10000000
00100000
00000000
01000000
00000000
00001000
00000000
00010000
00000000
00001000
00000000
,
00000100
00000000
00000010
00001000
00000000
00000010
00001000
00000000
00000001
00000000
00000010
00000000
00000000
00000000
00000110
00000000
,
00000000
00000000
00000100
00010000
00000000
00000100
00010000
00000000
00001000
00000000
00100000
00010000
20000000
00000000
00000000
00000000
,
31000000
00000000
00010000
00001000
00000000
00010000
00001000
00000000
00000010
00000000
00000000
00000000
00000011
00000000
00000001
00000000
,
00001000
00000000
00000010
00000100
00000000
00000010
00000100
00000000
00001000
00000000
00010000
00000000
00100000
00000000
00010000
00000000
,
00001000
00000000
00001000
00100000
00000000
00100000
01000000
10000000
,
00010000
00000000
00000000
10000000
00010000
01000000
00001000
00010000
00000010
00001000
00000001
00000000
00000020
00000000
00000130
00000000
,
00010000
00000000
00001000
00000000
01000000
00010000
01000000
00000000
00100000
00000000
00000000
10000000
00010000
00000000
00010000
00000000
,
00100000
00000000
00000000
01000000
00100000
00000000
00001000
00000000
00000000
00000000
00010000
00000010
00001000
00000000
00000000
00000000
,
00000001
00000000
00000010
00000100
00000000
00010000
00001000
00000000
00000000
00000000
00000100
00000010
00000100
00000000
00000000
00000000
,
00000001
00000000
00000000
00000001
00001000
00000000
00000100
00010000
00001000
00000000
00100000
00001000
00020000
00000000
01030000
00000000
,
10000000
00000000
00100000
00000000
01000000
00100000
10000000
00000000
00000000
00000000
10000000
00100000
01000000
00000000
00100000
00000000
,
00010000
00000000
00000000
00001000
00010000
00000010
00001000
00000000
00000000
00000000
00001000
00000001
00000010
00000000
00000000
00000000
,
00001000
00000000
00010000
00000000
00000100
00001000
00000001
00000000
00000100
00000000
00000010
00010000
00000000
00001000
00100000
00010000
,
00000000
00100000
01000000
10000000
00010000
00000000
10000000
00100000
10000000
00000000
10100000
00000000
00000000
00000000
00000000
00000000
,
00010000
10000000
01000000
00110000
00000000
00000000
00100000
00001000
,
00010000
01001000
00000000
00000000
00001000
00010000
00000100
00001001
,
00000000
00000000
00001000
00000010
00000100
00001010
00000001
00000010
,
00000100
00011000
00100000
00010000
10000000
01010000
00001000
00011000
;
