#VERSION:0.83;
#TITLE:Insane Techniques;
#SUBTITLE:;
#ARTIST:kors k;
#TITLETRANSLIT:;
#SUBTITLETRANSLIT:;
#ARTISTTRANSLIT:;
#GENRE:;
#CREDIT:;
#MUSIC:Insane Techniques-audio.ogg;
#BANNER:Insane Techniques-banner.png;
#BACKGROUND:Insane Techniques-background.png;
#JACKET:Insane Techniques-jacket.png;
#DISCIMAGE:;
#CDIMAGE:;
#SELECTABLE:YES;
#LYRICSPATH:;
#CDTITLE:scr-cdtitle.png;
#SAMPLESTART:26.301001;
#SAMPLELENGTH:13.151000;
#BPMS:0.000=146.000,
128.000=73.000,
160.000=146.000,
264.000=73.000
;
#STOPS:;
#WARPS:;
#DELAYS:;
#SPEEDS:0.000=1.000=0.000=0,
192.000=0.000=0.000=0,
192.042=1.000=6.000=0,
199.000=1.250=0.500=0,
199.500=1.000=0.500=0,
264.000=5.000=3.000=0
;
#SCROLLS:0.000=1.000,
27.500=3.000,
29.000=2.000,
30.000=0.500,
31.500=1.000,
58.000=2.000,
58.063=1.750,
58.125=1.500,
58.188=1.250,
58.250=1.000,
58.313=0.750,
58.375=0.500,
58.438=0.250,
58.500=0.000,
58.563=0.125,
58.625=0.250,
58.688=0.375,
58.750=0.500,
58.813=0.625,
58.875=0.750,
58.938=0.825,
59.000=1.000,
92.000=0.750,
96.000=1.000,
175.000=2.000,
175.250=0.000,
175.500=2.000,
175.750=0.000,
176.000=1.000,
179.000=2.000,
179.250=0.000,
179.500=2.000,
179.750=0.000,
180.000=1.000,
230.000=0.800,
231.000=1.000,
244.000=0.500,
246.000=1.000
;
#TICKCOUNTS:0.000=4;
#TIMESIGNATURES:0.000=4=4;
#LABELS:0.000=Song Start;
#COMBOS:0.000=1;
#FAKES:;
#BGCHANGES:;
#FGCHANGES:;
#ATTACKS:;
#PREVIEWVID:;
#KEYSOUNDS:;

//---------------dance-single - [XMOD] XO+, DS----------------
#NOTEDATA:;
#CHARTNAME:;
#CHARTSTYLE:;
#CREDIT:Scrypts;
#STEPSTYPE:dance-single;
#DESCRIPTION:[XMOD] XO+, DS-;
#DIFFICULTY:Medium;
#METER:12;
#METERF:12;
#RADARVALUES:;
#NOTES:
// measure 0
0000
0000
0000
0000
,  // measure 1
0000
0000
0000
0000
,  // measure 2
0000
0000
0000
0000
,  // measure 3
0000
0000
0000
0000
,  // measure 4
2000
0000
0000
0000
,  // measure 5
0000
0000
0000
0000
,  // measure 6
3002
0000
0000
0000
,  // measure 7
0000
0000
0000
0000
0003
0000
0000
1000
,  // measure 8
0001
0100
0010
1000
0001
0100
1000
0100
,  // measure 9
0001
0100
0010
1000
0100
1000
0010
0100
,  // measure 10
0001
0100
0010
1000
0100
0001
0100
1000
,  // measure 11
0001
0100
0010
2000
0000
3010
0100
0001
,  // measure 12
1000
0000
0100
0010
0001
1000
0010
1000
,  // measure 13
0001
0010
0100
0001
0100
1000
0001
0100
,  // measure 14
0020
0000
1030
0010
0100
0000
0001
1000
,  // measure 15
0100
0010
0001
0100
0020
0000
0030
0000
,  // measure 16
1000
0100
0010
0100
1000
0010
0100
0001
,  // measure 17
1000
0100
0010
0001
1000
0010
0001
0010
,  // measure 18
1000
0100
0010
0001
0100
0010
1000
0001
,  // measure 19
0010
0001
1000
0100
0001
0100
1000
0010
,  // measure 20
0100
0001
1000
0100
0010
0100
1000
0010
,  // measure 21
0100
0001
1000
0010
0001
0010
2000
0000
,  // measure 22
3001
0000
0000
0010
0000
0000
0100
0000
0000
1000
0000
0000
0001
0000
0100
0000
,  // measure 23
0020
0000
1000
0000
0000
0000
0130
0001
,  // measure 24
1000
0100
0010
0001
0100
0001
1000
0100
,  // measure 25
1000
0010
0100
0001
1000
0100
1000
1000
,  // measure 26
0001
0100
0001
0010
0100
1000
0010
0100
,  // measure 27
0010
0000
1000
0000
0100
0000
0010
0000
0001
0000
1000
0001
1000
0000
1000
0000
,  // measure 28
0010
0100
0010
1000
0100
0010
0001
1000
,  // measure 29
0001
0100
0010
1000
0001
0010
0002
0000
,  // measure 30
1003
0100
0010
0001
,  // measure 31
1000
0010
0100
0001
1000
0100
0010
0001
,  // measure 32
2000
3020
0230
0302
,  // measure 33
2003
0000
0000
0000
3200
0000
0000
0000
0320
0000
0000
0000
0031
0000
1000
0001
,  // measure 34
2000
3020
0230
0302
,  // measure 35
2003
0000
0000
0000
3200
0000
0000
0000
0320
0000
0000
0000
0032
0000
0103
0010
,  // measure 36
0200
0302
0023
0230
,  // measure 37
2300
0000
0000
0000
3002
0000
0000
0000
0203
0000
0000
0000
0310
1000
0001
1000
,  // measure 38
0200
0320
0032
2003
,  // measure 39
3020
0000
0000
0000
0230
0000
0000
0000
0301
0010
0001
0000
1000
0100
1000
0000
,  // measure 40
0001
0000
0100
0000
0001
1000
0001
0010
,  // measure 41
0100
0000
1000
0000
0001
1000
0010
0010
,  // measure 42
1000
0100
1000
0001
1000
0010
1000
0001
,  // measure 43
0100
0001
1000
0001
0010
0001
1000
1000
,  // measure 44
0001
0100
0001
1000
0001
0010
0100
0100
,  // measure 45
2000
0000
0000
0000
3010
0000
0100
0000
0001
0000
0100
0000
0010
0000
1000
0001
,  // measure 46
1000
0000
0000
0100
0000
0000
0010
0000
0000
0001
0000
0000
1000
0000
0001
0000
,  // measure 47
2000
0000
3020
0000
0230
0000
0302
0003
,  // measure 48
2001
0000
0000
0000
,  // measure 49
0000
0000
3200
0001
,  // measure 50
1300
0000
0000
0010
0000
0000
0100
0000
0001
0000
1000
0000
0001
0000
0010
0000
,  // measure 51
0100
0000
0000
1000
0000
0000
0001
0000
1000
0000
0010
0000
0100
0000
0001
0000
,  // measure 52
1000
0000
0000
0100
0000
0000
0010
0000
0100
0000
1000
0000
0010
0000
0100
0000
,  // measure 53
0001
0000
0000
0010
0000
0000
0100
0000
1000
0000
0010
0000
0100
0000
0001
0000
,  // measure 54
1000
0000
0000
0100
0000
0000
0010
0000
0001
0000
1000
0000
0010
0000
0100
0000
,  // measure 55
0001
0000
0000
0100
0000
0000
0010
0000
1000
0000
0001
0000
0010
0000
0100
0000
,  // measure 56
1000
0000
0000
0001
0000
0000
0100
0000
0001
0000
1000
0000
0100
0000
0010
0000
,  // measure 57
0001
0001
1000
1000
0020
0000
0130
0001
,  // measure 58
1000
0100
0001
0100
1000
0010
0100
0010
,  // measure 59
1000
0100
0001
0100
1000
0001
0020
0000
,  // measure 60
0031
0100
1000
0100
0001
0010
0100
1000
,  // measure 61
0002
0000
0000
0000
1003
0100
0010
0010
,  // measure 62
0001
0100
1000
0100
0001
0010
0100
0010
,  // measure 63
0001
0000
1000
0000
0010
0000
0100
0000
0001
0000
0000
0001
0000
0000
0001
0000
,  // measure 64
1000
0100
0001
0100
1000
0001
0100
1000
,  // measure 65
0001
0010
1000
0001
0010
1000
0010
0001
,  // measure 66
1001
0000
0000
0000
;

//---------------dance-single - [XMOD] XO, DS----------------
#NOTEDATA:;
#CHARTNAME:;
#CHARTSTYLE:;
#CREDIT:Scrypts;
#STEPSTYPE:dance-single;
#DESCRIPTION:[XMOD] XO, DS-;
#DIFFICULTY:Hard;
#METER:14;
#METERF:14;
#RADARVALUES:;
#NOTES:
// measure 0
0000
0000
0000
0000
,  // measure 1
0000
0000
0000
0000
,  // measure 2
0000
0000
0000
0000
,  // measure 3
0000
0000
0000
0000
,  // measure 4
2000
0000
0000
0000
,  // measure 5
0000
0000
0000
0000
,  // measure 6
3020
0000
0000
0000
,  // measure 7
0000
0000
0000
0000
0030
0000
0000
1000
,  // measure 8
0001
0000
0000
1000
0100
0000
0010
0000
0001
1000
0001
1000
0001
0000
0100
0000
,  // measure 9
0001
0000
0000
1000
0010
0000
1000
0000
0100
0000
1000
0001
0010
0000
0001
0000
,  // measure 10
0100
0000
0000
0001
0010
0000
0100
0000
1000
0001
1000
0001
1000
0000
0010
0000
,  // measure 11
0100
0000
0000
0001
0010
0000
2000
0000
0000
0000
3010
0000
0100
1000
0100
0000
,  // measure 12
0011
0000
0000
0001
1000
0000
0010
0000
2000
0000
3200
0000
0302
0000
0203
0000
,  // measure 13
1300
0000
0010
0000
0110
0000
0100
0001
0000
0001
0000
0001
0100
0000
0010
0000
,  // measure 14
2000
0000
0000
0000
3001
0010
0001
0000
1001
0000
0000
0000
1100
0000
1000
0000
,  // measure 15
1010
0000
0020
0000
0031
0000
0010
0000
1000
0001
0000
0001
0000
0000
0001
0000
,  // measure 16
1000
0000
0100
0000
0002
0000
0000
0103
0000
0100
0000
0010
0001
0000
1000
0001
,  // measure 17
1000
0000
0010
0000
0002
0000
0000
0013
0000
0010
0000
0100
0001
0000
0010
0000
,  // measure 18
0001
0000
0100
0000
2000
0000
0000
3100
0000
0100
0000
0010
1000
0000
0001
1000
,  // measure 19
0001
0000
0010
0000
2000
0000
0000
3010
0000
0010
0000
0100
1000
0000
0001
0000
,  // measure 20
0100
0000
0010
0000
0002
0000
0000
0013
0000
0010
0000
0100
0001
0000
1000
0000
,  // measure 21
0100
0000
0010
0000
2000
0000
0000
3010
0000
0010
0000
0100
2000
0000
0000
0000
,  // measure 22
3001
0000
1000
0100
0000
1000
0001
0000
1000
0010
0000
0100
0002
0000
0010
0000
,  // measure 23
2003
0000
0001
0000
0000
3001
0100
0001
,  // measure 24
1000
0000
0100
0000
0010
0000
0000
0001
0000
1000
0000
0000
0010
0000
0100
0000
,  // measure 25
0001
0000
0100
0000
0010
1000
0000
1000
0000
0001
1000
0001
1000
0000
1000
0000
,  // measure 26
0100
0000
0010
0000
0001
0000
0000
1000
0000
0010
0000
0100
0001
0000
0010
0000
,  // measure 27
0100
0000
0100
0000
1000
0010
0000
0100
0001
1000
0001
1000
0100
0000
0100
0000
,  // measure 28
0020
0000
0031
0000
0010
0100
0000
1000
0000
1000
0000
0010
0100
0000
0001
0000
,  // measure 29
1000
0000
0100
0000
0010
0001
0000
0001
0000
1000
0010
1000
0200
0000
0000
0000
,  // measure 30
0310
0001
1000
0010
,  // measure 31
0100
0000
0100
0000
0001
0000
0001
0000
1000
0000
0100
0000
0010
0000
0001
1000
,  // measure 32
0001
0100
0000
0100
0010
0000
0010
1000
0000
1000
0100
0000
0100
0010
0000
0010
,  // measure 33
0001
0000
0001
1000
0000
1000
0010
0000
0010
0100
0000
0001
0100
0001
1000
0100
,  // measure 34
0010
0001
0000
0001
0100
0000
0100
0010
0000
0010
1000
0000
1000
0100
0000
0100
,  // measure 35
0010
0000
0010
0001
0000
0001
1000
0000
1000
0010
0000
0010
0100
0001
1000
0100
,  // measure 36
0010
0001
0000
0001
1000
0000
1000
0010
0000
0010
0100
0000
0100
0001
0000
0001
,  // measure 37
1000
0000
1000
0100
0000
0100
0010
0000
0010
0100
0000
0100
1000
0001
0100
0010
,  // measure 38
1000
0100
0000
0100
0010
0000
0010
0001
0000
0001
0100
0000
0100
0010
0000
0010
,  // measure 39
1000
0000
0000
0000
1000
0000
0010
0000
0000
0000
0010
0000
0100
0000
0000
0000
0001
0000
0010
0000
0100
0000
1000
0000
0001
0000
0100
0000
0010
0000
1000
0001
,  // measure 40
1000
0000
0000
0100
0000
0000
0010
0000
0001
1000
0001
1000
0001
0000
0100
0000
,  // measure 41
0010
0000
0000
1000
0000
0000
0100
0000
0010
0001
0010
0001
1000
0000
0010
0000
,  // measure 42
0100
0000
0001
0000
1000
0000
0100
0000
0010
0001
0010
0001
1000
0000
0010
0000
,  // measure 43
0100
0000
0001
0000
0010
0000
0100
0000
1000
0010
1000
0010
0100
0000
1000
0000
,  // measure 44
0100
0000
0010
0000
1000
0000
0001
0000
0010
0100
0010
0100
0001
0000
0100
0000
,  // measure 45
1000
0000
0001
0100
0001
0000
1000
0100
1000
0001
0010
0000
0010
0000
0100
1000
,  // measure 46
0001
0000
0000
0100
0000
0000
1000
0000
0000
0100
0000
0000
0001
0000
0010
0000
,  // measure 47
0001
0000
0100
0000
0010
0000
1000
0000
0100
0000
0010
0000
0001
0000
1000
0001
,  // measure 48
2000
0000
0000
0000
,  // measure 49
0000
0000
3001
1001
,  // measure 50
1000
0000
0000
0010
0000
0000
0100
0000
0001
1000
0100
1000
0010
0000
0100
0000
,  // measure 51
0001
0000
0000
0010
0000
0000
0100
0000
1000
0001
0100
0001
0020
0000
0100
0000
,  // measure 52
0031
0000
0000
1000
0000
0000
0010
0000
1000
0001
0010
0001
0100
0000
0010
0000
,  // measure 53
1000
0000
0000
0001
0000
0000
0010
0000
0001
1000
0010
1000
0200
0000
0010
0000
,  // measure 54
1300
0000
1000
0010
0000
0000
0100
0000
0001
1000
0100
1000
0001
0000
0100
0000
,  // measure 55
0001
0000
0001
0010
0000
0000
0100
0000
1000
0001
0100
0001
1000
0000
0010
0000
,  // measure 56
1000
0000
1000
0100
0000
0000
0010
0000
0001
1000
0100
1000
0001
0000
0010
0100
,  // measure 57
2000
0000
0010
0000
0001
0000
3100
0000
1002
0000
0000
0000
0013
0100
0010
0100
,  // measure 58
1000
0000
0010
0000
0001
0000
0010
0000
0100
0001
0000
0001
1000
0000
0100
0000
,  // measure 59
0001
0000
0100
0000
0010
0000
0001
0000
1000
0010
1000
0010
1000
0000
0001
0000
,  // measure 60
0010
0000
1000
0000
0010
0000
0100
0000
1000
0001
0000
0001
0100
0000
0010
0000
,  // measure 61
2000
0000
0000
0000
3001
0010
0100
0010
,  // measure 62
0001
0000
0100
0000
1000
0000
0100
0000
0010
1000
0000
1000
0001
0000
0010
0000
,  // measure 63
0100
0000
1000
0000
0001
0100
0000
0100
0001
1000
0000
1001
0000
0000
0001
0000
,  // measure 64
1000
0100
0010
0100
1000
0010
0100
0010
,  // measure 65
0001
0000
0010
0000
1000
0000
0100
0000
0001
0000
0100
0000
0010
0000
0001
1000
,  // measure 66
0002
0000
0000
0003
;

//---------------dance-single - [XMOD] DS+, FS+, XO---------------
#NOTEDATA:;
#CHARTNAME:;
#CHARTSTYLE:;
#CREDIT:Scrypts;
#STEPSTYPE:dance-single;
#DESCRIPTION:[XMOD] DS+, FS+, XO;
#DIFFICULTY:Challenge;
#METER:16;
#METERF:16;
#RADARVALUES:;
#NOTES:
// measure 0
0000
0000
0000
0000
,  // measure 1
0000
0000
0000
0000
,  // measure 2
0000
0000
0000
0000
,  // measure 3
0000
0000
0000
0000
,  // measure 4
2000
0000
0000
0000
,  // measure 5
0000
0000
0000
0000
,  // measure 6
3002
0000
0000
0000
,  // measure 7
0000
0000
0000
0000
0003
0000
0000
1000
,  // measure 8
1002
0000
0103
0001
0010
0000
0110
0000
0100
1000
0001
1000
0200
0000
0010
0000
,  // measure 9
2300
0000
3100
1000
0010
0000
1010
0000
0001
1000
0100
1000
0010
0000
1000
0000
,  // measure 10
0001
0000
0100
0001
0010
0000
0110
0000
0100
1000
0001
1000
0100
0000
0020
0000
,  // measure 11
0031
0000
0100
0002
0010
0000
1003
0020
0000
0000
0130
0000
0100
0001
0010
0000
,  // measure 12
0011
0000
0001
1000
0010
0000
0200
0000
2300
0000
3002
0000
0023
0000
2030
0000
,  // measure 13
3001
0000
0100
0000
0110
0000
0010
1000
0001
1000
0100
1000
0010
0000
0110
0000
,  // measure 14
1002
0000
0000
0000
1003
0100
0010
0000
0011
0000
0000
0000
1002
0000
0203
0000
,  // measure 15
1000
0000
0320
0000
0001
0000
1030
0000
0001
0010
0000
0010
0000
0000
0100
0000
,  // measure 16
1000
0000
0001
1000
0200
0000
1300
0010
0000
0100
0000
0010
1000
0000
0001
1000
,  // measure 17
0100
0000
0010
0001
2000
0000
3001
0010
0000
1000
0000
0010
0001
0000
1000
0000
,  // measure 18
0010
0000
1000
0001
0020
0000
0031
0100
0000
0010
0000
0100
0001
0000
1000
0001
,  // measure 19
0010
0000
0100
1000
0002
0000
1003
0100
0000
0001
0000
0100
1000
0000
0001
0000
,  // measure 20
1001
0000
0001
1000
0020
0000
1030
0100
0000
0010
0000
0100
1000
0000
0001
1000
,  // measure 21
0010
0000
0100
0001
2000
0000
3001
0100
0000
1000
0000
0100
0020
0000
0000
0000
,  // measure 22
1030
0000
0000
0000
0000
0000
0000
0000
0001
0000
0000
0000
0200
0300
0000
0000
0000
0000
0000
0000
0200
0300
0000
0000
1000
0000
0000
0000
0000
0000
0000
0000
1000
0000
0000
0000
0020
0030
0000
0000
0000
0000
0000
0000
0020
0030
0000
0000
0001
0000
0000
0000
0010
0000
0000
0000
0100
0000
0000
0000
1000
0000
0000
0000
,  // measure 23
0002
0000
0000
0000
0100
0000
0000
0000
1003
0000
0200
0000
0320
0000
0031
1000
,  // measure 24
0001
0000
0000
0000
0000
0000
0000
0000
1000
0000
0000
0000
0010
0000
0000
0000
0100
0000
0000
0000
0001
0000
0000
0000
0000
0000
0000
0000
0200
0300
0000
0000
0000
0000
0000
0000
0200
0300
0000
0000
0000
0000
0000
0000
1000
0000
0000
0000
0001
0000
0000
0000
0000
0000
0000
0000
1000
0000
0000
0000
0200
0000
0000
0000
,  // measure 25
0010
0000
0000
0000
0000
0000
0000
0000
1000
0000
0000
0000
0000
0000
0000
0000
0310
0000
0000
0000
0001
0000
0000
0000
0000
0000
0000
0000
0001
0000
0000
0000
1000
0000
0000
0000
0100
0000
0000
0000
1000
0000
0000
0000
0001
0000
0000
0000
0200
0300
0000
0000
0000
0000
0000
0000
0200
0300
0000
0000
0000
0000
0000
0000
,  // measure 26
1000
0000
0000
0000
0000
0000
0000
0000
0010
0000
0000
0000
0000
0000
0000
0000
1000
0000
0000
0000
0001
0000
0000
0000
0000
0000
0000
0000
1000
0000
0000
0000
0000
0000
0000
0000
0200
0300
0000
0000
0000
0000
0000
0000
0200
0000
0000
0000
0001
0000
0000
0000
0000
0000
0000
0000
0320
0000
0000
0000
0000
0000
0000
0000
,  // measure 27
1000
0000
0000
0000
0000
0000
0000
0000
0100
0000
0000
0000
0000
0000
0000
0000
1030
0000
0000
0000
0020
0030
0000
0000
0000
0000
0000
0000
0020
0030
0000
0000
0001
0000
0000
0000
1000
0000
0000
0000
0100
0000
0000
0000
1000
0000
0000
0000
0001
0000
0000
0000
0000
0000
0000
0000
0001
0000
0000
0000
0000
0000
0000
0000
,  // measure 28
0020
0000
0000
0000
0000
0000
0000
0000
0130
0000
0000
0000
0000
0000
0000
0000
1000
0000
0000
0000
0001
0000
0000
0000
0000
0000
0000
0000
0200
0300
0000
0000
0000
0000
0000
0000
0200
0300
0000
0000
0000
0000
0000
0000
1000
0000
0000
0000
0020
0000
0000
0000
0000
0000
0000
0000
0100
0000
0000
0000
0000
0000
0000
0000
,  // measure 29
2030
0000
0100
0000
3001
0100
0000
0001
1000
0001
0010
0100
2000
0000
0000
0000
,  // measure 30
3002
0000
2003
0100
3020
0000
0230
0000
,  // measure 31
0302
0000
0100
0000
2003
0000
0100
0000
3001
0010
0100
1000
0001
0100
0010
1000
,  // measure 32
0001
0010
0000
0001
0010
0000
0100
1000
0000
0100
1000
0000
0001
0100
0000
0001
,  // measure 33
0100
0000
0010
1000
0000
0010
1000
0000
0010
0100
0000
0001
0100
0001
1000
0100
,  // measure 34
0010
0001
0000
0010
0001
0000
1000
0010
0000
1000
0010
0000
0100
0001
0000
0100
,  // measure 35
0001
0000
1000
0100
0000
1000
0100
0000
0010
0001
0000
0010
0001
1000
0010
0100
,  // measure 36
0001
1000
0000
0001
1000
0000
0100
0010
0000
0100
0010
0000
0001
1000
0000
0001
,  // measure 37
0100
0000
0100
0010
1000
0000
0010
0000
0000
0000
1000
0000
0010
0000
0000
0000
0100
0000
0001
0000
0000
0000
0100
0000
0001
0000
0100
0000
0010
0000
1000
0001
,  // measure 38
1000
0020
0000
0031
0020
0000
1030
0200
0000
0301
0200
0000
1300
0002
0000
0103
,  // measure 39
1000
0000
0100
0010
0100
0000
0002
0000
0000
0000
0013
0000
0200
0000
0300
0000
1000
0100
1000
0001
1000
0010
1000
0001
0010
0001
1000
0001
0100
0001
1000
0100
,  // measure 40
0020
0000
0000
0032
0000
0000
2003
0000
3001
0010
0001
1000
0020
0000
0100
0000
,  // measure 41
2030
0000
0000
3200
0000
0000
0320
0000
0031
1000
0010
1000
0200
0000
0010
0000
,  // measure 42
1300
0001
0100
0010
1000
0001
0010
0100
1000
0001
0100
0001
0020
0000
0100
0000
,  // measure 43
0031
0000
1000
0000
0010
0000
0100
0000
0001
0000
1000
0000
0100
0000
0010
0000
0001
0000
1000
0000
0010
0000
2000
0000
0100
0000
0000
0000
0001
3000
0000
0000
,  // measure 44
1000
0000
0010
0000
0100
0000
0001
0000
1000
0000
0100
0000
0010
0000
0001
0000
0100
0000
0010
0000
0100
0000
0002
0000
0010
0000
0000
0000
0100
0003
0000
0000
,  // measure 45
0001
0000
0001
0100
0010
1000
0001
0100
1000
0200
0010
0000
0301
0000
1000
0001
,  // measure 46
0010
0000
0000
0000
0000
0000
0000
0000
0001
0000
0000
0000
0200
0300
0000
0000
0000
0000
0000
0000
0200
0300
0000
0000
1000
0000
0000
0000
0000
0000
0000
0000
1000
0000
0000
0000
0020
0030
0000
0000
0000
0000
0000
0000
0020
0030
0000
0000
0001
0000
0000
0000
0000
0000
0000
0000
1000
0000
0000
0000
0000
0000
0000
0000
,  // measure 47
0001
0010
0100
1000
0010
0100
0001
1000
0100
0010
0001
0100
0010
1000
0100
0010
,  // measure 48
0002
0000
0000
0000
,  // measure 49
0000
0000
0000
0000
0000
0000
0000
0000
1003
0000
0010
0200
1000
0000
0010
0000
,  // measure 50
0301
0000
0000
0000
0000
0000
0000
0000
1000
0000
0000
0000
0200
0300
0000
0000
0000
0000
0000
0000
0200
0300
0000
0000
0001
0000
0000
0000
1000
0000
0000
0000
0001
0000
0000
0000
0010
0000
0000
0000
0100
0000
0000
0000
0010
0000
0000
0000
0001
0000
0000
0000
0000
0000
0000
0000
1000
0000
0000
0000
0000
0000
0000
0000
,  // measure 51
0100
0000
0000
0000
0000
0000
0000
0000
1000
0000
0000
0000
0020
0030
0000
0000
0000
0000
0000
0000
0020
0030
0000
0000
0001
0000
0000
0000
1000
0000
0000
0000
0001
0000
0000
0000
0100
0000
0000
0000
0010
0000
0000
0000
0100
0000
0000
0000
0002
0000
0000
0000
0000
0000
0000
0000
0100
0000
0000
0000
0000
0000
0000
0000
,  // measure 52
1003
0000
0000
0000
0000
0000
0000
0000
0001
0000
0000
0000
0200
0300
0000
0000
0000
0000
0000
0000
0200
0300
0000
0000
1000
0000
0000
0000
0001
0000
0000
0000
1000
0000
0000
0000
0100
0000
0000
0000
0010
0000
0000
0000
0100
0000
0000
0000
1000
0000
0000
0000
0000
0000
0000
0000
0010
0000
0000
0000
0000
0000
0000
0000
,  // measure 53
0100
0000
0000
0000
0000
0000
0000
0000
0001
0000
0000
0000
0020
0030
0000
0000
0000
0000
0000
0000
0020
0030
0000
0000
1000
0000
0000
0000
0001
0000
0000
0000
1000
0000
0000
0000
0010
0000
0000
0000
0100
0000
0000
0000
0010
0000
0000
0000
2000
0000
0000
0000
0000
0000
0000
0000
0010
0000
0000
0000
0000
0000
0000
0000
,  // measure 54
3001
0000
0000
0000
0000
0000
0000
0000
0010
0000
0000
0000
0200
0300
0000
0000
0000
0000
0000
0000
0200
0300
0000
0000
0001
0000
0000
0000
1000
0000
0000
0000
0001
0000
0000
0000
0010
0000
0000
0000
0100
0000
0000
0000
0010
0000
0000
0000
0002
0000
0000
0000
0000
0000
0000
0000
0100
0000
0000
0000
0000
0000
0000
0000
,  // measure 55
2003
0000
0000
0000
0000
0000
0000
0000
3100
0000
0000
0000
0020
0030
0000
0000
0000
0000
0000
0000
0020
0030
0000
0000
1000
0000
0000
0000
0001
0000
0000
0000
1000
0000
0000
0000
0010
0000
0000
0000
0100
0000
0000
0000
0010
0000
0000
0000
2000
0000
0000
0000
0000
0000
0000
0000
0100
0000
0000
0000
0000
0000
0000
0000
,  // measure 56
3002
0000
0000
0000
0000
0000
0000
0000
0103
0000
0000
0000
0020
0030
0000
0000
0000
0000
0000
0000
0020
0030
0000
0000
0001
0000
0000
0000
1000
0000
0000
0000
0001
0000
0000
0000
0100
0000
0000
0000
0010
0000
0000
0000
0100
0000
0000
0000
0001
0000
0000
0000
0000
0000
0000
0000
0010
0000
0000
0000
0100
0000
0000
0000
,  // measure 57
2000
0000
0010
0000
3002
0000
0100
0000
2003
0000
0000
0000
3001
0010
0100
1000
,  // measure 58
0001
0000
0000
0000
0000
0000
0000
0000
1000
0000
0000
0000
0100
0000
0000
0000
0002
0000
0000
0000
0000
0000
0000
0000
0103
0000
0000
0000
0010
0000
0000
0000
0001
0000
0000
0000
0200
0300
0000
0000
0000
0000
0000
0000
0200
0300
0000
0000
2000
0000
0000
0000
0000
0000
0000
0000
0010
0000
0000
0000
0000
0000
0000
0000
,  // measure 59
3001
0000
0000
0000
0000
0000
0000
0000
1000
0000
0000
0000
0100
0000
0000
0000
0002
0000
0000
0000
0000
0000
0000
0000
0103
0000
0000
0000
0010
0000
0000
0000
0001
0000
0000
0000
0020
0030
0000
0000
0000
0000
0000
0000
0020
0030
0000
0000
2000
0000
0000
0000
0000
0000
0000
0000
3010
0000
0000
0000
0000
0000
0000
0000
,  // measure 60
1000
0000
0000
0000
0000
0000
0000
0000
0001
0000
0000
0000
0100
0000
0000
0000
2000
0000
0000
0000
0000
0000
0000
0000
3100
0000
0000
0000
0010
0000
0000
0000
1000
0000
0000
0000
0200
0300
0000
0000
0000
0000
0000
0000
0200
0300
0000
0000
0002
0000
0000
0000
0000
0000
0000
0000
0103
0000
0000
0000
0000
0000
0000
0000
,  // measure 61
2001
0000
0000
3000
1200
0320
0031
1000
,  // measure 62
1001
0000
0000
0000
0000
0000
0000
0000
0001
0000
0000
0000
0100
0000
0000
0000
2000
0000
0000
0000
0000
0000
0000
0000
3100
0000
0000
0000
0010
0000
0000
0000
1000
0000
0000
0000
0020
0030
0000
0000
0000
0000
0000
0000
0020
0030
0000
0000
0002
0000
0000
0000
0000
0000
0000
0000
0010
0000
0000
0000
0000
0000
0000
0000
,  // measure 63
1003
0000
0010
0100
0001
0000
1000
0100
0020
0031
0000
1001
0000
0000
0201
0000
,  // measure 64
0310
0000
1000
0100
0010
0000
0100
1000
0001
0100
0010
0000
0100
0001
1000
0100
,  // measure 65
0001
0000
0100
1000
0001
0100
0010
0100
1000
0100
0010
0100
0001
1000
0100
0010
,  // measure 66
0002
0000
0000
0003
;
