#VERSION:0.83;
#TITLE:Independence Bay;
#SUBTITLE:~Wild Resistance~;
#ARTIST:Tokyo Ska Paradise Orchestra;
#TITLETRANSLIT:;
#SUBTITLETRANSLIT:;
#ARTISTTRANSLIT:;
#GENRE:;
#ORIGIN:;
#CREDIT:;
#BANNER:bn.png;
#BACKGROUND:bg.png;
#PREVIEWVID:;
#JACKET:jkt.png;
#CDIMAGE:;
#DISCIMAGE:;
#LYRICSPATH:;
#CDTITLE:;
#MUSIC:audio.ogg;
#OFFSET:-0.035000;
#SAMPLESTART:11.396000;
#SAMPLELENGTH:12.000000;
#SELECTABLE:YES;
#DISPLAYBPM:179.000000;
#BPMS:0.000=176.013,
1.000=171.629,
2.000=180.627,
3.000=176.001,
4.000=176.024,
6.000=180.639,
7.000=177.536,
8.000=184.725,
9.000=181.481,
10.000=176.824,
11.000=183.051,
12.000=178.290,
15.000=178.278,
16.000=187.195,
17.000=173.088,
18.000=182.244,
19.000=187.155,
20.000=175.394,
21.000=181.556,
22.000=183.165,
23.000=179.963,
24.000=179.135,
32.000=183.916,
33.000=182.294,
34.000=177.596,
35.000=173.043,
36.000=180.849,
43.000=180.787,
44.000=178.748,
51.000=178.663,
52.000=180.196,
53.000=181.781,
54.000=185.035,
55.000=174.125,
56.000=180.196,
58.000=177.108,
59.000=183.317,
60.000=179.927,
67.000=179.890,
68.000=179.159,
72.000=187.274,
73.000=177.620,
74.000=173.156,
75.000=183.890,
76.000=181.283,
77.000=176.636,
78.000=179.707,
79.000=176.636,
80.000=181.283,
81.000=178.158,
82.000=173.668,
83.000=186.115,
84.000=183.814,
85.000=174.504,
86.000=182.194,
87.000=175.989,
88.000=179.038,
90.000=175.989,
91.000=182.181,
92.000=188.341,
93.000=172.614,
94.000=186.640,
95.000=180.135,
96.000=177.215,
103.000=177.132,
104.000=187.620,
105.000=173.451,
106.000=181.047,
107.000=177.930,
109.000=179.475,
111.000=179.463,
112.000=180.061,
113.000=183.254,
114.000=181.643,
115.000=175.476,
116.000=180.061,
119.000=179.976,
120.000=183.661,
121.000=174.366,
122.000=183.661,
123.000=180.454,
124.000=177.358,
125.000=174.366,
126.000=183.661,
127.000=174.354,
128.000=188.798,
129.000=177.453,
130.000=182.144,
131.000=180.553,
132.000=175.943,
133.000=183.763,
134.000=175.943,
135.000=180.540,
136.000=179.670,
137.000=181.245,
138.000=182.848,
139.000=172.187,
140.000=187.833,
141.000=175.104,
143.000=172.176,
144.000=190.716,
145.000=180.713,
146.000=177.608,
147.000=174.607,
148.000=180.713,
151.000=180.627,
152.000=179.731,
159.000=179.694,
160.000=178.567,
167.000=178.530,
168.000=184.764,
169.000=175.360,
170.000=184.764,
171.000=175.360,
172.000=184.764,
173.000=175.360,
174.000=179.939,
175.000=179.890,
176.000=180.799,
177.000=179.232,
178.000=180.799,
179.000=182.395,
180.000=179.232,
181.000=173.224,
182.000=180.799,
183.000=190.716,
184.000=179.817,
191.000=179.731,
192.000=178.856,
193.000=175.814,
194.000=177.322,
195.000=180.417,
196.000=182.006,
197.000=178.856,
199.000=178.796,
200.000=176.095,
201.000=179.147,
202.000=182.307,
203.000=179.147,
207.000=179.062,
208.000=179.038,
210.000=183.814,
211.000=185.463,
212.000=175.989,
213.000=180.602,
215.000=180.516,
216.000=179.780,
223.000=179.755,
224.000=179.293,
227.000=179.280,
228.000=180.000,
231.000=179.963,
232.000=177.787,
236.000=179.902,
239.000=179.865,
240.000=181.059,
243.000=181.047,
244.000=178.844,
248.000=179.865,
251.000=179.829,
252.000=180.503,
256.000=176.919,
259.000=176.883,
260.000=178.446,
263.000=178.410,
264.000=180.787,
267.000=180.750,
268.000=181.320,
271.000=181.295,
272.000=178.326,
275.000=178.314,
276.000=179.743,
279.000=179.719,
280.000=180.012,
284.000=180.393,
287.000=180.356,
288.000=179.743,
291.000=179.719,
292.000=180.110,
296.000=180.528,
299.000=180.503,
300.000=177.942,
303.000=177.930,
304.000=179.353,
307.000=179.329,
308.000=180.270,
311.000=180.258,
312.000=180.000,
315.000=179.963,
316.000=178.038,
319.000=178.026,
320.000=179.487,
323.000=179.475,
324.000=179.609,
327.000=179.572,
328.000=180.270,
331.000=180.258,
332.000=177.168,
335.000=177.132,
336.000=181.594,
340.000=181.196,
344.000=178.326,
347.000=178.314,
348.000=180.405,
352.000=178.314,
355.000=178.278,
356.000=178.844,
360.000=180.528,
363.000=180.503,
364.000=179.086,
367.000=179.050,
368.000=180.270,
371.000=180.258,
372.000=179.743,
375.000=179.719,
376.000=179.353,
379.000=179.329;
#STOPS:;
#DELAYS:;
#WARPS:;
#TIMESIGNATURES:0.000=4=4;
#TICKCOUNTS:0.000=4;
#COMBOS:0.000=1;
#SPEEDS:0.000=1.000=0.000=0;
#SCROLLS:0.000=1.000,
192.000=0.800,
194.000=1.000,
196.000=0.800,
198.000=1.000,
204.000=0.800,
206.000=1.000,
208.000=0.800,
210.000=1.000,
212.000=0.800,
214.000=1.000,
352.000=0.800,
354.000=1.000,
356.000=0.800,
358.000=1.000,
364.000=0.800,
366.000=1.000,
368.000=0.800,
370.000=1.000,
372.000=0.800,
374.000=1.000;
#FAKES:;
#LABELS:0.000=Song Start;
#BGCHANGES:;
#KEYSOUNDS:;
#ATTACKS:
;

//---------------dance-single - TaroNuke----------------
#NOTEDATA:;
#CHARTNAME:TaroNuke;
#STEPSTYPE:dance-single;
#DESCRIPTION:TaroNuke;
#CHARTSTYLE:;
#DIFFICULTY:Beginner;
#METER:4;
#RADARVALUES:0.197453,0.297698,0.037972,0.432877,0.000000,182.000000,177.000000,5.000000,57.000000,0.000000,0.000000,0.000000,0.000000,0.000000,0.197453,0.297698,0.037972,0.432877,0.000000,182.000000,177.000000,5.000000,57.000000,0.000000,0.000000,0.000000,0.000000,0.000000;
#CREDIT:TaroNuke;
#DISPLAYBPM:179.000000;
#NOTES:
0000
0000
0000
0000
,
0000
0000
0000
0000
,
0000
0000
0000
0000
,
0000
0000
0000
0000
,
0000
0001
0001
0000
,
1000
0000
1000
0000
0000
0000
0000
0110
,
0000
0000
1000
0000
1000
0000
0000
0002
,
0000
0000
0000
0000
,
0000
0000
0000
0000
0003
0000
0000
2000
,
0000
0000
0000
0000
0000
3000
0000
0200
,
0000
0000
0000
0000
0300
0000
0000
0020
,
0000
0030
0000
0002
0000
0003
0000
2000
,
0000
3000
0000
0000
0000
0000
0000
0002
,
0000
0000
0000
0000
0000
0003
0000
0200
,
0000
0000
0000
0300
0000
0000
0000
0010
,
0000
0010
0000
0010
0000
0000
0000
2000
,
0000
0000
0000
3000
0000
0000
0000
0002
,
0000
0000
0000
0000
0000
0003
0000
0020
,
0000
0000
0000
0000
0030
0000
0000
0200
,
0000
0300
0000
2000
0000
3000
0000
0002
,
0000
0003
0000
0000
0000
0000
0000
2000
,
0000
0000
0000
0000
0000
3000
0000
0020
,
0000
0000
0000
0030
0000
0000
0000
0100
,
0000
0100
0000
0100
0000
0000
0000
0002
,
0000
1003
1000
0000
,
0001
0000
0001
0000
0000
0000
0000
0110
,
0000
0001
0001
0000
,
1000
0000
1000
0000
0000
0000
0000
1001
,
0000
0010
0010
0000
,
0100
0000
0100
0000
0000
0000
0000
1001
,
0000
0010
0010
0000
,
0100
0100
0000
0000
,
1000
1000
1000
0000
,
0001
0000
0000
0001
0000
0000
0000
0000
,
0100
0100
0100
0000
,
0010
0000
0000
0010
0000
0000
0000
0000
,
1000
1000
1000
0000
,
0100
0000
0000
0100
0000
0000
0000
0000
,
0010
0010
0010
0000
,
0001
0000
0000
0001
0000
0000
0000
0000
,
1000
0001
1000
0000
,
0100
0000
0000
0100
0000
0000
0000
0000
,
1000
0001
1000
0000
,
0010
0000
0000
0100
0000
0000
0000
0000
,
0001
1000
0001
0000
,
0100
0000
0000
0100
0000
0000
0000
0000
,
0001
1000
0001
0000
,
0010
0000
0000
0100
0000
0000
0000
0000
,
2000
0000
3000
0000
,
0002
0000
0003
0000
,
2000
3000
0002
0003
,
2000
0000
3000
0000
,
0020
0000
0030
0000
,
0200
0000
0300
0000
,
0020
0030
0200
0300
,
0020
0000
0030
0000
0000
0000
0000
2000
,
0000
0000
0000
0000
0000
3000
0000
0020
,
0000
0000
0000
0000
0030
0000
0000
0200
,
0000
0300
0000
0002
0000
0003
0000
2000
,
0000
3000
0000
0000
0000
0000
0000
0002
,
0000
0000
0000
0000
0000
0003
0000
0020
,
0000
0000
0000
0030
0000
0000
0000
0100
,
0000
0100
0000
0100
0000
0000
0000
2000
,
0000
0000
0000
3000
0000
0000
0000
0000
,
0002
0000
0000
0000
,
0103
0100
0100
0000
,
2000
0000
0000
0000
,
3100
0100
0100
0000
,
2000
0000
3002
0000
,
0103
0100
0100
0000
,
0002
0000
2003
0000
,
3100
0100
0100
0000
,
1000
1000
1000
1000
,
2000
0000
3000
0000
,
0100
0000
0100
0000
,
0010
0000
0010
0000
,
0001
0001
0001
0001
,
0002
0000
0003
0000
,
1000
0000
1000
0000
,
0001
0000
0001
0000
,
0010
0010
0010
0010
,
0020
0000
0030
0000
,
0200
0000
0000
0000
,
1300
0000
1000
0000
,
0010
0010
0010
0010
,
0010
0000
0000
0000
,
1000
0001
1000
0001
,
1000
0001
1000
0000
,
0002
0000
0003
0000
,
2000
0000
3000
0000
,
0002
0003
2000
3000
,
0002
0000
0003
0000
,
0020
0000
0030
0000
,
0200
0000
0300
0000
,
0020
0030
0200
0300
,
0020
0000
0030
0000
0000
0000
0000
2002
,
0000
0000
0000
0000
,
0000
0000
0000
0000
,
3003
0000
0000
0000
;

//---------------dance-single - TaroNuke----------------
#NOTEDATA:;
#CHARTNAME:TaroNuke;
#STEPSTYPE:dance-single;
#DESCRIPTION:TaroNuke;
#CHARTSTYLE:;
#DIFFICULTY:Easy;
#METER:8;
#RADARVALUES:0.350425,0.446547,0.227830,0.463255,0.000000,323.000000,293.000000,30.000000,61.000000,0.000000,0.000000,0.000000,0.000000,0.000000,0.350425,0.446547,0.227830,0.463255,0.000000,323.000000,293.000000,30.000000,61.000000,0.000000,0.000000,0.000000,0.000000,0.000000;
#CREDIT:TaroNuke;
#DISPLAYBPM:179.000000;
#NOTES:
0000
0000
0000
0000
,
0000
0000
0000
0000
,
0000
0000
0000
0000
,
0000
0000
0000
0000
,
0000
0110
0110
0000
,
1001
0000
1001
0000
0000
0000
0000
0101
,
0000
0000
0110
0000
0110
0000
0000
2002
,
0000
0000
0000
0000
,
0000
0000
0000
0000
3003
0000
0000
2000
,
0000
0000
0100
0000
3100
0000
0000
0002
,
0000
0000
0100
0000
0103
0000
0000
2000
,
0000
3100
0000
0002
0000
0103
0000
2000
,
0000
3010
0000
0001
0000
1000
0000
0002
,
0000
0000
0010
0000
0013
0000
0000
2000
,
0000
0000
0010
0000
3010
0000
0000
0001
,
0000
0010
0000
0100
0000
1000
0000
0200
,
0000
0000
1000
0000
1300
0000
0000
0002
,
0000
0000
0100
0000
0103
0000
0000
2000
,
0000
0000
0100
0000
3100
0000
0000
0002
,
0000
0103
0000
2000
0000
3100
0000
0002
,
0000
0013
0000
1000
0000
0001
0000
2000
,
0000
0000
0010
0000
3010
0000
0000
0002
,
0000
0000
0010
0000
0013
0000
0000
1000
,
0000
0010
0000
0100
0000
0001
0000
0020
,
0000
0030
0110
0000
0110
0000
0000
0000
,
1001
0000
1001
0000
0000
0000
0000
0101
,
0000
0110
0110
0000
,
1001
0000
1001
0000
0000
0000
0000
1010
,
0000
0110
0110
0000
,
1001
0000
1001
0000
0000
0000
0000
0011
,
0000
0110
0110
0000
,
1001
1001
0000
0000
,
1000
0100
0010
0100
,
1000
0000
0001
1000
0000
0001
1000
0000
,
0001
0100
0010
0100
,
0001
0001
0001
0000
,
1000
0010
0100
0010
,
1000
0000
0001
1000
0000
0001
1000
0000
,
0001
0010
0100
0010
,
0001
0001
1001
0000
,
0001
0100
1000
0100
,
0001
0000
1000
0001
0000
1000
0001
0000
,
1000
0100
0001
0100
,
1000
1000
1000
0000
,
0001
0010
1000
0010
,
0001
0000
1000
0001
0000
1000
0001
0000
,
1000
0010
0001
0010
,
1000
1000
1000
0000
,
0002
0000
0103
0000
,
2000
0000
3100
0000
,
0002
2003
3200
2300
,
3002
0000
0103
0000
,
2000
0000
3010
0000
,
0002
0000
0013
0000
,
2000
3002
0023
0032
,
1003
0000
1000
0000
1000
0000
0000
0002
,
0000
0000
0100
0000
0103
0000
0000
2000
,
0000
0000
0100
0000
3100
0000
0000
0002
,
0000
0103
0000
2000
0000
3100
0000
0002
,
0000
0013
0000
1000
0000
0001
0000
2000
,
0000
0000
0010
0000
3010
0000
0000
0002
,
0000
0000
0010
0000
0013
0000
0000
1000
,
0000
0010
0000
0100
0000
0001
0000
0200
,
0000
0001
0301
0000
,
2000
0000
0000
0000
,
3100
0010
0100
0010
,
0002
0000
0000
0000
,
0103
0010
0100
0010
,
2000
0000
3002
0000
,
0103
0010
1000
0001
,
2000
0000
3002
0000
,
0013
0100
1000
0001
,
0100
0010
0100
0010
,
1000
0001
1000
0001
,
0010
0100
1000
0001
,
1000
1000
1000
0000
,
0001
0100
0010
1000
,
0001
0010
0100
0010
,
0001
1000
0010
0100
,
0001
0001
0001
0000
,
1000
0100
0010
0010
,
0010
0100
1000
0001
,
0200
0000
0000
0310
,
1000
1000
1000
0000
,
0001
1000
0010
1000
,
0001
0010
0100
1000
,
0010
0100
0010
0100
,
0010
0100
0110
0000
,
2000
0000
3100
0000
,
0002
0000
0103
0000
,
2000
3002
0203
0302
,
2003
0000
3100
0000
,
0002
0000
0013
0000
,
2000
0000
3010
0000
,
0002
2003
3020
2030
,
3001
0000
0001
0000
0001
0000
0000
2002
,
0000
0000
0000
0000
,
0000
0000
0000
0000
,
3003
0000
0000
0000
;

//---------------dance-single - TaroNuke----------------
#NOTEDATA:;
#CHARTNAME:TaroNuke;
#STEPSTYPE:dance-single;
#DESCRIPTION:TaroNuke;
#CHARTSTYLE:;
#DIFFICULTY:Medium;
#METER:12;
#RADARVALUES:0.547877,0.669821,0.151887,0.805000,0.041769,505.000000,485.000000,20.000000,106.000000,0.000000,0.000000,1.000000,0.000000,0.000000,0.547877,0.669821,0.151887,0.805000,0.041769,505.000000,485.000000,20.000000,106.000000,0.000000,0.000000,1.000000,0.000000,0.000000;
#CREDIT:TaroNuke;
#DISPLAYBPM:179.000000;
#NOTES:
// measure 0
0000
0000
0000
0000
,  // measure 1
0000
0000
0000
0000
,  // measure 2
0000
0000
0000
0000
,  // measure 3
0000
0000
0000
0000
0000
0000
0000
2000
,  // measure 4
0000
0100
3100
0002
,  // measure 5
0100
0000
0103
0000
0000
0000
0000
0110
,  // measure 6
0000
0020
1000
0000
1030
0000
0000
2002
,  // measure 7
0000
0000
0000
0000
,  // measure 8
0000
0000
0000
0000
3003
0000
0000
2000
,  // measure 9
0000
3010
0100
0010
0000
1000
0001
2000
,  // measure 10
0000
3100
0010
0001
1000
0010
0100
0002
,  // measure 11
0000
0013
0100
2000
0000
3010
0100
0002
,  // measure 12
0000
0013
0100
1000
0000
1001
0000
0102
,  // measure 13
0000
0013
0100
0010
0000
0001
1000
0002
,  // measure 14
0000
0103
0010
1000
0001
0010
0100
1000
,  // measure 15
0000
1001
0000
0101
0000
0001
1000
0200
,  // measure 16
0000
1300
0001
1000
0010
0100
0001
2000
,  // measure 17
0000
3100
0010
0100
0000
1000
0001
2000
,  // measure 18
0000
3010
0100
0001
1000
0100
0010
0002
,  // measure 19
0000
0103
0010
2000
0000
3100
0010
0002
,  // measure 20
0000
0103
0010
1000
0000
1001
0000
0012
,  // measure 21
0000
0103
0010
0100
0000
0001
1000
0002
,  // measure 22
0000
0013
0100
1000
0001
0100
0010
1000
,  // measure 23
0000
1001
0000
0011
0000
0001
0010
0200
,  // measure 24
2300
0100
3100
0002
,  // measure 25
0100
0000
0103
0000
0000
0000
0000
0110
,  // measure 26
0000
0200
0001
0000
0301
0000
2000
0000
,  // measure 27
0100
0000
3100
0000
0000
0000
0000
0110
,  // measure 28
0000
0020
0001
0000
0031
0000
2000
0000
,  // measure 29
0010
0000
3010
0000
0000
0000
0000
0110
,  // measure 30
0000
0020
1000
0000
1030
0000
0002
0000
,  // measure 31
0010
0000
0000
0000
0013
0000
0000
0000
0010
0000
0000
0100
1000
0000
0001
0000
,  // measure 32
1000
0100
1000
0001
1000
0010
1000
0001
,  // measure 33
1000
0000
0100
0010
0000
0100
0010
0000
,  // measure 34
0001
1000
0001
0100
0001
0010
0001
0100
,  // measure 35
0001
0000
1000
0000
0010
0000
0100
0000
0001
0000
0000
1000
0100
0000
0020
0000
,  // measure 36
0031
0100
0001
1000
0001
0010
0001
1000
,  // measure 37
0001
0000
0100
0010
0000
0100
0010
0000
,  // measure 38
1000
0001
1000
0100
1000
0010
1000
0100
,  // measure 39
1000
0000
0001
0000
0010
0000
0100
0000
1000
0000
0000
0001
0100
0000
0001
0000
,  // measure 40
1000
0100
0010
0001
0010
0100
0010
0001
,  // measure 41
0010
0000
0001
1000
0000
0001
1000
0000
,  // measure 42
0001
0100
0010
1000
0010
0100
0010
1000
,  // measure 43
0001
0000
0010
0000
0100
0000
1000
0000
0001
0000
0000
0100
0010
0000
1000
0000
,  // measure 44
0001
0010
0001
1000
0001
0100
0001
1000
,  // measure 45
0100
0000
1000
0010
0000
0100
0001
0000
,  // measure 46
1000
0100
1000
0001
1000
0010
1000
0001
,  // measure 47
0010
0000
0100
0000
0010
0000
0001
0000
1000
0001
1000
0001
1000
0000
0000
0000
,  // measure 48
0002
0000
0103
0000
,  // measure 49
2000
0000
3100
0000
,  // measure 50
0002
0203
2300
3200
,  // measure 51
0302
0000
0103
0000
,  // measure 52
2000
0000
3010
0000
,  // measure 53
0002
0000
0013
0000
,  // measure 54
2000
3020
0032
0023
,  // measure 55
2030
0000
0000
0000
3200
0000
0000
0000
0310
0000
0000
0001
1000
0000
0002
0000
,  // measure 56
0000
0103
0010
0100
0000
0001
1000
0002
,  // measure 57
0000
0013
0100
1000
0001
0100
0010
2000
,  // measure 58
0000
3100
0010
0002
0000
0103
0010
2000
,  // measure 59
0000
3100
0010
0011
0000
1001
0000
2010
,  // measure 60
0000
3100
0010
0100
0000
1000
0001
2000
,  // measure 61
0000
3010
0100
0001
1000
0100
0010
0011
,  // measure 62
0000
1001
0000
1010
0000
1000
0001
0020
,  // measure 63
0000
0031
1000
0001
0100
0010
1000
0100
,  // measure 64
0020
0001
0100
0001
,  // measure 65
0130
1000
0001
1000
0010
0100
0001
0100
,  // measure 66
0020
1000
0100
1000
,  // measure 67
0130
0001
1000
0100
0010
0001
0010
0100
,  // measure 68
2000
0010
3002
0010
,  // measure 69
1003
0010
0100
0010
1000
0001
0010
0001
,  // measure 70
2000
0100
3002
0100
,  // measure 71
1003
0100
0010
0001
1000
0010
0100
0001
,  // measure 72
0020
0230
0302
0203
,  // measure 73
0320
0230
2300
3020
,  // measure 74
0230
0000
0301
1000
0010
0000
0100
0001
,  // measure 75
1000
0000
0000
0000
0001
0000
0010
0000
0100
0000
0000
1000
0001
0000
0100
0000
,  // measure 76
0020
0230
2300
3200
,  // measure 77
0320
0230
0302
0023
,  // measure 78
0130
1000
0001
1000
0100
0010
0001
1000
,  // measure 79
0010
0000
0100
0000
0001
0000
0100
0000
0010
0000
0000
1000
0001
0000
0010
0000
,  // measure 80
0200
0320
2030
3020
,  // measure 81
0230
0320
0032
2003
,  // measure 82
3040
0000
0000
0000
0000
1030
0001
0100
,  // measure 83
0010
0000
1000
0000
0010
0000
0100
0000
0001
0000
0000
0010
0100
0000
2000
0000
,  // measure 84
0000
3010
0000
0200
0301
0000
0020
0130
,  // measure 85
0000
0000
2000
0000
3010
0000
0000
0000
0100
0000
0000
0001
1000
0000
0001
0000
,  // measure 86
0010
0100
1000
0100
0001
0100
1000
0100
,  // measure 87
0010
0100
1000
0100
0002
0000
0103
0000
,  // measure 88
2000
0000
3010
0000
,  // measure 89
0002
0000
0013
0000
,  // measure 90
2000
3020
0032
0023
,  // measure 91
2030
0000
3010
0000
,  // measure 92
0002
0000
0103
0000
,  // measure 93
2000
0000
3100
0000
,  // measure 94
0002
0203
2300
3200
,  // measure 95
0302
0000
0023
0000
0130
1000
0000
0202
,  // measure 96
0000
0000
0000
0000
,  // measure 97
0000
0000
0000
0000
,  // measure 98
0303
0000
0000
0000
;

//---------------dance-single - TaroNuke----------------
#NOTEDATA:;
#CHARTNAME:TaroNuke;
#STEPSTYPE:dance-single;
#DESCRIPTION:TaroNuke;
#CHARTSTYLE:;
#DIFFICULTY:Hard;
#METER:16;
#RADARVALUES:0.759434,0.967519,0.615142,0.873349,0.250613,700.000000,619.000000,81.000000,115.000000,29.000000,0.000000,1.000000,0.000000,0.000000,0.759434,0.967519,0.615142,0.873349,0.250613,700.000000,619.000000,81.000000,115.000000,29.000000,0.000000,1.000000,0.000000,0.000000;
#CREDIT:TaroNuke;
#DISPLAYBPM:179.000000;
#NOTES:
0000
0000
0000
0000
,
0000
0000
0000
0000
,
0000
0000
0000
0000
,
0000
0000
0000
0000
,
0000
0000
0101
0000
0101
0000
0001
1000
,
1100
0000
1100
0000
1000
0001
0010
0110
,
0000
0000
0100
0000
1100
0000
0000
0000
1100
0000
0000
1000
0001
0000
0202
0000
,
0000
0000
0000
0000
,
0000
0000
0000
0000
0303
0000
0000
0000
0001
0000
0000
1000
0010
0000
0200
0000
,
M300
0000
0100
0010
0001
0000
1000
0000
0010
0000
0100
0000
0001
0000
0020
0000
,
0M30
0000
0010
0100
0001
0000
1000
0000
0100
0000
0010
0000
0001
0000
0200
0300
,
00M0
0000
0100
1000
0001
0000
0020
0030
0M00
0000
0010
1000
0001
0000
0200
0300
,
00M0
0000
0100
1000
0001
0000
0101
0000
0000
0000
0110
0000
0000
0000
1020
0000
,
003M
0000
0010
0100
1000
0000
0001
0000
0100
0000
0010
0000
1000
0000
0200
0000
,
03M0
0000
0100
0010
1000
0000
0001
0000
1000
0000
0100
0010
0001
0000
0011
0000
,
0000
0110
0000
1100
0000
1000
0001
0200
,
0000
0310
1000
0001
0010
0100
1000
1200
,
03M0
0000
0100
0010
1000
0000
0001
0000
0010
0000
0100
0000
1000
0000
0020
0000
,
0M30
0000
0010
0100
1000
0000
0001
0000
0100
0000
0010
0000
1000
0000
0200
0300
,
00M0
0000
0100
0001
1000
0000
0020
0030
0M00
0000
0010
0001
1000
0000
0200
0300
,
00M0
0000
0100
0001
1000
0000
1100
0000
0000
0000
0110
0000
0000
0000
0021
0000
,
0M30
0000
0010
0100
0001
0000
1000
0000
0100
0000
0010
0000
0001
0000
0200
0000
,
03M0
0000
0100
0010
0001
0000
1000
0000
0001
0000
0100
0000
0010
0000
1010
0000
,
0000
0110
0000
0101
0000
0100
0001
0010
,
0100
1000
1100
0000
1100
0000
0001
0100
,
0101
0000
0101
0000
0001
1000
0010
0110
,
0000
0100
0101
0000
0101
0000
1000
0100
,
1100
0000
1100
0000
1000
0001
0100
0110
,
0000
0010
1010
0000
1010
0000
1000
0001
,
0011
0000
0011
0000
0001
1000
0100
0110
,
0000
0010
0011
0000
0011
0000
0001
1000
,
1010
0000
0000
0000
1010
0000
0000
0000
1000
0000
0000
0010
0100
0000
0002
0003
,
1000
0100
0010
0100
0001
0100
0010
0100
,
1000
0001
0100
0020
0000
1030
0100
0010
,
0001
0100
0010
0100
1000
0100
0010
0100
,
0001
0000
1000
0000
0100
0000
0010
0000
0001
0000
0000
1000
0001
0000
0200
0300
,
0001
0010
0100
0010
1000
0010
0100
0010
,
0001
1000
0010
0200
0000
0301
0010
0100
,
1000
0010
0100
0010
0001
0010
0100
0010
,
1000
0000
0001
0000
0010
0000
0100
0000
1000
0000
0000
0010
0100
0000
0002
0003
,
1000
0100
0010
0100
0001
1000
0010
0100
,
1000
0000
0001
0100
0001
0000
2000
0000
0000
0000
3100
0010
0001
0000
1000
0000
,
0001
0100
0010
0100
1000
0001
0010
0100
,
0001
0000
0010
0000
0100
0000
1000
0000
0001
0000
0000
0100
0010
0000
2000
3000
,
0001
0010
0100
0010
1000
0010
0100
1000
,
0001
0100
0010
2000
0000
3100
0010
0001
,
1000
0010
0100
0010
0001
0010
0100
0001
,
1000
0000
0001
0000
0010
0000
0100
0000
1000
0001
0100
0001
1000
0000
0000
0000
,
2001
0000
0000
3100
0010
0000
0011
0000
,
1002
0000
0000
0103
0010
0000
1010
0000
,
2000
3200
0302
0203
,
2300
0000
0000
3100
0010
0000
0011
0000
,
1002
0000
0000
0103
0010
0000
1010
0000
,
2001
0000
0000
3100
0010
0000
0011
0000
,
0201
0300
0210
0300
1200
0300
0210
0300
,
0102
0000
0000
0000
0023
0000
0000
0000
0130
0000
1000
0001
1000
0000
1020
0000
,
003M
0000
0010
0100
1000
0000
0001
0000
0100
0000
0010
0000
1000
0000
1200
0000
,
03M0
0000
0100
0010
1000
0000
0001
0000
0010
0000
0100
0000
1000
0000
1020
0030
,
0M00
0000
0010
0001
1000
0000
1200
0300
00M0
0000
0100
0001
1000
0000
1020
0030
,
0M00
0000
0010
0001
1000
0000
1010
0000
0000
0000
0110
0000
0000
0000
0201
0000
,
M300
0000
0100
0010
0001
0000
1000
0000
0010
0000
0100
0000
0001
0000
0021
0000
,
0M30
0000
0010
0100
0001
0000
1000
0000
0001
0000
0010
0100
1000
0000
1010
0000
,
0000
0110
0000
0101
0000
0001
1000
0200
,
0000
0000
0310
0001
0010
0000
0001
1000
0001
0000
0100
0001
0100
0000
0020
0000
,
2030
0001
0100
0001
,
3100
0000
0010
0001
1000
0000
0001
0000
0100
0000
0010
1000
0001
0000
0100
0000
,
0002
1000
0100
1000
,
0103
0000
1000
0001
1000
0000
0010
0000
0100
0000
0001
1000
0001
0000
0010
0000
,
0200
1000
0320
0001
,
0130
0000
1000
0001
0100
0000
0010
0000
0100
0000
0001
1000
0100
0000
0010
0000
,
0200
0001
0320
1000
,
0130
0000
1000
0001
1000
0000
0010
0000
0100
0000
0001
1000
0001
0000
0010
0000
,
0100
1000
001M
0000
0010
0001
M100
0000
0100
1000
001M
0000
0010
0001
M100
0000
,
0100
1000
0100
0010
1000
0010
0100
1000
,
0002
0000
0000
0000
0103
0000
0010
0000
1000
0000
0001
0100
0001
0000
1000
0000
,
0001
0000
1000
0100
1000
0000
0001
0000
1000
0000
0001
0100
0001
0000
2000
0000
,
3001
0000
0000
0000
0010
0000
0000
0000
0200
0300
0000
0000
2000
3000
0000
0000
0020
0030
0000
0000
0200
0000
0300
0000
2000
0000
0000
3000
0200
0000
0000
0000
,
0320
0000
0000
0000
2030
0000
0000
0000
3200
0000
0000
0000
0302
0000
0000
0000
0003
0000
0000
0000
0200
0000
0000
0000
0320
0000
0000
0030
0002
0000
0003
0000
,
2000
0000
3000
0000
0020
0000
0030
0000
0200
0300
0002
0003
2000
3000
0002
0000
,
0013
0000
0100
1000
0100
0000
0010
0000
0001
0000
1000
0010
1000
0000
0002
0000
,
1003
0000
0000
0000
0020
0030
0000
0000
2000
3000
0000
0000
0200
0000
0300
0000
0020
0000
0000
0000
0030
0000
0000
0000
0020
0000
0000
0000
0030
0000
0000
0000
,
0020
0000
0000
0000
0032
0000
0000
0003
2000
0000
3000
0000
0020
0000
0000
0000
0030
0000
0000
0000
0020
0030
0000
0000
2000
3000
0000
0000
0002
0003
0000
0000
,
0040
0000
0000
0000
0000
0000
0000
0000
0000
0000
0230
0300
2000
3000
0002
0003
,
0100
0000
0001
1000
0001
0000
0010
0000
0100
0000
1000
0001
1000
0000
0020
0000
,
0000
0130
0000
0002
0013
0000
0200
1300
,
0000
0000
0020
0000
0130
0000
0000
0000
0001
0000
1000
0010
1000
0000
0200
0300
,
0010
0001
M100
0000
0100
1000
001M
0000
0010
0001
M100
0000
0100
1000
001M
0000
,
0010
0001
1000
0010
0100
0010
1000
0001
0020
0000
0000
0000
0030
0000
0000
0000
,
0102
0000
0000
0103
0010
0000
1001
0000
,
2100
0000
0000
3100
0010
0000
1001
0000
,
0002
0203
2300
3200
,
0302
0000
0000
0013
0100
0000
1001
0000
,
2010
0000
0000
3010
0100
0000
1001
0000
,
0012
0000
0000
0013
0100
0000
1001
0000
,
1200
0300
0210
0300
0201
0300
0210
0300
,
2100
0000
0000
0000
3020
0000
0000
0000
0130
0000
0001
1000
0001
0000
0022
0000
,
0000
0000
0000
0000
,
0000
0000
0000
0000
,
0033
0000
0000
0000
;

//---------------dance-double - TaroNuke----------------
#NOTEDATA:;
#CHARTNAME:;
#STEPSTYPE:dance-double;
#DESCRIPTION:TaroNuke;
#CHARTSTYLE:;
#DIFFICULTY:Hard;
#METER:14;
#RADARVALUES:0.628160,0.707033,0.334151,0.577170,0.041769,579.000000,535.000000,44.000000,76.000000,0.000000,0.000000,1.000000,0.000000,0.000000,0.628160,0.707033,0.334151,0.577170,0.041769,579.000000,535.000000,44.000000,76.000000,0.000000,0.000000,1.000000,0.000000,0.000000;
#CREDIT:;
#DISPLAYBPM:179.000000;
#NOTES:
00000000
00000000
00000000
00000000
,
00000000
00000000
00000000
00000000
,
00000000
00000000
00000000
00000000
,
00000000
00000000
00000000
00000000
,
00000000
00000000
01001000
00000000
01001000
00000000
00001000
00010000
,
00000100
00000000
00010100
00000000
00000100
00010000
00001000
00200000
,
00300000
01000000
10000000
00000000
11000000
00000000
00000000
20020000
,
00000000
00000000
00000000
00000000
,
00000000
00000000
00000000
00000000
30030000
00000000
00000000
00000000
10000000
00000000
00000000
00010000
00100000
00000000
02000000
00000000
,
00000000
03100000
00010000
01000000
00001000
00010000
00001000
00000200
,
00000000
00000310
00001000
00000100
00010000
00001000
00010000
02000000
,
00000000
03010000
00001000
00000200
00000000
00001300
00010000
02000000
,
00000000
03010000
00001000
00000100
00000000
00001001
00000000
00000021
,
00000000
00000130
00001000
00000010
00010000
00001000
00010000
00200000
,
00000000
01300000
00010000
00100000
00001000
00010000
00001000
00000010
,
00000000
00001001
00000000
00000101
00000000
00000100
00000010
00010000
,
00001000
00100000
01000000
00100000
00001000
00010000
00000010
00000200
,
00000000
00000310
00001000
00000010
00010000
00001000
00010000
02000000
,
00000000
03100000
00010000
01000000
00001000
00010000
00001000
00000200
,
00000000
00001300
00010000
02000000
00000000
03010000
00001000
00000200
,
00000000
00001300
00010000
01000000
00000000
10010000
00000000
10200000
,
00000000
01300000
00010000
00100000
00001000
00010000
00001000
00000020
,
00000000
00000130
00001000
00000010
00010000
00001000
00010000
00100000
,
00000000
10010000
00000000
11000000
00000000
01000000
00100000
00001000
,
00010000
00001000
01000000
00000000
01001000
00000000
00001000
00010000
,
00000100
00000000
00010100
00000000
00010000
00001000
00010000
00200000
,
00300000
00010000
00000100
00000000
00010100
00000000
00010000
00001000
,
01000000
00000000
01001000
00000000
00001000
00010000
00001000
00000020
,
00000030
00001000
00100000
00000000
00101000
00000000
00001000
00010000
,
00000010
00000000
00010010
00000000
00010000
00001000
00010000
01000000
,
00000000
00010000
00000010
00000000
00010010
00000000
00010000
00001000
,
00100000
00000000
00000000
00000000
00101000
00000000
00000000
00000000
00100000
00000000
00000000
00010000
01000000
00000000
00100000
00000000
,
10000000
01000000
00010000
00001000
01000000
00100000
01000000
00001000
,
00010000
01000000
10000000
00200000
00000000
00310000
00001000
00000010
,
00000001
00000100
00001000
00010000
00000100
00000010
00000100
00010000
,
00001000
00000000
00000100
00000000
00000001
00000000
00000010
00000000
00000100
00000000
00000000
00000010
00000001
00000000
00001000
00000000
,
00000001
00000100
00001000
00010000
00001000
00000010
00000001
00000100
,
00001000
00000100
00000010
00020000
00000000
00031000
01000000
00100000
,
10000000
01000000
00010000
00001000
00010000
00100000
10000000
01000000
,
00010000
00000000
01000000
00000000
00100000
00000000
00001000
00000000
00010000
00000000
00000000
00001000
01000000
00000000
00100000
00000000
,
00010000
00100000
10000000
01000000
00010000
01000000
10000000
00100000
,
00010000
00001000
00010000
02000000
00000000
03100000
00001000
00010000
,
00001000
00000010
00000001
00000100
00001000
00000100
00000001
00000010
,
00001000
00000000
00010000
00000000
00001000
00000000
00000100
00000000
00000001
00000000
00000000
00001000
00000010
00000000
00001000
00000000
,
00000001
00000010
00001000
00010000
00000010
00000100
00000010
00010000
,
00001000
00000010
00000001
00000200
00000000
00001300
00010000
01000000
,
10000000
00100000
00010000
00001000
00100000
01000000
00100000
00001000
,
00010000
00000000
00100000
00000000
10000000
00000000
01000000
00000000
00100000
00001000
00100000
00001000
00100000
00000000
00000000
00000000
,
00021000
00000000
00030100
00000000
,
00012000
00000000
01003000
00000000
,
00021000
00000100
00032000
01000000
,
00023000
00000000
00030100
00000000
,
00021000
00000000
00030010
00000000
,
00012000
00000000
00103000
00000000
,
00021000
00030010
00012000
00103000
,
00021000
00000000
00030200
00000000
00000310
00000001
00000000
00000200
,
00000000
00000310
00001000
00010000
01000000
00100000
10000000
02000000
,
00000000
03100000
00010000
00001000
00000100
00000010
00000001
00000200
,
00000000
00001300
00010000
02000000
00000000
03010000
00001000
00000200
,
00000000
00001300
00010000
01000000
00000000
10010000
00000000
10200000
,
00000000
01300000
00010000
00100000
01000000
00010000
00001000
00000020
,
00000000
00000130
00001000
00000010
00000100
00001000
00010000
00100000
,
00000000
10010000
00000000
11000000
00000000
01000000
00100000
10000000
,
00100000
01000000
00100000
00010000
01000000
00100000
00010000
00001000
,
00020000
00000100
00000001
00000010
,
00032000
01000000
10000000
00100000
,
00013000
00000100
00001000
00000100
00000000
01000000
00010000
01000000
,
00000000
00001000
00010000
00100000
01000000
00010000
00100000
00001000
,
00021000
00100000
10000000
00100000
,
00032000
00000010
00000001
00000010
,
00013000
00001000
00000100
00000010
00001000
00000100
00010000
00001000
,
01000000
00000000
00100000
00000000
01000000
00000000
00010000
00000000
00100000
00000000
00000000
01000000
10000000
00000000
00010000
00000000
,
20000000
00100000
30020000
00100000
20030000
00100000
30020000
00100000
,
10030000
01000000
00010000
00001000
00100000
00001000
00010000
01000000
,
20000000
00000000
30100000
01000000
00001000
00000000
00010000
00000100
,
00000010
00000000
00000000
00000000
00000001
00000000
00001000
00000000
00000010
00000000
00000000
00000100
00000001
00000000
00001000
00000000
,
00000001
00000010
00000100
00000010
00001000
00010000
00001000
01000000
,
00100000
10000000
01000000
00020000
00030000
01000000
10000000
00100000
,
02000000
03000000
00020000
00030000
00100000
00001000
00010000
00000010
,
00000100
00000000
00000000
00000000
00000101
00000000
00000000
00000000
00000001
00000000
00000000
00000010
00000100
00000000
00001000
00000000
,
00000010
00000100
00001000
00010000
00200000
00300000
00200000
00300000
,
00200000
00310000
00001000
00000100
00000000
00000010
00010000
00001000
,
00000040
00000000
00000000
00000000
00000000
00001030
00010000
00001000
,
01000000
00000000
00100000
00000000
10000000
00000000
01000000
00000000
00100000
00000000
00000000
00010000
10000000
00000000
00200000
00000000
,
00000000
01300000
00000000
00020000
00130000
00000000
00002000
00013000
,
00000000
00000200
00001300
00000000
00000001
00000100
00000010
00001000
,
00000002
00000100
00002003
00000100
00003002
00000100
00002003
00000100
,
00003001
00000100
00000010
00001000
00010000
01000000
01100000
00000000
,
00021000
00000000
01030000
00000000
,
00012000
00000000
00003100
00000000
,
00021000
01000000
00032000
00000100
,
00023000
00000000
01030000
00000000
,
00021000
00000000
00130000
00000000
,
00012000
00000000
00003010
00000000
,
00021000
00130000
00012000
00003010
,
00021000
00000000
00230000
00000000
10300000
01000000
00000000
00020000
,
00000000
00000000
00000000
00000000
,
00000000
00000000
00000000
00000000
,
00030000
00000000
00000000
00000000
;

//---------------dance-double - Ama-tan as "TANEO"----------------
#NOTEDATA:;
#CHARTNAME:;
#STEPSTYPE:dance-double;
#DESCRIPTION:Ama-tan as "TANEO";
#CHARTSTYLE:;
#DIFFICULTY:Challenge;
#METER:16;
#RADARVALUES:0.720377,0.930307,0.554387,0.554387,0.205047,664.000000,591.000000,73.000000,73.000000,31.000000,0.000000,1.000000,0.000000,0.000000,0.720377,0.930307,0.554387,0.554387,0.205047,664.000000,591.000000,73.000000,73.000000,31.000000,0.000000,1.000000,0.000000,0.000000;
#CREDIT:;
#DISPLAYBPM:179.000000;
#NOTES:
00000000
00000000
00000000
00000000
,
00000000
00000000
00000000
00000000
,
00000000
00000000
00000000
00000000
,
00000000
00000000
00000000
00000000
00000000
00000000
00000000
00011000
,
00000000
00000000
00001100
00000000
00001100
00000000
00001000
00000001
,
00000101
00000000
00000101
00000000
00001000
00000100
00010000
00011000
,
00000000
00000000
01000000
00000000
01010000
00000000
00000000
00000000
01010000
00000000
00000000
00010000
10000000
00000000
20200000
00000000
,
00000000
00000000
00000000
00000000
,
00000000
00000000
00000000
00000000
30300000
00000000
00000000
00000000
00010000
00000000
00000000
00100000
01000000
00000000
12000000
00000000
,
030M0000
00000000
01000000
00010000
01000000
00000000
00001000
00000000
00010000
00000000
00001000
00000000
00000010
00000000
00000200
00000000
,
000003M0
00000000
00000100
00000001
00000100
00000000
00000010
00000000
00001000
00000000
00000000
00000001
00000010
00000000
00000200
00000300
,
0000M000
00000000
00000100
00000000
00000010
00000000
00002000
00003000
000M0000
00000000
00001000
00000000
00010000
00000000
02000000
03000000
,
M0000000
00000000
01000000
00010000
10000000
00000000
11000000
00000000
00000000
00000000
10010000
00000000
00000000
00000000
10200000
00000000
,
0M300000
00000000
00100000
00010000
00100000
00000000
01000000
00000000
10000000
00000000
00100000
00000000
00010000
00000000
00002000
00000000
,
000030M0
00000000
00001000
00000010
00001000
00000000
00000001
00000000
00000010
00000000
00000100
00000000
00001000
00000000
00001010
00000000
,
00000000
00011000
00000000
00001100
00000000
00001000
00000010
00000200
,
00000000
00000000
00001300
00000000
00010000
00000000
00001000
00000000
00000010
00000000
00000000
00000001
00000100
00000000
00000201
00000000
,
0000M300
00000000
00000100
00001000
00000100
00000000
00010000
00000000
00001000
00000000
00010000
00000000
00100000
00000000
02000000
00000000
,
03M00000
00000000
01000000
10000000
01000000
00000000
00100000
00000000
00010000
00000000
00000000
10000000
00100000
00000000
02000000
03000000
,
000M0000
00000000
01000000
00000000
00100000
00000000
00020000
00030000
0000M000
00000000
00010000
00000000
00001000
00000000
00000200
00000300
,
0000000M
00000000
00000100
00001000
00000001
00000000
00000101
00000000
00000000
00000000
00001001
00000000
00000000
00000000
00000021
00000000
,
00000M30
00000000
00000010
00001000
00000010
00000000
00000100
00000000
00000001
00000000
00000010
00000000
00001000
00000000
00020000
00000000
,
00M30000
00000000
00010000
00100000
00010000
00000000
10000000
00000000
00100000
00000000
00000000
01000000
00010000
00000000
00110000
00000000
,
00000000
00011000
00000000
01010000
00000000
00010000
00100000
01000000
,
10000000
00000000
11000000
00000000
11000000
00000000
10000000
00010000
,
01010000
00000000
01010000
00000000
01000000
00001000
00010000
00011000
,
00000000
00000100
00001100
00000000
00001100
00000000
00001000
00000001
,
00000101
00000000
00000101
00000000
00000100
00000001
00001000
00001001
,
00000000
00000001
00000011
00000000
00000011
00000000
00000001
00001000
,
00001010
00000000
00001010
00000000
00000010
00010000
00001000
00011000
,
00000000
00100000
00110000
00000000
00110000
00000000
00010000
10000000
,
10100000
00000000
00000000
00000000
10100000
00000000
00000000
00000000
10000000
00000000
00000000
00100000
01000000
00000000
00010000
00000000
,
10000000
01000000
00010000
00001000
00010000
00100000
00010000
00001000
,
00010000
01000000
10000000
00200000
00000000
00310000
00001000
00000010
,
00000001
00000100
00001000
00010000
00001000
00000010
00001000
00010000
,
00001000
00000000
00000100
00000000
00000010
00000000
00001000
00000000
00000001
00000000
00000000
00000010
00000100
00000000
00002000
00003000
,
00000001
00000010
00001000
00010000
00001000
00000100
00001000
00010000
,
00001000
00000010
00000001
00000200
00000000
00001300
00010000
01000000
,
10000000
00100000
00010000
00001000
00010000
01000000
00010000
00001000
,
00010000
00000000
00100000
00000000
01000000
00000000
00010000
00000000
10000000
00000000
00000000
01000000
00100000
00000000
00020000
00030000
,
10000000
01000000
00010000
00001000
00010000
00100000
10000000
00100000
,
00010000
00001000
00010000
02000000
00000000
03010000
00001000
00000010
,
00000001
00000100
00001000
00010000
00001000
00000010
00000001
00000010
,
00001000
00000000
00010000
00000000
00001000
00000000
01000000
00000000
00010000
00000000
00000000
00100000
01000000
00000000
10000000
00000000
,
00010000
01000000
00010000
10000000
00010000
00100000
00010000
00001000
,
00000100
00001000
00000001
00002000
00000000
00003010
00000100
00000001
,
00001000
00000100
00001000
00000001
00001000
00000010
00001000
00010000
,
01000000
00000000
00010000
00000000
10000000
00000000
00010000
00000000
00100000
00001000
00100000
00001000
00010000
00000000
00000000
00000000
,
00012000
00000000
00003000
00001000
01000000
00000000
00000000
00000000
,
00021000
00000000
00030000
00010000
00000100
00000000
00000000
00000000
,
00012000
01000000
00023000
00000100
,
00032000
00000000
00003000
00001000
01000000
00000000
00000000
00000000
,
00021000
00000000
00030000
00010000
00000010
00000000
00000000
00000000
,
00012000
00000000
00003000
00001000
00100000
00000000
00000000
00000000
,
00020010
00031000
00102000
00013000
,
00020100
00000000
00032000
00000000
00003010
00000001
00000000
00000201
,
0000M300
00000000
00000100
00010000
00001000
00000000
00010000
00000000
00000010
00000000
00000100
00000000
00001000
00000000
00021000
00000000
,
00M30000
00000000
00010000
01000000
00100000
00000000
01000000
00000000
00010000
00000000
00100000
00000000
01000000
00000000
12000000
03000000
,
00M00000
00000000
01000000
00000000
00010000
00000000
00120000
00030000
0000M000
00000000
00010000
00000000
00000100
00000000
00001200
00000300
,
000000M0
00000100
00000001
00000101
00000000
00001001
00000000
00000021
,
00000M30
00000000
00000010
00001000
00000100
00000000
00000010
00000000
00000001
00000000
00000100
00000000
00001000
00000000
00021000
00000000
,
00M30000
00000000
00010000
00100000
01000000
00000000
10000000
00000000
00100000
00000000
00000000
01000000
00010000
00000000
00110000
00000000
,
00000000
00011000
00000000
01010000
00000000
00010000
00100000
01000000
,
10000000
00100000
00010000
00001000
00000010
00000100
00010000
00001000
,
00021000
00000100
00000001
00000010
,
00031000
00000000
00000010
00000100
00000010
00000000
00000001
00000000
00001000
00000000
00000010
00000100
00000010
00000000
00010000
00000000
,
00012000
01000000
10000000
00100000
,
00013000
00000000
00100000
01000000
00100000
00000000
10000000
00000000
00010000
00000000
00100000
01000000
00100000
00000000
00001000
00000000
,
00021000
00100000
00032000
00000010
,
00013000
00000000
00100000
01000000
00010000
00000000
10000000
00000000
01000000
00000000
00100000
00010000
01000000
00000000
00001000
00000000
,
00012000
00000100
00023000
01000000
,
00031000
00000000
00010000
00000100
00010000
00000000
00001000
00000000
01000000
00000000
00000000
00100000
10000000
00000000
00010000
00000000
,
00100000
01000000
10000000
00000000
00010000
10000000
01M00000
00000000
01000000
00100000
10000000
00000000
00010000
10000000
01M00000
00000000
,
01000000
00100000
10000000
01000000
00010000
00001000
00000100
00000010
,
00002000
00000000
00000000
00000000
00003001
00000000
00000100
00000000
00000001
00000000
00000010
00000100
00000010
00000000
00001000
00000000
,
00010000
00000000
00001000
00000000
00000100
00000000
00001000
00000000
00010000
00000000
00000100
00000010
00000100
00000000
00010000
00000000
,
00001000
00010000
00100000
01000000
00010000
00100000
01000000
00010000
,
00001000
00000010
00000100
00000002
00000003
00000100
00001000
00000010
,
00020000
00030000
00002000
01003000
00100000
10000000
01000000
00010000
,
00001000
00000000
01000000
00100000
01000000
00000000
00001000
00000000
00010000
00000000
01000000
00100000
01000000
00000000
00010000
00000000
,
00001000
00010000
00000100
00000010
00002000
00003000
00002000
00003000
,
00002000
00013000
00100000
02000000
03000000
00100000
10000000
01000000
,
00040000
00000000
00000000
00000000
00000000
01030000
00100000
00001000
,
00010000
00000000
00100000
01000000
00100000
00000000
00010000
00000000
00001000
00000000
00100000
01000000
00100000
00000000
20000000
00000000
,
00000000
30100000
00000000
00020000
01030000
00000000
00002000
00013000
,
00000000
00000000
00000200
00000000
00001300
00000000
00000000
00000000
00000001
00000000
00000000
00000010
00000100
00000000
00001000
00000000
,
00000010
00000100
00000001
00000000
00001000
00000001
00000M10
00000000
00000010
00000100
00000001
00000000
00001000
00000001
00000M10
00000000
,
00000010
00001000
00000001
00001000
00000100
00001000
00000001
00001000
00000020
00000000
00000000
00000000
00010030
00000000
00000000
00000000
,
00021000
00M00000
00030000
00010000
01000000
00000000
00000000
00000000
,
00012000
00000M00
00003000
00001000
00000100
00000000
00000000
00000000
,
00021000
01000000
00032000
00000100
,
00023000
00M00000
00030000
00010000
01000000
00000000
00000000
00000000
,
00012000
00000M00
00003000
00001000
00000010
00000000
00000000
00000000
,
00021000
00M00000
00030000
00010000
00100000
00000000
00000000
00000000
,
00012000
00000010
00023000
00100000
,
00032000
00000000
00003020
00000000
00000031
00000100
0000M000
00020200
,
00000000
00000000
00000000
00000000
,
00000000
00000000
00000000
00000000
,
00030300
00000000
00000000
00000000
;
