#TITLE:星宿る空の下で;
#SUBTITLE:;
#ARTIST:Akhuta;
#TITLETRANSLIT:Hoshiyadoru sora no shita de;
#SUBTITLETRANSLIT:;
#ARTISTTRANSLIT:;
#GENRE:;
#CREDIT:;
#BANNER:Hoshiyadoru sora no shita de.png;
#BACKGROUND:Hoshiyadoru sora no shita de-bg.png;
#LYRICSPATH:Hoshiyadoru sora no shita de.lrc;
#CDTITLE:;
#MUSIC:Hoshiyadoru sora no shita de.ogg;
#OFFSET:-0.080000;
#SAMPLESTART:80.598160;
#SAMPLELENGTH:12.000000;
#SELECTABLE:YES;
#BPMS:0.000000=204.000000
;
#STOPS:
;
#BGCHANGES:0.000=Hoshiyadoru sora no shita de.mp4=1.000=0=0=0=StretchNoLoop====,
99999=-nosongbg-=1.000=0=0=0 // don't automatically add -songbackground-
;
#KEYSOUNDS:;
#ATTACKS:;

//---------------dance-single - ----------------
#NOTES:
     dance-single:
     :
     Hard:
     14:
     0.727603,0.818554,0.587044,0.454752,0.161230,616.000000,545.000000,71.000000,55.000000,0.000000,0.000000,0.727603,0.818554,0.587044,0.454752,0.161230,616.000000,545.000000,71.000000,55.000000,0.000000,0.000000:
0000
0000
0000
0000
,
0000
0000
0000
0000
,
0000
0000
0000
0000
,
0000
0000
0000
0000
,
0000
0000
0000
0000
,
0000
0000
0000
0000
,
0102
0000
0000
2003
0000
0000
3200
0000
,
0001
0000
0320
0000
3331
1000
0010
0000
,
2010
0000
0000
3002
0000
0000
0203
0000
,
0000
0310
1000
0001
1000
0100
0010
0001
,
0200
3000
0301
0010
0000
0010
0200
0000
,
1300
0001
0200
0000
0320
0000
1030
0000
,
1002
0000
0013
0100
1000
0010
0200
0000
,
0310
0000
1000
0000
0001
0000
0010
0000
0100
0000
0000
0001
0000
0000
0100
0000
,
2000
0000
0000
0000
,
0000
0000
0000
0000
,
0002
0000
0000
0000
,
0000
0000
0000
3003
,
1010
0000
0001
0200
0000
0310
0000
1002
,
0000
1003
0100
0000
0010
0000
0011
2000
,
0000
3002
0000
0103
0000
0001
1000
0000
,
0001
0100
0101
0000
1000
0100
1100
0000
,
1001
0000
1000
0020
0000
0130
0000
2001
,
0000
3001
0010
0000
0100
0000
1100
0002
,
0000
2003
0000
3010
0000
1000
0001
0000
,
1000
0010
1010
0000
0001
0010
0011
0000
,
1002
0000
0000
0000
3103
0000
0010
0000
1000
0000
0001
0100
0001
0000
0000
0000
,
1000
0000
0100
0000
0010
0000
0001
0000
0100
0010
0100
0000
0010
0000
0000
0000
,
1000
0000
0010
0000
0100
0000
0001
0000
0010
0000
0100
1000
0100
0000
0000
0000
,
1000
0000
0010
0000
0100
0000
0001
1000
0001
0000
0010
0000
0100
0000
1000
0000
,
0010
0100
0010
0001
0010
0010
1000
0100
,
0010
0100
0100
1000
0001
0100
0010
0010
,
1000
0100
0001
0100
1000
0010
0100
0001
,
1000
0100
0110
0000
0001
0100
0110
0000
,
0100
0010
0100
1000
0100
0100
0001
0010
,
0100
0010
0010
0001
1000
0010
0100
0100
,
0001
0010
1000
0010
0001
0100
0010
1000
,
0001
0010
0110
0000
1000
0010
0110
0000
,
1002
0000
0000
0000
0103
0000
1000
0000
0100
0000
0010
0100
0010
0000
0000
0000
,
1000
0000
0100
0000
0010
0000
0001
0000
0100
0000
0010
1000
0010
0000
0000
0000
,
1000
0000
0100
0000
0010
0000
0001
0000
1000
0000
0001
0100
0001
0000
0000
0000
,
1000
0010
1010
0000
0001
0100
0101
0000
,
1001
0000
0000
0000
1000
0000
1100
0000
0000
0000
0001
0010
0001
0000
0000
0000
,
1000
0000
1010
0000
0000
0000
0010
0130
0010
0000
1000
0000
0001
0000
0010
0000
,
0000
0000
0000
0000
,
0001
0000
0100
0300
0010
0000
0000
0000
2010
0000
0000
0000
3100
0000
0001
0000
,
0100
0020
0000
1030
0010
0001
0000
0012
,
0000
0000
1003
0000
0010
0000
0000
0000
1001
0000
0000
0000
1000
0000
0010
0030
,
0100
0000
0102
0000
0013
1000
0010
0200
,
0000
0301
0100
1000
0000
2100
0000
3001
,
0100
0000
1001
0000
0001
0100
1000
0100
,
0001
0011
0110
1001
,
0001
0000
0100
0000
0010
0000
1000
0000
0100
0000
1000
0001
1000
0000
0010
0000
,
0100
1010
0110
1001
,
0001
0010
0100
1000
0010
0100
0001
1000
,
1001
0000
0000
1000
0010
0000
1000
0000
0010
0000
0000
0100
0001
0000
0100
0000
,
0001
0000
0000
1000
0100
0000
0010
0000
0001
0000
0100
0000
0010
0000
1000
0000
,
0001
0000
0000
0001
0010
0000
0001
0000
1000
0000
0000
1000
0010
0000
1000
0000
,
0200
0000
3323
0000
0031
1000
0001
1000
,
0010
0000
0000
0000
0101
0000
0000
1000
3130
0000
0001
0000
0100
0000
0010
0000
,
0200
0000
0000
0000
1300
0000
0010
0000
0100
0010
0100
0000
0001
0000
0000
0000
,
1000
0000
0000
0001
0010
0000
1000
0000
0010
0000
0100
0000
1000
0000
0010
0000
,
0100
0000
0001
0000
0101
0000
0000
0000
1000
0000
0100
0030
1100
0000
0000
0000
,
1002
0000
0103
0010
0100
0100
0001
1000
,
0200
0000
3000
0000
0310
0000
0001
0000
1000
0010
1000
0000
0100
0000
0000
0000
,
1100
0000
0001
0101
0000
1000
1010
0000
,
0001
1000
0001
0000
0100
0000
0000
0000
0010
0100
0010
0000
1000
0000
0100
0000
,
0010
0100
0100
0001
0100
0100
1000
0010
,
0200
0000
2000
3000
,
0020
0030
0002
0303
,
1001
0001
0100
0010
1000
0100
0010
0001
,
0200
0000
1300
0100
0001
0010
0100
1000
,
0010
0010
0100
0001
0010
0100
1000
0001
,
0200
0000
1300
0100
0010
0100
0001
0010
,
0200
0000
0301
0100
0010
0100
1000
0010
,
0200
0000
0310
1000
0001
1000
0100
0000
,
1000
0010
1000
0010
1000
0000
0000
0000
0001
0010
0001
0010
0001
0000
0000
0000
,
1000
0001
1000
0001
1000
0000
0000
0000
0001
0000
0010
0000
0130
0000
1000
0000
,
0001
1000
0010
0100
0001
0010
0100
1000
,
0020
0000
0031
0010
1000
0100
0010
0001
,
0100
0100
1000
0100
0010
0100
0001
0010
,
0200
0000
1300
0000
0001
0100
0101
0000
,
0110
0000
1001
0000
1000
0100
0001
1000
,
0010
0001
1000
0020
0000
0100
0130
0000
,
2002
0000
0000
0000
,
0000
0000
0000
0000
3003
0000
0000
0101
,
0000
2020
0000
0000
0000
0000
0000
0000
,
0000
0000
0000
0000
0000
0000
3030
0000
0000
0000
0001
1000
0001
0000
0000
0000
,
2200
0000
0000
0300
0000
0001
0000
0000
,
0001
0000
0000
3010
0000
1010
3000
0110
,
0000
0000
0000
0000
0000
0000
0001
0000
0000
0100
0000
0000
0001
0000
0000
0000
0000
0000
0000
0000
0000
0000
0000
0000
1000
0000
0000
0000
0000
0000
0010
0000
0000
0000
0000
0000
1000
0000
0000
0000
0001
0000
0000
0000
1000
0000
0000
0000
,
0001
0010
0100
1000
0020
0000
0003
0030
,
0101
0000
0110
0010
0030
1010
0000
1001
,
0000
1000
1100
0000
0001
0011
0000
1010
,
0000
0110
0000
0001
1001
0000
1000
1100
,
0000
0101
0000
0110
0000
1000
0001
0000
,
0101
0101
0000
1100
0000
0110
0000
1002
,
0000
0000
0000
0103
0000
0000
0010
0000
0000
1000
0000
0000
0100
0000
0000
0010
0000
0000
0001
0000
1000
0000
0001
0000
,
1000
0000
0010
0000
0100
0000
0001
0000
0010
0000
0100
0000
1000
0001
1000
0001
,
1003
0000
0000
0000
;

//---------------dance-single - ----------------
#NOTES:
     dance-single:
     :
     Medium:
     11:
     0.494912,0.613915,0.438216,0.661458,0.000000,419.000000,366.000000,53.000000,80.000000,0.000000,0.000000,0.494912,0.613915,0.438216,0.661458,0.000000,419.000000,366.000000,53.000000,80.000000,0.000000,0.000000:
0000
0000
0000
0000
,
0000
0000
0000
0000
,
0000
0000
0000
0000
,
0000
0000
0000
0000
,
0000
0000
0000
0000
,
0000
0000
0000
0000
,
1002
0000
0000
0203
0000
0000
0320
0000
,
0000
0230
3302
0323
,
0230
0000
0000
2300
0000
0000
3020
0000
,
0030
1000
0100
0000
1100
0000
0011
0000
,
2001
0000
0000
3020
0000
0000
0230
0000
,
0000
0302
0023
0230
,
2300
0000
3010
3100
,
0002
0003
0202
0303
,
2000
0000
0000
0000
,
0000
0000
0000
0000
,
0002
0000
0000
0000
,
0000
0000
0000
3003
,
1010
0000
1000
0100
0000
0100
0000
0010
,
0000
0000
0001
0000
1000
0000
0001
0100
,
0000
0100
0000
0010
0000
0000
1000
0000
,
0001
0100
0001
0000
1000
0100
1000
0000
,
1001
0000
0001
0010
0000
0010
0000
0100
,
0000
0000
1000
0000
0001
0000
1000
0010
,
0000
0010
0000
0100
0000
0000
0001
0000
,
1000
0010
1000
0000
0001
0010
0001
0000
,
1000
0010
0210
0301
,
0102
1003
2002
3003
,
0001
0010
0021
0133
,
0210
1300
2002
3003
,
0001
0000
0100
0000
0010
0010
0000
1000
,
0000
0100
0100
0000
0010
0000
0001
0001
,
0000
1000
0000
0010
0000
0100
0010
0000
,
1000
0010
1000
0000
0001
0010
0001
0000
,
1000
0000
0010
0000
0100
0100
0000
0001
,
0000
0010
0010
0000
0100
0000
1000
1000
,
0000
0001
0000
0100
0000
0010
0100
0000
,
0001
0100
0001
0000
1000
0100
1000
0000
,
0001
0000
1000
0010
0000
0010
0100
0000
,
0002
0010
2003
0010
,
3001
0000
1000
0100
0000
0100
0010
0000
,
0002
0100
2003
3010
,
1010
0000
0000
0110
0000
0000
0101
0000
,
0000
1001
0000
0000
1000
0100
0010
0001
,
0000
0000
0000
0000
,
1000
0100
1000
0000
1100
0000
0001
0100
,
0001
0203
0000
0000
0310
0010
0000
1000
,
0000
0001
0010
0000
0011
0000
1000
0001
,
0100
0000
0101
0000
0001
0010
0000
0010
,
0100
0000
1000
0000
3010
0100
0000
0001
,
0000
1000
0100
0000
1100
0000
0011
0000
,
2000
0010
0001
3100
,
1000
0100
0010
0000
0110
0000
0110
0000
,
0002
0100
1000
0013
,
0001
0010
0100
0000
0110
0000
0110
0000
,
1100
0000
0000
0001
0100
0000
0000
0010
,
1000
0000
0000
0001
0010
0000
0100
0000
,
1002
0000
1003
0010
0200
0000
0310
0000
,
0220
0000
0330
0000
0001
1000
0001
0000
,
2200
0000
3300
0000
0000
0001
0100
0010
,
0200
0320
2030
3001
,
0100
0000
0001
0010
0000
0010
0200
0000
,
2300
3002
0203
0310
,
0202
0000
0303
0000
0000
1000
0100
0010
,
0200
0320
0032
1003
,
2010
0000
0000
3001
0000
0000
0012
0000
,
0000
1003
0000
0000
0001
0100
0010
0000
,
0110
0000
0000
0110
0000
0000
0110
0000
,
2002
0000
3003
0000
,
0000
0000
0000
3003
,
1010
0000
0001
0010
0000
0001
0100
0001
,
0200
0000
0310
0000
1000
0100
0010
0000
,
0001
0000
1000
0100
0000
1000
0010
1000
,
0020
0000
0130
0000
0001
1000
0100
0000
,
2200
0000
3300
0000
1000
0001
0100
0000
,
0202
0000
0303
0000
0001
0100
0010
0000
,
2000
0010
0010
3100
,
2200
0000
3300
0000
0001
0100
0001
0000
,
1001
0000
1000
0100
0000
1000
0010
1000
,
0020
0000
0130
0000
0001
0010
0100
0000
,
1000
0000
0001
0010
0000
0001
0100
0001
,
0200
0000
0310
0000
1000
0001
0010
0000
,
0012
0000
0000
0203
0000
0000
0310
0000
,
1010
0000
1000
3100
0000
0010
0301
0000
,
2002
0000
0000
0000
,
0000
0000
0000
0000
0000
3003
0000
1010
,
0000
0202
0000
0000
0000
0000
0000
0000
,
0000
0000
0000
0303
0000
0100
0010
0000
,
0110
0000
0000
0000
0000
1000
0000
0000
,
0100
0000
0000
0010
0000
0011
0000
1100
,
0000
1000
0002
0000
0000
0000
0000
0000
,
0103
0010
0100
0010
2000
0000
0000
0000
,
3001
0000
0010
0010
0000
0100
0000
1000
,
0000
0010
0010
0000
0100
0100
0000
0001
,
0000
1000
0000
0100
0100
0000
0010
0010
,
0000
0001
0000
1000
0000
0010
0010
0000
,
1000
0100
0000
1100
0000
0110
0000
0011
,
0000
1000
0010
0100
0002
0000
0013
0100
,
2000
0000
3010
0100
0010
0100
0002
0000
,
1003
0000
0000
0000
;

//---------------dance-single - ----------------
#NOTES:
     dance-single:
     :
     Easy:
     7:
     0.311830,0.368349,0.107487,0.338997,0.000000,264.000000,251.000000,13.000000,41.000000,0.000000,0.000000,0.311830,0.368349,0.107487,0.338997,0.000000,264.000000,251.000000,13.000000,41.000000,0.000000,0.000000:
0000
0000
0000
0000
,
0000
0000
0000
0000
,
0000
0000
0000
0000
,
0000
0000
0000
0000
,
0000
0000
0000
0000
,
0000
0000
0000
0000
,
1000
0000
0000
0100
0000
0000
0020
0000
,
0000
0030
0001
1000
,
0001
0000
0000
0100
0000
0000
0020
0000
,
0000
0030
1000
0001
,
1000
0000
0000
0100
0000
0000
0020
0000
,
0030
0001
1000
0001
,
0200
0000
0300
0100
,
0020
0030
2002
0000
,
3003
0000
0000
0000
,
0000
0000
0000
0000
,
0000
0000
0000
0000
,
0000
0000
0000
0000
,
1001
0000
0000
0001
0000
0100
0000
0010
,
0000
1000
0100
0010
,
0000
0001
0000
1000
0000
0010
0000
0000
,
1000
1000
0001
0001
,
1000
0000
0000
0001
0000
0010
0000
0100
,
0000
1000
0010
0100
,
0000
0010
0000
1000
0000
0001
0000
0000
,
1000
1000
0001
0001
,
0020
0030
0001
0100
,
0010
1000
0200
0300
,
2000
3000
0001
1000
,
0010
0100
0002
0003
,
1000
0000
0001
0000
0000
0100
0000
0100
,
0000
0000
0001
0000
1000
0000
0000
0100
,
0000
0100
0000
0000
1000
0000
0010
0000
,
0100
0100
0010
0000
,
1000
0000
0001
0000
0000
0010
0000
0010
,
0000
0000
0001
0000
1000
0000
0000
0010
,
0000
0010
0000
0000
1000
0000
0001
0000
,
0100
0100
0010
1000
,
0200
0300
0020
0030
,
0001
1000
0010
0100
,
0002
0003
0020
0030
,
0100
1000
0001
0100
,
0010
0000
0000
0010
0000
0000
0100
0000
,
0000
0100
0000
0000
0001
0000
0000
1000
,
0000
0000
0000
0000
,
0001
0010
0100
0000
,
1000
0000
0010
1000
,
0100
0000
0010
0001
,
1000
0010
0100
0000
,
0010
0000
1000
0100
,
0010
0001
1000
0000
,
0001
0100
0010
1000
,
0010
0100
0001
0000
,
1000
0100
0010
0001
,
0010
0100
1000
0000
,
0001
0000
1000
0000
,
0010
0000
0100
0000
,
0001
0100
0010
1000
,
0100
0010
0001
0000
,
1000
1000
0100
0000
,
0010
0010
0001
0000
,
1000
0001
0100
0010
,
1000
0100
0010
0001
,
0200
0000
0300
0000
,
0010
0010
0010
0000
,
1000
0000
0000
1000
0000
0000
0001
0000
,
0000
0001
0000
0000
0020
0000
0030
0000
,
0001
0000
0000
1000
0000
0000
0010
0000
,
2002
0000
0000
0030
3003
0000
0000
0000
,
0000
0000
0000
0000
,
1000
0001
0100
0010
,
2000
3000
0010
0100
,
0010
1000
0100
0010
,
0002
0003
1000
0100
,
2000
3000
0001
0100
,
0002
0003
1000
0001
,
0200
0000
0000
0300
,
0020
0030
1000
0001
,
1001
1000
0010
0100
,
0020
0000
0030
0030
1000
0000
0100
0000
,
0010
0001
0100
0010
,
0200
0300
0001
1000
,
0100
0000
0000
0100
0000
0000
0010
0000
,
0001
0000
0000
0001
0000
0000
1000
0000
,
2002
0000
0000
0000
,
0000
0000
0000
0000
3003
0000
0000
0110
,
0000
2002
0000
0000
0000
0000
0000
0000
,
0000
0000
0000
3003
,
0220
0000
0000
0000
,
0000
0000
0330
0330
0000
1001
0000
0110
,
0000
2002
0000
0000
,
0000
0000
0000
3003
,
1000
0000
0001
0000
0000
0100
0000
0100
,
0000
0010
0000
0000
1000
0000
0000
0001
,
0000
0010
0000
0100
0000
0000
1000
0000
,
0000
0001
0000
1000
0000
0010
0000
0000
,
1001
0000
0000
0001
0000
0010
0000
0100
,
0000
2000
3020
0230
,
0302
0023
0230
1300
,
1001
0000
0000
0000
;

//---------------dance-single - ----------------
#NOTES:
     dance-single:
     :
     Beginner:
     3:
     0.124023,0.204638,0.057878,0.000000,0.000000,105.000000,98.000000,7.000000,0.000000,0.000000,0.000000,0.124023,0.204638,0.057878,0.000000,0.000000,105.000000,98.000000,7.000000,0.000000,0.000000,0.000000:
0000
0000
0000
0000
,
0000
0000
0000
0000
,
0000
0000
0000
0000
,
0000
0000
0000
0000
,
0000
0000
0000
0000
,
0000
0000
0000
0000
,
0001
0000
0000
0000
,
0000
0000
0100
0000
,
0100
0000
0000
0000
,
0000
0000
0010
0000
,
0010
0000
0000
0000
,
0000
0000
1000
0000
,
1000
0000
0000
0000
,
0100
0000
0000
0000
,
0000
0000
0000
0000
,
0000
0000
0000
0000
,
0000
0000
0000
0000
,
0000
0000
0000
0000
,
1000
0000
1000
0000
,
0000
0000
0000
0000
,
0010
0000
0000
0000
,
0100
0000
0000
0000
,
0001
0000
0001
0000
,
0000
0000
0000
0000
,
0001
0000
0000
0000
,
0010
0000
0000
0000
,
1001
0000
0000
0000
,
1000
0000
0000
0000
,
0010
0000
0000
0000
,
0100
0000
0000
0000
,
0001
0000
0001
0000
,
0000
0000
0000
0000
,
0010
0000
0000
0000
,
0100
0000
0000
0000
,
1000
0000
1000
0000
,
0000
0000
0000
0000
,
0010
0000
0000
0000
,
0100
0000
0000
0000
,
1001
0000
0000
0000
,
0001
0000
0001
0000
,
0001
0000
0000
0000
,
0010
0000
0010
0000
,
0010
0000
0000
0000
,
0100
0000
0000
0000
,
1000
0000
0000
0000
,
0001
0000
0000
0000
,
0100
0000
0100
0000
,
0000
0000
0000
0000
,
0010
0000
0000
0000
,
0000
0000
1000
0000
,
1000
0000
0000
0000
,
1001
0000
0000
0000
,
1000
0000
0000
0000
,
0100
0000
0000
0000
,
0010
0000
0000
0000
,
0001
0000
0001
0000
,
0001
0000
0000
0000
,
1000
0000
1000
0000
,
1000
0000
0000
0000
,
0010
0000
0000
0000
,
0100
0000
0000
0000
,
0010
0000
0010
0000
,
0010
0000
0000
0000
,
1000
0000
0000
0000
,
0001
0000
0000
0000
,
0010
0000
0010
0000
,
0010
0000
0010
0000
,
0010
0000
0000
0000
,
1001
0000
0000
0000
,
0000
0000
0000
0000
,
0001
0000
0001
0000
,
0001
0000
0000
0000
,
0100
0000
0100
0000
,
0100
0000
0000
0000
,
0010
0000
0000
0000
,
0010
0000
0000
0000
,
1000
0000
0000
0000
,
0001
0000
0000
0000
,
1000
0000
1000
0000
,
1000
0000
0000
0000
,
0100
0000
0100
0000
,
0100
0000
0000
0000
,
0010
0000
0000
0000
,
0010
0000
0000
0000
,
1001
0000
0000
0000
,
0000
0000
0000
0000
,
0000
0000
0000
0000
,
0000
0000
0000
0000
,
1001
0000
0000
0000
,
0000
0000
0000
0000
,
0000
0000
0000
0000
,
0000
0000
0000
0000
,
1000
1000
0000
0000
,
0000
0000
0001
0001
,
0000
0000
0000
0100
,
0100
0000
0000
0000
,
0010
0010
0000
0000
,
0000
1000
1000
0000
,
1000
0000
0000
0000
,
1001
0000
0000
0000
;

//---------------dance-double - ----------------
#NOTES:
     dance-double:
     :
     Hard:
     14:
     0.642559,0.781554,0.545703,0.909504,0.008268,544.000000,478.000000,66.000000,110.000000,0.000000,0.000000,0.642559,0.781554,0.545703,0.909504,0.008268,544.000000,478.000000,66.000000,110.000000,0.000000,0.000000:
// measure 0
00000000
00000000
00000000
00000000
,  // measure 1
00000000
00000000
00000000
00000000
,  // measure 2
00000000
00000000
00000000
00000000
,  // measure 3
00000000
00000000
00000000
00000000
,  // measure 4
00000000
00000000
00000000
00000000
,  // measure 5
00000000
00000000
00000000
00000000
,  // measure 6
00201000
00000000
00000000
02300000
00000000
00000000
23000000
00000000
,  // measure 7
00010000
00000000
30200000
00000000
01300000
00001000
03010000
00000000
,  // measure 8
00010020
00000000
00000000
00000230
00000000
00000000
00000302
00000000
,  // measure 9
00001003
00000100
00000001
00000100
00001000
00000010
00000100
00001000
,  // measure 10
00020000
00000000
00031000
00100000
00000000
00100000
02000000
00000000
,  // measure 11
13000000
00100000
02000000
00000000
03002000
00000000
00013000
00000000
,  // measure 12
00010200
00000000
00000310
00000001
00001000
00000001
00000100
00000000
,  // measure 13
00000102
00000000
00001033
00000000
00000001
00000010
00001000
00010000
,  // measure 14
00002000
00000000
00000000
00000000
,  // measure 15
00000000
00000000
00000000
00030000
,  // measure 16
00020000
00000000
00000000
00000000
,  // measure 17
00000000
00000000
00000000
00033000
,  // measure 18
02001000
00000000
03100000
20000000
00000000
30010000
00000000
00110000
,  // measure 19
00000000
10000000
10100000
00000000
00010000
00000000
10010000
20000000
,  // measure 20
00000000
31000000
00000000
00101000
00000000
00001000
01000000
00000000
,  // measure 21
00001000
00100000
00002000
00000000
00013000
00001000
00010000
00000000
,  // measure 22
00010010
00000000
00000130
00000002
00000000
00001003
00000000
00001100
,  // measure 23
00000000
00000001
00000101
00000000
00001000
00000000
00001001
00000002
,  // measure 24
00000000
00000013
00000000
00010100
00000000
00010000
00000010
00000000
,  // measure 25
00010000
00000100
00020000
00000000
00031000
00010000
00100000
10000000
,  // measure 26
02003000
00000000
03100000
00010000
10000000
00010000
02000000
00000000
,  // measure 27
03100000
00010000
00001000
00000100
00000010
00001000
00000001
00000000
,  // measure 28
00000021
00000000
00000130
00001000
00000001
00001000
00000020
00000000
,  // measure 29
00000130
00001000
00010000
00100000
02000000
00000000
03002000
00000000
,  // measure 30
00013000
00000100
00010000
00001000
00100000
00100000
00010000
10000000
,  // measure 31
00100000
01000000
01000000
00010000
00100000
00001000
00010000
00010000
,  // measure 32
00000010
00000100
00000001
00001000
00001000
00000100
00020000
00000000
,  // measure 33
00031000
01002000
00013000
00020100
,  // measure 34
00031000
01000000
00001000
00010000
00000100
00000100
00001000
00000001
,  // measure 35
00000100
00000010
00000010
00001000
00000100
00010000
00001000
00001000
,  // measure 36
01000000
00100000
10000000
00010000
00010000
00100000
00002000
00000000
,  // measure 37
00013000
00020010
00031000
00101000
,  // measure 38
00021000
00000000
00030010
00000100
00000010
00000100
00002000
00000000
,  // measure 39
00013000
00100000
10000000
01000000
00200000
00000000
00301000
00000000
,  // measure 40
00012000
00000000
01003000
00100000
01000000
00100000
00020000
00003000
,  // measure 41
00031000
00000100
00000001
00000010
00000100
00001000
00000010
00010000
,  // measure 42
00002000
00000000
00000010
00000010
00000000
00013000
00020000
00000000
,  // measure 43
00100000
00100000
00000000
00031000
00100000
01000000
10000000
00010000
,  // measure 44
00000000
00000000
00000000
00000000
,  // measure 45
10000000
01000000
00010000
00000000
00012000
00000000
00013000
00001000
,  // measure 46
00000100
00000002
00000000
00000013
00000100
00001000
00000000
00010020
,  // measure 47
00000000
00010030
00000100
00000000
00001001
00000000
00000001
00000010
,  // measure 48
00001000
00000000
00021000
00000000
00031000
00010000
00100000
20000000
,  // measure 49
00000000
31000000
00100000
00010000
00000000
02001000
00000000
03001000
,  // measure 50
00100000
00000000
10010000
00000000
00010000
01000000
00100000
10000000
,  // measure 51
00010000
11000000
00110000
00001100
,  // measure 52
00000001
00000100
00000010
00000100
00001000
00000100
00000001
00000000
,  // measure 53
00001001
00000011
00001100
00110000
,  // measure 54
10000000
00100000
01000000
00100000
00010000
00100000
10000000
01000000
,  // measure 55
00200000
00000000
00000000
00331000
00020000
00000000
00000000
00030010
,  // measure 56
00000200
00000000
00000000
00000301
00000020
00000000
00000130
00000000
,  // measure 57
00001001
00000000
00000001
00000100
00000010
00000000
00001000
00000100
,  // measure 58
00010000
00000000
00001000
01000000
00100000
10000000
00010000
00000000
,  // measure 59
20100000
00000000
30020000
00000000
00130000
10000000
00100000
01000000
,  // measure 60
00020000
00000000
00032000
00000000
01003000
00100000
03010000
00000000
,  // measure 61
00300200
00000030
00010300
00001000
00000000
00001000
00000010
00000000
,  // measure 62
00000001
00000100
00000010
00000000
00001000
00000100
00000010
00000000
,  // measure 63
00000102
00000000
00002003
00000000
00003100
00000001
00000100
00000010
,  // measure 64
00002000
00000000
00023000
00000000
00030010
00000100
00001030
00000000
,  // measure 65
00102000
00000000
00010000
00023000
00000000
00000010
00030020
00000000
,  // measure 66
00000100
00000230
00000000
00000301
00001000
00000100
00000010
00000001
,  // measure 67
00001000
00000010
00000010
00000100
00000010
00000010
00000001
00000010
,  // measure 68
00001000
00000000
00000002
00000003
,  // measure 69
00002000
00003000
00020000
00030000
,  // measure 70
20010000
00000000
31000000
00100000
01000000
00010000
01000000
10000000
,  // measure 71
00200000
00000000
00310000
00002000
00000000
00013000
00000100
00000010
,  // measure 72
00000002
00000000
00000103
00001000
00000100
00000010
00001000
00000001
,  // measure 73
00000020
00000000
00003130
00002000
00000000
00003301
00000100
00001000
,  // measure 74
00020000
00000000
00130000
20000000
00000000
31000000
00010000
00001000
,  // measure 75
00000020
00000000
00000031
00002000
00000000
00000000
00003010
00010000
,  // measure 76
00001000
00201000
00301000
00012000
,  // measure 77
00013000
00000000
00010020
00000000
00000130
00000001
00001000
00000000
,  // measure 78
00001002
00000000
00000013
00000100
00000010
00001000
00000010
00000001
,  // measure 79
00000200
00000000
00001300
00020000
00000000
00031000
00100000
01000000
,  // measure 80
10000000
00020000
00000000
02030000
00000000
03200000
00000000
20300000
,  // measure 81
00000000
30010000
00100000
00000000
00100000
00010000
00001000
00000100
,  // measure 82
00000020
00000000
00000031
00001000
00000001
00000100
00000010
00001000
,  // measure 83
00000100
00010000
00001000
01000000
00100000
01000000
00001000
00000000
,  // measure 84
00022000
00000000
00000000
00000000
,  // measure 85
00000000
00000000
00000000
00000000
00000000
00000000
00033000
00101000
,  // measure 86
00000000
00020020
00000000
00000000
00000000
00000000
00000000
00000000
,  // measure 87
00000000
00000000
00000000
00030030
00000000
00010000
00001000
00000000
,  // measure 88
20020000
00000000
00030000
00000000
00000000
30200000
00000000
00000000
,  // measure 89
00320000
00000000
00000000
00031000
00000000
00010100
00000000
00000110
,  // measure 90
00000000
00000001
00002002
00000000
00000000
00000000
00003000
00000000
,  // measure 91
00000103
00000010
00000100
00000001
00002003
00000000
00003100
00000000
,  // measure 92
00010200
00000000
00010300
00011000
00000000
01001000
00000000
00102000
,  // measure 93
00000000
00013000
00020010
00000000
00030010
00001010
00000000
00010010
,  // measure 94
00000000
00020100
00000000
00031000
00012000
00000000
00103000
01100000
,  // measure 95
00000000
00101000
00000000
00021000
00000000
00030010
00000110
00000000
,  // measure 96
00001001
00001002
00000000
00000023
00000000
00002030
00000000
00023000
,  // measure 97
00000000
00000000
00000000
01030000
00000000
00000000
10000000
00000000
00000000
00100000
00000000
00000000
01000000
00000000
00000000
00010000
00000000
00000000
00100000
00000000
00001000
00000000
00100000
00000000
,  // measure 98
00001000
00010000
00000010
00000100
00000001
00000010
00000100
00000000
,  // measure 99
00002002
00000000
00003003
00000000
;

//---------------dance-double - ----------------
#NOTES:
     dance-double:
     :
     Medium:
     11:
     0.478376,0.617016,0.380338,0.785481,0.000000,405.000000,359.000000,46.000000,95.000000,0.000000,0.000000,0.478376,0.617016,0.380338,0.785481,0.000000,405.000000,359.000000,46.000000,95.000000,0.000000,0.000000:
// measure 0
00000000
00000000
00000000
00000000
,  // measure 1
00000000
00000000
00000000
00000000
,  // measure 2
00000000
00000000
00000000
00000000
,  // measure 3
00000000
00000000
00000000
00000000
,  // measure 4
00000000
00000000
00000000
00000000
,  // measure 5
00000000
00000000
00000000
00000000
,  // measure 6
00021000
00000000
00000000
00030020
00000000
00000000
00000230
00000000
,  // measure 7
00000000
00000320
00002030
00003001
,  // measure 8
00001002
00000000
00000000
00000023
00000000
00000000
00000230
00000000
,  // measure 9
00000000
00010300
00001000
00000000
00010000
00001000
01000000
00000000
,  // measure 10
01020000
00000000
00000000
20030000
00000000
00000000
32000000
00000000
,  // measure 11
00000000
03200000
00302000
00013000
,  // measure 12
00021000
00000000
00030010
00000000
00010000
00000010
00000100
00000000
,  // measure 13
00000210
00000331
00002002
00003003
,  // measure 14
00020000
00000000
00000000
00000000
,  // measure 15
00000000
00000000
00000000
00000000
,  // measure 16
00002000
00000000
00000000
00000000
,  // measure 17
00000000
00000000
00000000
00033000
,  // measure 18
00001000
00000000
01000000
00100000
00000000
00100000
00000000
10000000
,  // measure 19
00000000
00010000
00100000
00000000
00100000
00000000
00001000
00010000
,  // measure 20
00000000
00010000
00000000
00000010
00000000
00000100
00000010
00000000
,  // measure 21
00010000
00000010
00010000
00000000
00010000
00001000
00010000
00000000
,  // measure 22
00011000
00000000
00000100
00000010
00000000
00000010
00000000
00000001
,  // measure 23
00000000
00001000
00000010
00000000
00000010
00000000
00010000
00001000
,  // measure 24
00000000
00001000
00000000
00100000
00000000
01000000
00100000
00000000
,  // measure 25
00001000
00100000
00001000
00000000
00001000
00010000
00001000
00000000
,  // measure 26
02001000
03100000
20000000
01000000
,  // measure 27
30020000
00000000
00100000
00000000
01030000
00001000
00010000
00000000
,  // measure 28
00010200
00000310
00000002
00000100
,  // measure 29
00002003
00000000
00000100
00000000
00003010
00010000
00001000
00000000
,  // measure 30
00101000
00000000
00100000
01000000
00100000
00020000
00000000
10030000
,  // measure 31
00000000
00010000
02000000
00000000
03001000
00010000
00001000
00000000
,  // measure 32
00010000
00030100
00010000
00000020
00000000
00000000
00000130
00000000
,  // measure 33
00000010
00001001
00001100
00011000
,  // measure 34
00010010
00000000
00000010
00000100
00000010
00002000
00000000
00003001
,  // measure 35
00000000
00001000
00000200
00000000
00010330
00001000
00010000
00000000
,  // measure 36
00001000
01003000
00001000
00200000
00000000
00000000
01300000
00000000
,  // measure 37
00100000
10010000
01010000
01001000
,  // measure 38
00022000
00033000
00020000
00000010
,  // measure 39
00032000
00100000
00023000
00031000
,  // measure 40
00100000
00010000
00100000
00000000
00001000
00010000
00001000
00000000
,  // measure 41
00010000
00000010
00010000
00000000
00001000
00010000
00001000
00000000
,  // measure 42
00020000
00000000
00000000
02030000
00000000
00000000
23000000
00000000
,  // measure 43
00000000
30200000
00000000
00000000
00320000
00000000
00000000
00031000
,  // measure 44
00000000
00000000
00000000
00000000
,  // measure 45
00010000
00000000
00001000
00000000
00010000
00000010
00000100
00000010
,  // measure 46
00000100
00000010
00000200
00000000
00000301
00000010
00000000
00000100
,  // measure 47
00000000
00000100
00010000
00000000
00011000
00000000
00001000
00010000
,  // measure 48
00001000
00000000
00100000
00000000
00001000
01000000
00100000
01000000
,  // measure 49
00100000
01000000
00200000
00000000
10300000
01000000
00000000
00100000
,  // measure 50
00000000
00100000
00001000
00000000
00011000
00000000
00010100
00000000
,  // measure 51
00001002
00000000
00000103
00000010
00000000
00000010
00020000
00000000
,  // measure 52
00000100
00000000
00001000
00000000
00031000
00100000
00010000
00000000
,  // measure 53
20010000
00000000
30100000
01000000
00000000
01000000
00002000
00000000
,  // measure 54
00100000
00000000
00010000
00000000
00013000
00000100
00001000
00000000
,  // measure 55
00000002
00000000
00000033
00000100
00000020
00000000
00000030
00001030
,  // measure 56
00000200
00000000
00000300
00010000
00001000
00000000
00011000
00000000
,  // measure 57
00200000
00000000
00300000
00010000
02000000
00000000
03000000
00100000
,  // measure 58
20000000
30000000
10010000
01100000
,  // measure 59
10010000
00000000
00010000
00000000
00100000
00001000
00100000
00001000
,  // measure 60
00020000
00030020
00000130
00000110
,  // measure 61
00002000
00000000
00000000
00000010
00000000
00000000
00003200
00000000
,  // measure 62
00020300
00032000
00003200
00000310
,  // measure 63
00001001
00000000
00001000
00000000
00000100
00010000
00000100
00010000
,  // measure 64
00002000
02003000
03100000
01100000
,  // measure 65
00020000
00000000
00000000
01000000
00000000
00000000
20030000
00000000
,  // measure 66
00000000
00100000
00000000
00000000
00020000
00000000
30030000
00000000
,  // measure 67
10000000
00000000
00000000
01000000
00000000
00000000
00020000
00000000
,  // measure 68
00002000
00000000
00033000
00000000
,  // measure 69
00000000
00000000
00000000
00000000
,  // measure 70
00011000
00000000
00010000
00000000
00000010
00000100
00000010
00000000
,  // measure 71
00000200
00000300
00000010
00001000
,  // measure 72
00000001
00000000
00000010
00000000
00000100
00001000
00000100
00000000
,  // measure 73
00020000
00000000
00030000
00000000
00001000
00100000
00001000
00100000
,  // measure 74
00002000
00000000
00003000
00000000
00010000
00000010
00010000
00000010
,  // measure 75
00020000
00030000
00001000
00100000
,  // measure 76
00020000
01000000
01000000
01000000
,  // measure 77
20000000
30030000
10010000
01100000
,  // measure 78
10010000
00000000
00010000
00000000
01000000
00100000
01000000
00000000
,  // measure 79
00200000
00300000
10000000
00100000
,  // measure 80
01000000
00000000
00010000
00000000
00100000
00001000
00100000
00000000
,  // measure 81
00001000
00000000
00001000
00000000
00010000
00000010
00000100
00000010
,  // measure 82
00000200
00000000
00000000
00000302
00000000
00000000
00002003
00000000
,  // measure 83
00003200
00000000
00000000
00020300
00000000
00000000
00031000
00000000
,  // measure 84
00022000
00000000
00000000
00000000
,  // measure 85
00000000
00000000
00000000
00000000
00000000
00033000
00000000
00101000
,  // measure 86
00000000
00202000
00000000
00000000
00000000
00000000
00000000
00000000
,  // measure 87
00000000
00000000
00000000
00303000
,  // measure 88
00020020
00000000
00000000
00000030
00000000
00000010
00000000
00000000
,  // measure 89
00000010
00000000
00000000
00000100
00030000
00010100
00000000
00010100
,  // measure 90
00000000
00022000
00000000
00000000
,  // measure 91
00000000
00000000
00000000
00033000
,  // measure 92
00011000
00000000
00100000
00010000
00000000
10000000
00000000
10000000
,  // measure 93
00000000
00010000
01000000
00000000
00001000
00010000
00000000
00000100
,  // measure 94
00000000
00000100
00000000
00001000
00000010
00000000
00000100
00000001
,  // measure 95
00000000
00001000
00000000
00001000
00000000
00000100
00010000
00000000
,  // measure 96
00001000
00001000
00000000
00101000
00000000
00110000
00000000
20010000
,  // measure 97
00000000
30010000
02000000
00000000
03200000
00000000
00320000
00000000
,  // measure 98
00032000
00000000
00003200
00000000
00000310
00000100
00000010
00000000
,  // measure 99
00002002
00000000
00003003
00000000
;

//---------------dance-double - ----------------
#NOTES:
     dance-double:
     :
     Easy:
     7:
     0.283482,0.411344,0.082682,0.355534,0.000000,240.000000,230.000000,10.000000,43.000000,0.000000,0.000000,0.283482,0.411344,0.082682,0.355534,0.000000,240.000000,230.000000,10.000000,43.000000,0.000000,0.000000:
00000000
00000000
00000000
00000000
,
00000000
00000000
00000000
00000000
,
00000000
00000000
00000000
00000000
,
00000000
00000000
00000000
00000000
,
00000000
00000000
00000000
00000000
,
00000000
00000000
00000000
00000000
,
00001000
00000000
00000000
00001000
00000000
00000000
00200000
00000000
,
00000000
00300000
00100000
00001000
,
00010000
00000000
00000000
00010000
00000000
00000000
00000020
00000000
,
00000000
00000030
00000010
00010000
,
00001000
00000000
00000000
00001000
00000000
00000000
02000000
00000000
,
00000000
03000000
01000000
00001000
,
00020000
00000000
00030000
00001000
,
00002000
00003000
00022000
00000000
,
00033000
00000000
00000000
00000000
,
00000000
00000000
00000000
00000000
,
00000000
00000000
00000000
00000000
,
00000000
00000000
00000000
00000000
,
00001001
00000000
00000000
00000001
00000000
00001000
00000000
00000010
,
00000000
00001000
00000001
00000010
,
00000000
00000001
00000000
00001000
00000000
00000000
00000100
00000000
,
00010000
00010000
00001000
00001000
,
00100000
00000000
00000000
00010000
00000000
10000000
00000000
00100000
,
00000000
10000000
00010000
00100000
,
00000000
00010000
00000000
10000000
00000000
00000000
00010000
00000000
,
01000000
01000000
00001000
00001000
,
00011000
00000000
00020000
00030000
,
00000200
00000300
00000020
00000030
,
00000002
00000003
00000200
00000300
,
00000020
00000030
00002000
00003000
,
00000100
00010000
00000100
00000000
,
00010000
00001000
00010000
00000000
,
00001000
00100000
00001000
00000000
,
00100000
00010000
01000000
01000000
,
00001000
00010000
00001000
00000000
,
00010000
00000010
00010000
00000000
,
00000010
00001000
00000010
00000000
,
00001000
00000001
00000010
00000010
,
00000200
00000300
00020000
00030000
,
00002000
00003000
00200000
00300000
,
00020000
00030000
02000000
03000000
,
00200000
00300000
20000000
30000000
,
00010000
00000000
00000000
00010000
00000000
00000000
00100000
00000000
,
00000000
00100000
00000000
00000000
00002000
00000000
00000000
00000000
,
00003000
00000000
00000000
00000000
,
00010000
00010000
00000000
00000010
,
00000010
00000000
00000100
00000000
,
00000010
00000010
00000000
00001000
,
00000100
00000000
00010000
00010000
,
00000000
00001000
00001000
00000000
,
00100000
00010000
01000000
01000000
,
00100000
00000000
10000000
00010000
,
10000000
00010000
00100000
00001000
,
00010000
00000000
00001000
00010000
,
00001000
00010000
00000100
00001000
,
00000010
00000000
00000010
00000100
,
00000001
00000000
00000001
00000010
,
00000100
00000000
00000100
00010000
,
00001000
00000000
00010000
00000000
,
00011000
00000000
00000000
00001000
,
00100000
00001000
00100000
00000000
,
00100000
00000000
00010000
00000000
,
10000000
00000000
00100000
01000000
,
00001000
00000000
00000000
00001000
,
00010000
00001000
00010000
00000000
,
00010000
00000000
00000100
00000000
,
00000010
00000000
00000001
00000000
,
00000100
00000000
00000000
00000100
00000000
00000000
00000100
00000000
,
00000200
00000000
00000300
00000000
,
00000000
00000000
00000000
00000000
,
00002002
00003003
00001000
00000100
,
00010000
00001000
00100000
00000000
,
00020000
00030000
10000000
00100000
,
01000000
00000000
00010000
10000000
,
02000000
03000000
00100000
00010000
,
02000000
03000000
00001000
00010000
,
00002000
00000000
00000000
00003000
,
00200000
00300000
00010000
10000000
,
20020000
30030000
10000000
00100000
,
02000000
03000000
00010000
00100000
,
00001000
00001000
00010000
00010000
,
00000020
00000000
00000030
00000000
,
00000100
00000000
00000000
00000100
00000000
00000000
00000100
00000000
,
00000010
00000000
00000000
00000010
00000000
00000000
00000010
00000000
,
00002002
00000000
00000000
00000000
,
00000000
00000000
00000000
00000000
00003003
00000000
00000000
00001000
,
00000000
00000100
00000000
00000000
00000000
00000000
00000000
00000000
,
00000000
00000000
00000000
00000000
,
00022000
00000000
00000000
00000000
,
00000000
00000000
00000000
00033000
00033000
00001000
00000000
01000000
,
00000000
20020000
00000000
00000000
,
00000000
00000000
00000000
30030000
,
10000000
00000000
00000000
01000000
00000000
01000000
00000000
00100000
,
00000000
00000000
00001000
00000000
00001000
00000000
00000000
00010000
,
00000000
00010000
00000000
00000010
00000000
00000000
00000010
00000000
,
00000000
00000100
00000000
00000100
00000000
00000000
00000000
00000000
,
00000001
00000010
00000100
00001000
,
00000010
00010000
00001000
00100000
,
00010000
01000000
00100000
10000000
,
20020000
00000000
30030000
00000000
;
