#TITLE:Horse;
#SUBTITLE:;
#ARTIST:Salvatore Ganacci;
#TITLETRANSLIT:;
#SUBTITLETRANSLIT:;
#ARTISTTRANSLIT:;
#GENRE:;
#CREDIT:;
#MUSIC:Horse-Edit.ogg;
#BANNER:horse-banner.png;
#BACKGROUND:horse-bg.png;
#CDTITLE:;
#SAMPLESTART:64.957;
#SAMPLELENGTH:15.616;
#SELECTABLE:YES;
#OFFSET:-0.025;
#BPMS:0.000=146.000;
#STOPS:;
#BGCHANGES:0.000=horse.avi=1.000=0=0=0=StretchNoLoop====;
#FGCHANGES:;

//--------------- dance-single - Evergreen ----------------
#NOTES:
     dance-single:
     Evergreen:
     Beginner:
     5:
     0,0,0,0,0:
0000
0000
0000
0000
,
0000
0000
0000
0000
,
0000
0000
0000
0000
,
0000
0000
0000
0000
,
1000
0010
1000
0010
,
1000
0001
1000
0001
,
0010
0001
0010
0001
,
1000
0001
1000
0001
,
1000
0100
1000
0100
,
1000
0001
1000
0001
,
0100
0001
0100
0001
,
1000
0001
1000
0001
,
2000
0000
0000
0000
,
3020
0000
0000
0000
,
0230
0000
0000
0000
,
0301
0000
0001
0000
,
1000
1000
1000
0000
,
0001
0001
0001
0000
,
0010
0010
0010
0000
,
0100
0100
0100
0000
,
1000
1000
0001
0000
,
0001
0001
1000
0000
,
0010
0010
0100
0000
,
1000
0001
1000
0001
,
1000
1000
0010
0000
,
0001
0001
0010
0000
,
1000
1000
0100
0000
,
0001
0001
0100
0000
,
1000
0010
1000
0000
,
0001
0010
0001
0000
,
0010
0010
0100
0000
,
1000
0001
1000
0001
,
1000
0000
0010
0000
,
0100
0000
0001
0000
,
1000
0000
0100
0000
,
0010
0000
0001
0000
,
1000
0100
1000
0000
,
0001
0100
0001
0000
,
0001
1000
0001
0000
,
0010
0010
0100
0100
,
0010
1000
0010
0000
,
1000
0001
0010
0000
,
0001
0010
0001
0000
,
0010
0100
0010
0000
,
0001
1000
0010
0000
,
0100
0001
1000
0000
,
0100
0010
0001
0000
,
1000
0100
0010
0000
,
1002
0000
1000
0000
,
1000
0000
1000
0000
,
0203
0000
0001
0000
,
0001
0000
0001
0000
,
0320
0000
0100
0000
,
0100
0000
0100
0000
,
2030
0000
0010
0000
,
0010
0000
0010
0000
,
3010
0100
0010
0100
,
0010
0100
0010
0000
,
1000
0001
1000
0001
,
1000
0001
1000
0000
,
0001
1000
0001
1000
,
0001
1000
0001
0000
,
1000
0100
0010
0001
,
1000
0000
1000
0000
,
0010
0010
1000
1000
,
0001
0000
0001
0000
,
0010
0010
0001
0001
,
1000
0000
1000
0000
,
0100
0100
0001
0001
,
1000
0000
1000
0000
,
0001
0001
1000
1000
,
0001
1000
0001
1000
,
0001
0001
0010
0000
,
1000
1000
0010
0000
,
0001
0001
0100
0000
,
1000
0001
1000
0000
,
0010
0010
1000
0000
,
0010
0010
0001
0000
,
0100
0100
1000
0000
,
0100
0000
0100
0000
,
0001
0001
1000
0000
,
0001
0001
0010
0000
,
0001
0001
0100
0001
,
0001
0001
1000
0001
,
1000
1000
0001
0000
,
1000
1000
0010
0000
,
1000
1000
0100
0000
,
1000
0001
1000
0001
;

//--------------- dance-single - Evergreen ----------------
#NOTES:
     dance-single:
     Evergreen:
     Easy:
     12:
     0,0,0,0,0:
0000
0000
0000
0000
,
0000
0000
0000
0000
,
0000
0000
0000
0000
,
0000
0000
0000
0000
,
1000
0010
1000
0010
,
0100
0001
0100
0001
,
0010
0001
0010
0001
,
1000
0100
1000
0100
,
1000
0010
1000
0000
0001
0010
0001
0000
,
1000
0100
1000
0000
0001
0100
0001
0000
,
1000
0010
0100
0000
0001
0010
0100
0000
,
1000
0001
0010
0000
0001
1000
0010
1000
,
0004
0000
0000
0000
,
4003
0000
0000
0000
,
3004
0000
0000
0000
,
4003
3000
0000
0000
0400
0300
0000
0000
0004
0003
0000
0000
0040
0030
0000
0000
,
1000
0010
1000
0000
0001
0100
0001
0000
,
1000
0100
1000
0000
0001
0010
0001
0100
,
0001
1000
0010
0000
1000
0001
0010
0000
,
0001
1000
0100
0000
1000
0001
0100
0010
,
1000
0100
1000
0000
1000
0010
1000
0000
,
0001
1000
0001
0000
0010
0001
1000
1000
,
0001
0100
0001
0000
0001
0010
0001
0000
,
1000
0000
0010
0000
0100
0100
0001
0001
,
1000
0010
1000
0001
0010
0100
0010
0000
,
0100
1000
0100
0000
1000
0010
1000
0001
,
0001
1000
0010
0100
0001
1000
0100
0010
,
0001
1000
0100
0000
1000
0010
1000
0001
,
0001
1000
0100
1000
0001
0100
0010
0000
,
1000
0010
0100
0001
1000
0100
1000
1000
,
0001
0010
0100
1000
0001
0100
0010
1000
,
0010
0000
1000
0000
0100
0100
0010
0010
,
0001
0000
0010
0000
0001
0000
1000
0000
0010
0000
1000
0010
1000
0000
0000
0000
,
0001
0100
0001
0000
1000
0100
0010
0001
,
1000
0000
0010
0000
1000
0000
0001
0000
0010
0000
0001
0010
0001
0000
0000
0000
,
1000
0100
1000
0000
0001
0100
0010
1000
,
0001
0000
0010
0000
0001
0000
1000
0000
0010
0000
1000
0010
1000
0000
0000
0000
,
0001
0000
0100
0001
0100
0000
0000
0000
1000
0000
0100
1000
0100
0000
1000
0000
,
0001
1000
0001
0010
0001
0100
0001
1000
,
0100
0010
0001
1000
0001
0001
1000
1000
,
0001
0100
0001
0010
0100
1000
0000
1000
,
0010
0100
0001
0010
0100
1000
0001
0001
,
1000
0100
0010
0001
0100
0010
0000
0010
,
0100
0001
1000
0100
0010
0100
1000
1000
,
0001
0000
0010
0000
0010
0000
0010
0000
0001
0000
0000
0000
0010
0001
1000
0000
,
0010
0000
1000
0000
0010
0000
0010
0000
0010
0000
1000
0000
0010
1000
0001
0000
,
1000
0000
0100
0000
0100
0000
0100
0000
1000
0000
0001
0000
0100
0001
0100
0000
,
0001
0000
1000
0000
0001
0001
1000
1000
,
0001
0010
0100
1000
0001
0100
0010
1000
,
0010
0010
1000
1000
0001
0001
0100
0100
,
0001
1000
0100
0010
0001
1000
0010
0100
,
0001
0001
1000
1000
0200
0010
0010
0310
,
0100
1000
0001
0100
0010
1000
0001
0100
,
0001
0001
1000
1000
0100
0100
0010
0010
,
0001
0010
0100
1000
0001
0100
0010
1000
,
0010
0010
0100
0100
0002
0010
0010
0013
,
0001
0000
0000
1000
0000
0000
0010
0000
1000
0000
0000
0001
0000
0000
0010
0000
,
0001
0000
0000
1000
0000
0000
0100
0000
1000
0000
0000
0001
0000
0000
0100
0000
,
0001
0000
0000
0010
0000
0000
0001
0000
1000
0000
0000
0010
0000
0000
1000
0000
,
0001
0000
0000
0100
0000
0000
0010
0000
0200
0000
0010
0000
0010
0000
0310
0000
,
0100
0010
1000
0001
1000
0100
0010
0001
,
0010
0100
1000
0001
0100
0010
0100
0001
,
0010
0010
0100
0100
1000
1000
0001
0001
,
4000
3000
0000
0000
0040
0030
0000
0000
0004
0003
0000
0000
0400
0300
0000
0000
,
1000
0001
1000
1000
0010
0100
0010
0010
,
0100
0001
0010
0010
0100
1000
0001
0001
,
1000
0010
0100
0100
0001
1000
0001
0010
,
0100
0100
1000
1000
0010
0010
0100
0100
,
0001
1000
0001
0001
0010
0001
0010
0010
,
0001
0100
0010
0010
1000
0100
1000
1000
,
0010
1000
0100
0100
0010
0001
0010
0010
,
0004
0003
0000
0000
0040
0030
0000
0000
4000
3000
0000
0000
0400
0300
0000
0000
,
0001
0100
0001
1000
0100
0020
0001
0031
,
0010
0001
1000
0100
1000
0020
1000
1030
,
0010
0100
0001
1000
0100
0020
0001
0031
,
0010
0000
0100
0000
1000
1000
0001
0001
,
1000
0100
1000
0001
0100
0020
1000
1030
,
0010
1000
0001
0100
0001
0020
0001
0031
,
0010
0100
1000
0001
0100
0020
1000
1030
,
0010
0000
1000
0010
1000
0000
0001
0000
1000
0000
0100
0000
0010
0000
0000
0000
,
0010
0100
1000
0001
0100
0100
0010
0010
,
1000
0010
0100
0001
1000
1000
0100
0100
,
0010
0001
0010
0100
1000
1000
0010
0010
,
0100
0001
0100
0010
1000
1000
0001
0001
,
1000
0000
0010
0000
1000
0010
1000
0000
0001
0000
0001
0000
0100
0000
0100
0000
,
0001
0000
0010
0000
0001
0010
0001
0000
1000
0000
1000
0000
0100
0000
0100
0000
,
1000
0000
0010
0000
0100
0001
0100
0000
0001
0000
1000
0000
0100
0000
0010
0000
,
0001
1000
0100
1000
0001
0100
0001
1000
;

//--------------- dance-single - Evergreen ----------------
#NOTES:
     dance-single:
     Evergreen:
     Medium:
     14:
     0,0,0,0,0:
0000
0000
0000
0000
,
0000
0000
0000
0000
,
0000
0000
0000
0000
,
0000
0000
0000
0000
,
1000
0010
0100
0000
0001
0010
0100
0000
,
1000
0001
0100
0001
0001
1000
0100
1000
,
1000
0100
0010
0000
0001
0100
0010
0000
,
1000
0001
0010
0001
0001
1000
0010
1000
,
1000
0001
1000
0000
0001
1000
0001
0000
,
1000
0001
0100
0010
0010
1000
0001
0010
,
0010
0100
1000
0000
0010
0100
0001
0000
,
1000
0001
1000
0100
0100
1000
0001
0100
,
0200
0000
0010
0000
0001
0000
0310
1000
,
0200
0000
0010
0000
1000
0000
0010
0301
,
0100
0001
1000
0100
0010
0001
1000
0010
,
4000
3000
0000
0000
0400
0300
0000
0000
0004
0003
0000
0000
0040
0030
0000
0000
,
1000
0001
0100
0010
1000
0100
1000
0000
,
0001
1000
0100
0010
0001
0100
0001
0001
,
1000
0010
0100
0001
1000
0100
1000
0000
,
0001
0100
0010
1000
0100
1000
0001
0001
,
1000
0100
0010
0001
1000
0010
1000
0000
,
0001
0010
0100
1000
0001
0010
0001
0001
,
0100
0010
0100
0001
1000
0100
1000
0000
,
0004
0003
0000
0000
0040
0030
0000
0000
4000
3000
0400
0300
0004
0003
0400
0300
,
0001
0000
0000
0000
1000
0000
0000
0000
0020
0030
0000
0000
0020
0030
0000
0000
0001
0000
0000
0000
1000
0000
0000
0000
0010
0000
0000
0000
0100
0000
0000
0000
,
0001
0100
0001
0001
1000
0100
1000
1000
,
0001
0000
0000
0000
1000
0000
0000
0000
0200
0300
0000
0000
0200
0300
0000
0000
0001
0000
0000
0000
1000
0000
0000
0000
0100
0000
0000
0000
0001
0000
0000
0000
,
0100
1000
0010
1000
0001
0010
0001
0001
,
1000
0000
0000
0000
0001
0000
0000
0000
0020
0030
0000
0000
0020
0030
0000
0000
1000
0000
0000
0000
0010
0000
0000
0000
1000
0000
0000
0000
0000
0000
0000
0000
,
0001
0010
0100
1000
1000
0010
0100
0001
,
0001
0000
0000
0000
1000
0000
0000
0000
0200
0300
0000
0000
0200
0300
0000
0000
0001
0000
0000
0000
1000
0000
0000
0000
0010
0000
0000
0000
1000
0000
0000
0000
,
0004
0003
0000
0000
0400
0300
0000
0000
4000
3000
0040
0030
0004
0003
0040
0030
,
0004
0003
1000
0000
0001
0000
1000
0010
1000
0000
0001
0000
0100
0000
0000
0000
,
0010
0000
1000
0000
0100
0000
0010
0001
0010
0000
0100
0000
1000
0000
0000
0000
,
0001
0000
1000
0000
0010
0000
0100
0010
0100
0000
0010
0000
1000
0000
0000
0000
,
0001
0000
0100
0000
0010
0000
1000
0010
1000
0000
0001
0000
0010
0000
0100
0000
,
1000
0000
0100
0000
0010
0000
0001
0010
0001
0000
1000
0000
0100
0000
1000
0000
,
0001
0000
0100
0000
0010
0000
1000
0010
1000
0000
0001
0000
0100
0000
0010
0000
,
1000
0000
0100
0000
0010
0000
0001
1000
0001
0000
0100
0000
0010
0000
1000
0000
,
0001
0010
0100
1000
0100
0100
0010
0010
,
0001
0000
0000
0000
0010
0000
0001
0000
0010
0000
0000
0000
0001
0000
0000
0000
1000
0000
0000
0000
0200
0300
0000
0000
0200
0300
0000
0000
0001
0000
0000
0000
,
1000
0000
0000
0000
0001
0000
0010
0000
0001
0000
0000
0000
1000
0000
0000
0000
0001
0000
0000
0000
1000
0000
0000
0000
0020
0030
0000
0000
0020
0030
0000
0000
,
0001
0000
0000
0000
0100
0000
0010
0000
0100
0000
0000
0000
0010
0000
0000
0000
1000
0000
0000
0000
0001
0000
0000
0000
0200
0300
0000
0000
0200
0300
0000
0000
,
1000
0000
0000
0000
0100
0000
0010
0000
0100
0000
0000
0000
1000
0000
0000
0000
0001
0000
0000
0000
1000
0000
0000
0000
0200
0300
0000
0000
0200
0300
0000
0000
,
0001
0000
0000
0000
1000
0000
0000
0000
1000
0000
0000
0000
0010
0000
0000
0000
1000
0000
0000
0000
0001
0000
0000
0000
0200
0300
0000
0000
0200
0300
0000
0000
,
1000
0000
0000
0000
0001
0000
0000
0000
0001
0000
0000
0000
0010
0000
0000
0000
0001
0000
0000
0000
1000
0000
0000
0000
0200
0300
0000
0000
0200
0300
0000
0000
,
0001
0000
0000
0000
1000
0000
0000
0000
1000
0000
0000
0000
0010
0000
0000
0000
1000
0000
0000
0000
0001
0000
0000
0000
0020
0030
0000
0000
0020
0030
0000
0000
,
1000
0000
0001
0000
0010
0010
0100
0100
,
1000
0100
1000
0000
0001
0000
1000
0000
0001
0100
0001
0000
1000
0000
0001
0000
,
1000
0010
1000
0000
0001
0010
0001
0000
1000
0000
0100
0000
0010
0000
0100
0000
,
1000
0010
1000
0000
0001
0000
0010
0000
0001
0010
0001
0000
1000
0000
0010
0000
,
1000
0001
1000
0000
0001
0000
1000
0000
010M
0000
001M
0000
010M
0000
100M
0000
,
0010
0100
0010
0000
1000
0000
0100
0000
0010
0100
0010
0000
0100
0000
1000
0000
,
0001
0100
0001
0000
1000
0100
1000
0000
0001
0000
0100
0000
0010
0000
1000
0000
,
0001
0010
0001
0000
1000
0000
0001
0000
1000
0010
1000
0000
0001
0000
0010
0000
,
0100
1000
0100
0000
0010
0000
0001
0000
M100
0000
M010
0000
M100
0000
M001
0000
,
M010
0000
0001
0010
0000
0001
1000
0000
0010
0000
1000
0001
0000
0100
0010
0000
,
1000
0000
0010
1000
0000
0001
0010
0000
0100
0000
1000
0000
0100
0000
0010
0000
,
0001
0000
0010
0001
0000
1000
0010
0000
1000
0000
0010
0000
1000
0000
0001
0000
,
0010
0000
0001
1000
0000
1000
0001
0000
M10M
0000
M01M
0000
M10M
0000
M01M
0000
,
0100
0000
0001
0000
1000
0100
1000
0000
0010
0000
0100
0000
0001
0100
0001
0000
,
0010
0000
0100
0000
1000
0100
1000
0000
0010
0000
0100
0000
0001
0000
1000
0000
,
0001
0100
0010
0100
0001
0010
0100
1000
0001
0100
0001
1000
0100
0010
0001
1000
,
0004
0003
0000
0000
0040
0030
0000
0000
4000
3000
0000
0000
0400
0300
0000
0000
,
0001
0000
0000
0000
1000
0000
0000
0000
0200
0300
0000
0000
0200
0300
0000
0000
0001
0000
0000
0000
1000
0000
0000
0000
0200
0300
0000
0000
0200
0300
0000
0000
,
0001
0001
1000
0010
1000
1000
0001
0010
,
0001
0000
0000
0000
1000
0000
0000
0000
0020
0030
0000
0000
0020
0030
0000
0000
0001
0000
0000
0000
1000
0000
0000
0000
0020
0030
0000
0000
0020
0030
0000
0000
,
0001
1000
0100
0001
0100
1000
0010
0100
,
0001
0000
0000
0000
1000
0000
0000
0000
0200
0300
0000
0000
0200
0300
0000
0000
0001
0000
0000
0000
1000
0000
0000
0000
0200
0300
0000
0000
0200
0300
0000
0000
,
0001
1000
0001
0000
1000
0000
0010
0000
1000
0001
1000
0000
0001
0000
0010
0000
,
0001
0000
0000
0000
1000
0000
0000
0000
0020
0030
0000
0000
0020
0030
0000
0000
0001
0000
0000
0000
1000
0000
0000
0000
0020
0030
0000
0000
0020
0030
0000
0000
,
0004
0003
0000
0000
0400
0300
0000
0000
4000
3000
0000
0000
0040
0030
0004
0003
,
0010
0000
0001
0000
1000
0000
0010
0000
1000
0010
1000
0000
0001
0100
0001
0000
,
1000
0000
0100
0000
0010
0000
0001
0000
0010
0001
0010
0000
0100
1000
0100
0000
,
1000
0010
0100
0001
1000
0100
0010
0002
,
1000
0000
1003
0000
0010
0100
0010
0100
,
0010
0000
1000
0000
0100
0000
0010
0000
0001
0010
0001
0000
1000
0100
1000
0000
,
0001
0000
0100
0000
0010
0000
1000
0000
0010
1000
0010
0000
0100
0001
0100
0000
,
0001
0000
1000
0000
0100
0000
0010
0000
0001
0010
0001
0000
1000
0010
1000
0000
,
0001
0100
0001
0100
0001
0000
1000
0100
1000
0100
1000
0000
0010
0000
0100
0000
,
0001
0000
0100
0000
0001
0000
0000
0000
1000
0000
0000
0000
1000
0000
0000
0000
0001
0000
0000
0000
1000
0000
0000
0000
0200
0300
0000
0000
0200
0300
0000
0000
,
0001
0000
0000
0000
1000
0000
0000
0000
0020
0030
0000
0000
0020
0030
0000
0000
0001
0000
0000
0000
1000
0000
0000
0000
0001
0000
0010
0000
0001
0000
0000
0000
,
1000
0000
0000
0000
0001
0000
0000
0000
0020
0030
0000
0000
0020
0030
0000
0000
1000
0000
0000
0000
0001
0000
0000
0000
0200
0300
0000
0000
0200
0300
0000
0000
,
1000
0001
1000
0010
1000
0001
0010
0001
,
1000
0000
0100
0000
1000
0000
0000
0000
0001
0000
0000
0000
0001
0000
0000
0000
1000
0000
0000
0000
0001
0000
0000
0000
0200
0300
0000
0000
0200
0300
0000
0000
,
1000
0000
0000
0000
0001
0000
0000
0000
0020
0030
0000
0000
0020
0030
0000
0000
1000
0000
0000
0000
0001
0000
0000
0000
1000
0000
0010
0000
1000
0000
0000
0000
,
0001
0000
0000
0000
1000
0000
0000
0000
0020
0030
0000
0000
0020
0030
0000
0000
0001
0000
0000
0000
1000
0000
0000
0000
0200
0300
0000
0000
0200
0300
0000
0000
,
0001
1000
0100
1000
0001
0100
0001
1000
;

//--------------- dance-single - Evergreen ----------------
#NOTES:
     dance-single:
     Evergreen:
     Hard:
     17:
     0,0,0,0,0:
0000
0000
0000
0000
,
0000
0000
0000
0000
,
0000
0000
0000
0000
,
0000
0000
0000
0000
,
1000
0010
1000
0010
,
0100
0001
0100
0001
,
0010
0001
0010
0001
,
1000
0100
1000
0100
,
1000
0010
1000
0000
0001
0010
0001
0000
,
1000
0100
1000
0000
0001
0100
0001
0000
,
1000
0010
0100
0000
0001
0010
0100
0000
,
1000
0001
0010
0000
0001
1000
0010
1000
,
0004
0000
0000
0000
,
4003
0000
0000
0000
,
3004
0000
0000
0000
,
4003
3000
0000
0000
0400
0300
0000
0000
0004
0003
0000
0000
0040
0030
4000
3000
,
0100
0000
1000
0000
0001
0100
0001
0000
1000
0000
0001
0000
1000
0100
1000
0000
,
0001
0000
0100
0000
0001
1000
0001
0000
0010
0000
0001
0000
1000
0001
1000
0000
,
0010
0000
1000
0000
0001
0010
0001
0000
0010
0000
0001
0000
1000
0010
1000
0000
,
0001
0000
1000
0000
0010
0100
0010
0000
1000
0000
0001
0000
0010
0100
0010
0000
,
0001
0000
1000
0000
0010
1000
0010
0000
1000
0000
0100
0000
0010
0100
0010
0000
,
0100
0000
0010
0000
0001
0100
0001
0000
1000
0000
0010
0000
0100
0010
0100
0000
,
0001
0000
0100
0000
0001
0010
0001
0000
1000
0000
0100
0000
1000
0010
1000
0000
,
0004
0003
0000
0000
0040
0030
0000
0000
4000
3000
0400
0300
0004
0003
0400
0300
,
0001
0000
0000
0000
1000
0000
0000
0000
0200
0300
0000
0000
0200
0300
0000
0000
0001
0000
0000
0000
1000
0000
0000
0000
0200
0300
0000
0000
0200
0300
0000
0000
,
0001
0100
0001
0000
1000
0000
0001
0000
1000
0100
1000
0000
0001
0000
1000
0000
,
0001
0000
0000
0000
1000
0000
0000
0000
0020
0030
0000
0000
0020
0030
0000
0000
0001
0000
0000
0000
1000
0000
0000
0000
0020
0030
0000
0000
0020
0030
0000
0000
,
0001
0010
0001
0000
1000
0010
1000
0000
0001
0000
0100
0000
0010
0000
1000
0000
,
0001
0000
0000
0000
1000
0000
0000
0000
0200
0300
0000
0000
0200
0300
0000
0000
0001
0000
0000
0000
1000
0000
0000
0000
0200
0300
0000
0000
0200
0300
0000
0000
,
0001
0010
0001
0000
1000
0000
0010
0000
1000
0000
0001
0000
1000
0100
1000
0000
,
0001
0000
0000
0000
1000
0000
0000
0000
0020
0030
0000
0000
0020
0030
0000
0000
0001
0000
0000
0000
1000
0000
0000
0000
0020
0030
0000
0000
0020
0030
0000
0000
,
0004
0003
0000
0000
0400
0300
0000
0000
4000
3000
0040
0030
0004
0003
0040
0030
,
0004
0003
0010
0001
1000
0000
0010
1000
0000
1000
0010
0000
0100
0001
0100
0001
,
1000
0000
0100
0010
0001
0000
0010
0001
0000
0001
0010
0000
0001
1000
0010
0100
,
0001
0000
1000
0010
1000
0000
0001
0100
0000
0100
0001
0000
1000
0100
0010
0001
,
0010
0000
0001
0100
0001
0000
1000
0010
1000
0001
0100
0000
0001
0010
0001
0010
,
0100
0000
0000
0000
1000
0000
0000
0000
0001
0000
0000
0000
1000
0000
0020
0030
0000
0000
0020
0030
0001
0000
0000
0000
0010
0000
0001
0000
0010
0000
0100
0000
,
1000
0000
0000
0000
0001
0000
1000
0000
0001
0000
0000
0000
1000
0000
0200
0300
0000
0000
0200
0300
0001
0000
0000
0000
0100
0000
0000
0000
0010
0000
0000
0000
,
1000
0000
0001
0000
1000
0000
0000
0000
0001
0000
0000
0000
1000
0000
0020
0030
0000
0000
0020
0030
0001
0000
0000
0000
1000
0000
0100
0000
0010
0000
0100
0000
,
1000
0010
0100
0001
1000
1000
0001
0001
,
0010
0000
0000
0000
0100
0000
0000
0000
1000
0000
0001
0000
0200
0300
0200
0300
1000
0000
0000
0000
0001
0000
0100
0000
0001
0000
0000
0000
1000
0000
0000
0000
,
0010
0000
0000
0000
0100
0000
0000
0000
0001
0000
1000
0000
0200
0300
0200
0300
0001
0000
0000
0000
1000
0000
0100
0000
1000
0000
0000
0000
0001
0000
0000
0000
,
0100
0000
0000
0000
0001
0000
0000
0000
1000
0000
0001
0000
0020
0030
0020
0030
1000
0000
0000
0000
0001
0000
0010
0000
0001
0000
0000
0000
1000
0000
0000
0000
,
0010
0000
0000
0000
0100
0000
0000
0000
0001
0000
1000
0000
0020
0030
0020
0030
0001
0000
0010
0000
0001
0000
0000
0000
1000
0000
0010
0000
1000
0000
0000
0000
,
0001
0000
1000
0000
0200
0300
0200
0300
0001
0000
0000
0000
1000
0000
0000
0000
0001
0000
1000
0000
0020
0030
0020
0030
0001
0000
0000
0000
1000
0000
0100
0000
,
1000
0000
0001
0000
0200
0300
0200
0300
1000
0000
0000
0000
0001
0000
0000
0000
1000
0000
0001
0000
0020
0030
0020
0030
1000
0000
0001
0000
0010
0000
0100
0000
,
1000
0000
0000
0000
0001
0000
0000
0000
1000
0000
0001
0000
1000
0000
0000
0000
0001
0000
1000
0000
0200
0300
0200
0300
0001
0000
1000
0000
0020
0030
0020
0030
,
0001
0000
1000
0000
0010
0010
0100
0100
,
0001
0000
0010
0000
0100
0000
0010
0000
0001
0000
0000
0000
1000
0000
0000
0000
0001
0000
0020
0030
0020
0030
0000
0000
1000
0000
0020
0030
0020
0030
0001
0000
,
1000
0000
0010
0000
0100
0000
0010
0000
1000
0000
0000
0000
0001
0000
0000
0000
1000
0000
0200
0300
0200
0300
0000
0000
0001
0000
0200
0300
0200
0300
1000
0000
,
0001
0000
1000
0000
0100
0000
0010
0000
0001
0000
0000
0000
1000
0000
0000
0000
0001
0000
1000
0000
0020
0030
0020
0030
0001
0000
1000
0000
0020
0030
0020
0030
,
0001
0000
1000
0100
1000
0000
0001
0000
M100
M000
M010
M000
M001
M000
M010
0000
,
0100
0000
0000
0000
0001
0000
0100
0000
0001
0000
1000
0000
0100
0000
0000
0000
1000
0000
0200
0300
0200
0300
0000
0000
0001
0000
0200
0300
0200
0300
1000
0000
,
0100
0000
0010
0000
0001
0000
0010
0000
0100
0000
0000
0000
1000
0000
0000
0000
0001
0000
0200
0300
0200
0300
0000
0000
1000
0000
0200
0300
0200
0300
0001
0000
,
1000
0000
0010
0000
0100
0000
0010
0000
1000
0000
0000
0000
0001
0000
0000
0000
1000
0000
0200
0300
0200
0300
0000
0000
0001
0000
0200
0300
0200
0300
1000
0000
,
0001
0000
0100
0000
0001
0000
1000
0000
0100
0000
1000
0000
0001
0000
0000
0000
0001
0000
1000
0000
0200
0300
0200
0300
0001
0000
1000
0000
0200
0300
0200
0300
,
0001
0000
1000
0001
0000
1000
0100
0000
1000
0000
0001
1000
0000
0001
0100
0000
,
0010
0000
1000
0010
0000
1000
0001
0000
0010
0000
0001
0010
0000
0100
1000
0000
,
0100
0000
1000
0100
0000
0010
0001
0000
0100
0000
0001
0100
0000
0010
0100
0000
,
0010
0000
1000
0010
0000
1000
0100
0000
0010
0000
0001
0010
0000
0100
1000
0000
,
0001
0100
0010
1000
0001
0010
0100
1000
0001
0100
0010
1000
0010
1000
0100
0010
,
0001
0100
0010
1000
0001
0010
0100
1000
0010
1000
0100
0010
0001
0100
0010
1000
,
0001
0100
0010
0100
0001
0010
0100
1000
0001
0100
0001
1000
0100
0010
0001
1000
,
0004
0003
0000
0000
0040
0030
0000
0000
4000
3000
0000
0000
0400
0300
0000
0000
,
0001
0000
0000
0000
0010
0000
0000
0000
0200
0300
0000
0000
0200
0300
0000
0000
0001
0000
0000
0000
1000
0000
0000
0000
0200
0300
0000
0000
0200
0300
0000
0000
,
0001
0000
0000
0000
0100
0000
0000
0000
0020
0030
0000
0000
0020
0030
0000
0000
0100
0000
0000
0000
1000
0000
0000
0000
0001
0000
0000
0000
0010
0000
0001
0000
,
0010
0000
0000
0000
0100
0000
0000
0000
1000
0000
0000
0000
0020
0030
0000
0000
0020
0030
0000
0000
0001
0000
0000
0000
1000
0000
0000
0000
0020
0030
0000
0000
,
0020
0030
0000
0000
0001
0000
0000
0000
0010
0000
0000
0000
0200
0300
0000
0000
0200
0300
0000
0000
0010
0000
0000
0000
1000
0000
0000
0000
0001
0000
0100
0000
,
0001
0000
0000
0000
1000
0000
0000
0000
0001
0000
0000
0000
0001
0000
0000
0000
0200
0300
0000
0000
0200
0300
0000
0000
1000
0000
0000
0000
0001
0000
0000
0000
,
1000
0000
0000
0000
0200
0300
0000
0000
0200
0300
0000
0000
0001
0000
0000
0000
0010
0000
0000
0000
0001
0000
0000
0000
0001
0000
0000
0000
1000
0000
0100
0000
,
1000
0001
0100
0010
1000
0100
0010
0001
,
4000
3000
0000
0000
0040
0030
0000
0000
0004
0003
0000
0000
0400
0300
4000
3000
,
0100
0000
0000
0000
1000
0000
0001
0000
1000
0000
0000
0000
0001
0000
1000
0000
0020
0030
0020
0030
0001
0000
1000
0000
0100
0000
0010
0000
0001
0000
1000
0000
,
0020
0030
0000
0000
0020
0030
0001
0000
1000
0000
0000
0000
0001
0000
1000
0000
0020
0030
0020
0030
0001
0000
1000
0000
0020
0030
0020
0030
0001
0000
1000
0000
,
0200
0300
0000
0000
0200
0300
0001
0000
1000
0000
0000
0000
0001
0000
1000
0000
0020
0030
0020
0030
0001
0000
1000
0000
0020
0030
0020
0030
0001
0000
1000
0000
,
0001
1000
0100
0010
0001
0001
1000
1000
,
0010
0000
0100
0000
0001
0000
1000
0000
0100
0000
0000
0000
0010
0000
0001
0000
0200
0300
0200
0300
0010
0000
0001
0000
0200
0300
0200
0300
0010
0000
0001
0000
,
1000
0000
0010
0000
0100
0000
0001
0000
1000
0000
0000
0000
0010
0000
1000
0000
0200
0300
0200
0300
0010
0000
1000
0000
0200
0300
0200
0300
0010
0000
1000
0000
,
0001
0000
0010
0000
0100
0000
1000
0000
0100
0000
0000
0000
1000
0000
0001
0000
0020
0030
0020
0030
1000
0000
0001
0000
0020
0030
0020
0030
1000
0000
0001
0000
,
0200
0300
0200
0300
1000
0000
0001
0000
0020
0030
0000
0000
0020
0030
1000
0000
0001
0000
0020
0030
0020
0030
1000
0000
0001
0000
0000
0000
0100
0000
0000
0000
,
0001
0100
0001
0000
1000
0000
0001
0000
1000
0100
1000
0000
0001
0000
0100
0000
,
0001
1000
0001
0000
0010
0000
0001
0000
1000
0001
1000
0000
0001
0000
0100
0000
,
0010
1000
0010
0000
0100
0000
0001
0000
0010
0001
0010
0000
0100
0000
1000
0000
,
0010
0100
0010
0000
1000
0000
0001
0000
0010
0100
0010
0000
0001
0000
1000
0000
,
0100
0010
0001
0000
1000
0000
0001
0000
0100
0010
1000
0000
0001
0000
0100
0000
,
0001
0100
0001
0000
1000
0000
0100
0000
1000
0100
1000
0000
0001
0000
0010
0000
,
0001
0010
0001
0000
1000
0000
0010
0000
1000
0010
1000
0000
0100
0000
0010
0000
,
0001
1000
0100
1000
0001
0100
0001
1000
;

//--------------- dance-single - Evergreen curses you with stamina ----------------
#NOTES:
     dance-single:
     Evergreen curses you with stamina:
     Challenge:
     18:
     0,0,0,0,0:
0000
0000
0000
0000
,
0000
0000
0000
0000
,
0000
0000
0000
0000
,
0000
0000
0000
0000
,
1000
0010
1000
0010
,
0100
0001
0100
0001
,
0010
0001
0010
0001
,
1000
0100
1000
0100
,
1000
0010
1000
0000
0001
0010
0001
0000
,
1000
0100
1000
0000
0001
0100
0001
0000
,
1000
0010
0100
0000
0001
0010
0100
0000
,
1000
0001
0010
0000
0001
1000
0010
1000
,
0004
0000
0000
0000
,
4003
0000
0000
0000
,
3004
0000
0000
0000
,
4003
3000
0000
0000
0400
0300
0000
0000
0004
0003
0000
0000
0040
0030
4000
3000
,
0010
1000
0100
1000
0010
0100
0001
0010
0001
0100
0010
1000
0100
1000
0001
0100
,
0001
0010
0100
1000
0010
0100
0001
0010
0001
1000
0001
0100
0010
1000
0100
1000
,
0001
0010
0001
0100
0010
1000
0001
0010
0001
1000
0100
1000
0010
0100
0001
0010
,
0001
0100
0010
1000
0100
1000
0001
0100
0010
0100
0001
1000
0100
0010
0100
1000
,
0010
0100
0001
0010
0001
0100
0010
1000
0100
1000
0010
0100
0001
0010
0001
0100
,
0001
1000
0010
1000
0100
0010
0001
0100
0001
1000
0010
0100
0001
0010
0100
0010
,
0001
1000
0100
0010
0100
1000
0001
0100
0010
0100
0001
1000
0100
0010
0001
1000
,
0004
0003
0000
0000
0040
0030
0000
0000
4000
3000
0400
0300
0004
0003
0400
0300
,
0001
0100
0001
0100
0010
1000
0100
0010
0001
0010
0001
0010
0100
1000
0001
0100
,
0010
1000
0010
1000
0001
0100
0010
1000
0100
1000
0100
1000
0001
0010
0001
1000
,
0010
1000
0010
1000
0001
0010
0001
1000
0100
1000
0100
1000
0001
0100
0010
1000
,
0001
0010
0001
0010
0100
1000
0010
1000
0001
0100
0001
0100
0010
1000
0001
0010
,
0100
1000
0001
0100
0010
1000
0010
0100
0001
0100
0001
0100
0010
1000
0010
1000
,
0001
0010
0100
1000
0001
0100
0010
1000
0100
1000
0100
1000
0001
0010
0001
0010
,
0001
1000
0010
0100
0001
0010
0100
0010
0001
1000
0010
0100
0010
1000
0001
1000
,
0004
0003
0000
0000
0400
0300
0000
0000
4000
3000
0040
0030
0004
0003
0040
0030
,
0004
0000
0003
0000
1000
0000
0010
0000
1000
0000
0000
0000
0001
0000
1000
0000
0020
0030
0020
0030
0001
0000
1000
0000
0010
0000
0000
0000
0100
0000
0001
0000
,
0100
0000
0000
0000
0010
0000
1000
0000
0010
0000
0000
0000
1000
0000
0001
0000
0020
0030
0020
0030
1000
0000
0001
0000
0010
0000
0000
0000
0100
0000
0000
0000
,
1000
0000
0000
0000
0001
0000
0010
0000
0001
0000
0000
0000
1000
0000
0001
0000
0200
0300
0200
0300
1000
0000
0001
0000
0100
0000
0000
0000
0001
0000
0100
0000
,
0001
0000
0000
0000
1000
0000
0100
0000
1000
0000
0000
0000
0001
0000
1000
0000
0200
0300
0200
0300
0001
0000
1000
0000
0200
0300
0200
0300
0001
0000
1000
0000
,
0001
0000
0010
0000
0100
0000
1000
0100
1000
0100
1000
0001
0100
0000
0010
0000
,
1000
0000
0010
0000
0100
0000
0001
0100
0001
0100
0001
1000
0100
0000
1000
0000
,
0001
0000
0010
0001
0010
0000
0001
0000
1000
0000
0010
1000
0010
0000
1000
0000
,
0001
0010
0100
1000
0001
0001
1000
1000
,
0001
0000
0000
0000
0100
0000
0001
0000
1000
0000
0000
0000
0100
0000
1000
0000
0001
0000
0000
0000
0100
0000
0001
0000
1000
0000
0020
0030
0020
0030
0001
0000
,
1000
0000
0000
0000
0001
0000
0100
0000
0001
0000
0000
0000
1000
0000
0100
0000
1000
0000
0000
0000
0001
0000
1000
0000
0020
0030
0020
0030
0001
0000
1000
0000
,
0001
0000
0000
0000
1000
0000
0001
0000
0010
0000
0000
0000
0001
0000
1000
0000
0010
0000
0000
0000
1000
0000
0001
0000
0200
0300
0200
0300
1000
0000
0001
0000
,
1000
0000
0000
0000
0001
0000
0010
0000
0100
0000
0000
0000
1000
0000
0010
0000
0100
0000
0000
0000
0001
0000
1000
0000
0200
0300
0200
0300
0001
0000
1000
0000
,
0010
0000
1000
0000
0100
0000
1000
0000
0001
0000
0010
0000
0001
0000
1000
0000
0100
0000
1000
0000
0001
0000
0020
0030
0020
0030
1000
0000
0001
0000
1000
0000
,
0001
0000
0100
0000
0010
0000
1000
0000
0001
0000
0100
0000
0001
0000
1000
0000
0010
0000
1000
0000
0001
0000
0020
0030
0020
0030
1000
0000
0001
0000
0100
0000
,
0001
0000
1000
0000
0020
0030
0020
0030
0001
0000
1000
0000
0001
0000
1000
0000
0020
0030
0020
0030
0001
0000
1000
0000
0001
0000
0010
0000
0100
0000
1000
0000
,
0001
0100
0010
1000
0001
0001
1000
1000
,
0001
0010
0100
1000
0010
1000
0001
0100
0001
0010
0100
0010
0001
1000
0100
1000
,
0001
0100
0010
1000
0001
1000
0001
0010
0001
1000
0100
1000
0001
0100
0001
1000
,
0010
1000
0001
0010
0001
1000
0010
1000
0100
0010
0001
0010
0100
1000
0100
0010
,
0001
1000
0010
0100
0001
1000
0010
1000
010M
001M
010M
100M
001M
010M
001M
1000
,
0001
0010
0001
1000
0100
1000
0001
0100
0010
1000
0010
0100
0001
0010
0100
1000
,
0010
1000
0010
0100
0001
1000
0100
0010
0001
0010
0100
1000
0010
1000
0001
0100
,
0001
1000
0010
1000
0001
0010
0100
1000
0001
1000
0100
0010
0001
1000
0010
0100
,
0001
0100
0001
0010
0100
1000
0100
0010
M001
M100
M010
M100
M001
M010
M100
M010
,
0001
0000
1000
0001
0000
1000
0100
0000
1000
0000
0001
1000
0000
0001
0100
0000
,
0010
0000
1000
0010
0000
1000
0001
0000
0010
0000
0001
0010
0000
0100
1000
0000
,
0100
0000
1000
0100
0000
0010
0001
0000
0100
0000
0001
0100
0000
0010
0100
0000
,
0010
0000
1000
0010
0000
1000
0100
0000
0010
0000
0001
0010
0000
0100
1000
0000
,
0001
0100
0010
1000
0001
0010
0100
1000
0001
0100
0010
1000
0001
0010
0100
0010
,
0001
0100
0010
1000
0001
0010
0100
1000
0010
0100
0010
1000
0001
0100
0010
1000
,
0001
0010
0100
0010
0001
0010
0100
1000
0001
0100
0001
1000
0100
0010
0001
1000
,
0004
0003
0000
0000
0040
0030
0000
0000
4000
3000
0000
0000
0400
0300
0000
0000
,
0001
0000
0000
0000
0010
0000
0000
0000
0200
0300
0000
0000
0200
0300
0000
0000
0001
0000
0000
0000
1000
0000
0000
0000
0200
0300
0000
0000
0200
0300
0000
0000
,
0001
0000
0000
0000
0100
0000
0000
0000
0020
0030
0000
0000
0020
0030
0000
0000
0100
0000
0000
0000
1000
0000
0000
0000
0001
0000
0000
0000
0010
0000
0001
0000
,
0010
0000
0000
0000
0100
0000
0000
0000
1000
0000
0000
0000
0020
0030
0000
0000
0020
0030
0000
0000
0001
0000
0000
0000
1000
0000
0000
0000
0020
0030
0000
0000
,
0020
0030
0000
0000
0001
0000
0000
0000
0010
0000
0000
0000
0200
0300
0000
0000
0200
0300
0000
0000
0010
0000
0000
0000
1000
0000
0000
0000
0001
0000
0100
0000
,
0001
0000
0000
0000
1000
0000
0000
0000
0001
0000
0000
0000
0001
0000
0000
0000
0200
0300
0000
0000
0200
0300
0000
0000
1000
0000
0000
0000
0001
0000
0000
0000
,
1000
0000
0000
0000
0200
0300
0000
0000
0200
0300
0000
0000
0001
0000
0000
0000
0010
0000
0000
0000
0001
0000
0000
0000
0001
0000
0000
0000
1000
0000
0100
0000
,
1000
0001
0100
0010
1000
0100
0010
0001
,
4000
3000
0000
0000
0040
0030
0000
0000
0004
0003
0000
0000
0400
0300
4000
3000
,
0100
0000
1000
0000
0100
0000
1000
0000
0001
0000
0010
0000
0100
0000
1000
0000
0001
0000
1000
0000
0020
0030
0020
0030
0001
0000
1000
0000
0200
0300
0200
0300
,
0001
0000
0010
0000
0001
0000
1000
0000
0010
0000
1000
0000
0001
0000
0100
0000
0001
0000
1000
0000
0200
0300
0200
0300
0001
0000
1000
0000
0020
0030
0020
0030
,
0001
0000
0100
0000
0010
0000
1000
0000
0100
0000
0010
0000
0001
0000
0100
0000
0001
0000
1000
0000
0020
0030
0020
0030
0001
0000
1000
0000
0200
0300
0200
0300
,
0001
0000
0100
0000
0001
0000
1000
0000
0100
0000
1000
0000
0001
0000
0010
0000
0001
0000
1000
0000
0200
0300
0200
0300
0001
0000
1000
0000
0200
0300
0200
0300
,
0001
0000
1000
0000
0020
0030
0020
0030
0020
0030
1000
0000
0100
0000
0010
0000
0001
0000
0010
0000
0200
0300
0200
0300
0001
0000
0010
0000
0200
0300
0200
0300
,
0001
0000
1000
0000
0200
0300
0200
0300
0200
0300
1000
0000
0010
0000
0100
0000
0001
0000
0100
0000
0020
0030
0020
0030
0001
0000
0100
0000
0020
0030
0020
0030
,
0001
0000
0100
0000
0010
0000
1000
0000
0020
0030
0020
0030
0020
0030
1000
0000
0200
0300
0200
0300
0020
0030
0020
0030
0200
0300
0200
0300
0020
0030
0020
0030
,
0001
0000
0000
0000
0010
0000
0100
0000
1000
0000
0000
0000
0010
0000
0100
0000
0001
0000
1000
0000
0200
0300
0200
0300
0001
0000
1000
0000
0100
0000
1000
0000
,
0001
0100
0010
1000
0100
0010
0001
0100
0001
0010
0100
1000
0010
1000
0001
0010
,
0001
0100
0010
1000
0001
1000
0100
0010
0100
1000
0001
0010
0100
1000
0001
0100
,
0010
0100
0001
0010
0100
1000
0001
0100
0001
1000
0010
0100
0001
0010
0100
1000
,
0001
1000
0001
0100
0010
1000
0001
0010
0100
0010
0001
1000
0010
0100
0010
1000
,
0001
1000
0010
0100
0001
0010
0100
1000
0100
0010
0001
0100
0010
1000
0001
0100
,
0001
0010
0100
1000
0010
0100
0001
0010
0001
1000
0100
0010
0001
0100
0010
0100
,
0001
1000
0010
0100
0010
1000
0001
0010
0100
0010
0001
1000
0010
1000
0001
0100
,
0001
1000
0100
1000
0001
0100
0001
1000
;

//--------------- dance-single - Evergreen pits you against the flying shoe in the video ----------------
#NOTES:
     dance-single:
     Evergreen pits you against the flying shoe in the video:
     Edit:
     18:
     0,0,0,0,0:
0000
0000
0000
0000
,
0000
0000
0000
0000
,
0000
0000
0000
0000
,
0000
0000
0000
0000
,
1000
0010
1000
0010
,
0100
0001
0100
0001
,
0010
0001
0010
0001
,
1000
0100
1000
0100
,
1000
0010
1000
0000
0001
0010
0001
0000
,
1000
0100
1000
0000
0001
0100
0001
0000
,
1000
0010
0100
0000
0001
0010
0100
0000
,
1000
0001
0010
0000
0001
1000
0010
1000
,
0002
0000
0000
0000
,
2003
0000
0000
0000
,
3002
0000
0000
0000
,
2003
3000
0000
0000
0200
0300
0000
0000
0002
0003
0000
0000
0020
0030
2000
3000
,
0001
0010
0100
1000
0010
0100
0001
0010
0001
0100
0010
1000
0100
1000
0001
0100
,
0001
0010
0100
1000
0001
1000
0010
0100
0010
1000
0001
0100
0010
1000
0001
0010
,
0100
0010
0001
0100
0010
1000
0001
0010
0001
1000
0100
0010
0001
0100
0010
1000
,
0001
0100
0001
0010
0100
1000
0001
0100
0010
0100
0001
1000
0100
0010
0100
1000
,
0001
1000
0100
0010
0001
0100
0010
1000
0010
0100
0001
0010
0100
1000
0001
0010
,
0001
0100
0010
1000
0100
0010
0001
0100
0001
1000
0010
0100
0001
0010
0100
0010
,
0001
1000
0100
0010
0100
1000
0001
0100
0010
0100
0001
1000
0100
0010
0001
1000
,
0001
0000
0010
0000
1000
0100
0001
0100
,
0001
0100
0001
1000
0010
1000
0100
0010
0001
1000
0001
0010
0100
1000
0001
0100
,
0010
1000
0001
0100
0001
1000
0010
1000
0001
0010
0100
1000
0001
0010
0001
1000
,
0010
0100
0010
1000
0001
0010
0001
1000
0100
0010
0100
1000
0001
0100
0010
1000
,
0001
0010
0001
1000
0100
1000
0010
1000
0001
0010
0001
0100
0010
1000
0001
0010
,
0100
1000
0001
0100
0010
1000
0010
0100
0001
1000
0001
0100
0010
1000
0010
0100
,
0001
0010
0100
1000
0001
0100
0010
1000
0001
0010
0100
1000
0010
1000
0001
0010
,
0100
1000
0010
0100
0001
0010
0100
0010
0001
1000
0010
0100
0010
1000
0001
1000
,
0001
0000
1000
0000
0001
1000
0001
1000
,
0001
0010
0100
1000
0001
0010
0001
0100
0010
0100
0001
0010
0001
1000
0100
0010
,
0100
1000
0001
0100
0010
0100
0001
1000
0100
0010
0001
1000
0010
0100
0001
1000
,
0001
0010
0100
0010
0001
1000
0010
0100
0001
0010
0001
1000
0010
1000
0001
0100
,
0010
1000
0010
0100
0001
1000
0100
0010
0001
0010
0100
1000
0001
1000
0010
0100
,
0001
0100
0010
1000
0001
0100
0001
0010
0100
0010
0001
0100
0001
1000
0010
0100
,
0010
1000
0001
0010
0100
0010
0001
1000
0010
0100
0001
1000
0100
0010
0001
1000
,
0001
0100
0010
0100
0001
1000
0100
0010
0001
0100
0001
1000
0100
1000
0001
0010
,
0100
1000
0100
0010
0001
1000
0010
0100
0001
0000
1000
0000
0001
0000
1000
0000
,
0001
1000
0100
0010
0100
1000
0001
0100
0010
1000
0001
0010
0100
1000
0010
0100
,
0001
1000
0100
0010
0001
1000
0010
0100
0001
1000
0100
1000
0010
0100
0001
0010
,
0001
0100
0010
0100
0001
1000
0100
0010
0001
0100
0001
0010
0100
1000
0010
0100
,
0001
1000
0010
0100
0001
0010
0100
0010
0001
1000
0010
0100
0001
1000
0100
1000
,
0001
0100
0010
1000
0100
1000
0001
0100
0010
1000
0100
0010
0001
1000
0010
0100
,
0001
0100
0010
1000
0100
0010
0100
1000
0010
0100
0001
1000
0100
0010
0001
0010
,
0100
1000
0010
0100
0001
1000
0100
1000
0010
0100
0001
0100
0010
1000
0001
1000
,
0001
0000
1000
0000
0001
1000
0001
1000
,
0001
0100
0010
1000
0100
1000
0001
0010
0001
0100
0010
0100
0001
1000
0010
1000
,
0001
0010
0100
1000
0001
1000
0010
0100
0001
1000
0010
1000
0001
0010
0001
1000
,
0100
1000
0001
0100
0001
1000
0100
1000
0010
0100
0001
1000
0100
0010
0001
0100
,
0001
1000
0010
0100
0001
1000
0100
1000
0010
0100
0010
1000
0100
0010
0100
1000
,
0001
0100
0001
1000
0010
1000
0001
0010
0100
1000
0100
0010
0001
0100
0010
1000
,
0100
0010
0001
1000
0001
0100
0010
1000
0001
0010
0100
1000
0100
0010
0001
1000
,
0001
0010
0100
1000
0001
0100
0010
1000
0001
1000
0010
0100
0001
1000
0100
0010
,
0001
1000
0010
0100
0001
1000
0100
1000
0001
0010
0100
0010
0001
0100
0010
0100
,
0001
0010
0100
1000
0010
1000
0001
0100
0001
0010
0100
0010
0001
1000
0100
1000
,
0001
0100
0010
1000
0001
1000
0100
0010
0001
1000
0100
1000
0001
0100
0001
1000
,
0010
1000
0001
0010
0001
1000
0010
1000
0100
0010
0001
1000
0010
0100
0001
0010
,
0001
0100
0010
0100
0001
1000
0010
1000
0100
0010
0001
1000
0010
0100
0010
1000
,
0001
0100
0010
1000
0001
0010
0100
1000
0001
0100
0010
1000
0001
1000
0100
0010
,
0001
0100
0010
1000
0001
0010
0100
1000
0010
1000
0100
0010
0001
0100
0010
1000
,
0001
0100
0010
0100
0001
0010
0100
1000
0001
0100
0001
1000
0100
0010
0001
1000
,
0002
0003
0000
0000
0020
0030
0000
0000
2000
3000
0000
0000
0200
0300
0000
0000
,
0001
0010
0001
1000
0100
1000
0010
0100
0001
1000
0001
0100
0010
1000
0001
0010
,
0100
1000
0001
0010
0001
1000
0100
1000
0001
0100
0010
1000
0001
0100
0001
1000
,
0100
0010
0100
1000
0001
0100
0001
1000
0010
0100
0010
1000
0001
0010
0100
1000
,
0001
0100
0001
1000
0010
1000
0100
1000
0001
0100
0001
0010
0100
1000
0001
0100
,
0010
1000
0001
0010
0100
1000
0100
0010
0001
1000
0001
0010
0100
1000
0100
0010
,
0001
0100
0010
1000
0001
0010
0100
1000
0001
0100
0010
1000
0100
1000
0001
0100
,
0010
1000
0100
0010
0001
0100
0010
0100
0001
1000
0100
0010
0100
1000
0001
1000
,
0002
0003
0000
0000
0020
0030
0000
0000
2000
3000
0000
0000
0200
0300
0002
0003
,
1000
0100
0010
0001
1000
0010
0100
0001
1000
0001
0100
0010
1000
0001
0010
0100
,
1000
0010
1000
0001
0010
0001
1000
0100
1000
0001
0100
0010
1000
0001
0010
0100
,
1000
0100
0010
0001
0100
0010
1000
0100
1000
0001
0100
0010
1000
0001
0010
0100
,
1000
0010
1000
0001
0100
0001
1000
0010
1000
0001
0100
0010
1000
0001
0010
0100
,
1000
0001
0100
0010
1000
0010
0100
0001
1000
0100
0010
0001
1000
0100
0010
0100
,
1000
0001
0100
0001
1000
0001
0010
0100
1000
0010
0100
0010
1000
0001
1000
0100
,
0010
0001
0010
0100
1000
0010
1000
0001
0100
0001
0010
0100
0010
0001
1000
0010
,
1000
0000
0010
0100
0001
0000
0010
0100
1000
0001
1000
0001
0100
0000
0010
0000
,
1000
0010
0100
0001
0010
0100
1000
0010
1000
0100
0010
0001
0100
0001
1000
0100
,
1000
0010
0100
0001
1000
0001
0010
0100
0010
0001
1000
0100
0010
0001
1000
0010
,
0100
0010
1000
0100
0010
0001
1000
0010
1000
0001
0100
0010
1000
0100
0010
0001
,
1000
0100
1000
0010
0100
0001
1000
0100
0010
0100
1000
0001
0100
0010
0100
0001
,
1000
0001
0100
0010
1000
0100
0010
0001
0010
0100
1000
0010
0100
0001
1000
0010
,
1000
0100
0010
0001
0100
0010
1000
0100
1000
0001
0010
0100
1000
0010
0100
0010
,
1000
0001
0100
0010
0100
0001
1000
0100
0010
0100
1000
0001
0100
0001
1000
0010
,
1000
0001
0010
0001
1000
0010
1000
0001
;
