#VERSION:0.83;
#TITLE:ひとりぼっちの魔王;
#SUBTITLE:(The Lonely Demon King);
#ARTIST:Verdammt;
#TITLETRANSLIT:Hitoribocchi no maou;
#SUBTITLETRANSLIT:;
#ARTISTTRANSLIT:;
#GENRE:;
#ORIGIN:;
#CREDIT:;
#BANNER:bn.png;
#BACKGROUND:bg.png;
#PREVIEWVID:;
#JACKET:jkt.png;
#CDIMAGE:;
#DISCIMAGE:;
#LYRICSPATH:;
#CDTITLE:;
#MUSIC:audio.ogg;
#OFFSET:-0.027000;
#SAMPLESTART:81.982002;
#SAMPLELENGTH:12.000000;
#SELECTABLE:YES;
#BPMS:0.000=112.000;
#STOPS:;
#DELAYS:;
#WARPS:;
#TIMESIGNATURES:0.000=3=4,
54.000=4=4,
58.000=3=4,
136.000=5=4,
141.000=3=4;
#TICKCOUNTS:0.000=4;
#COMBOS:0.000=1;
#SPEEDS:0.000=1.000=0.000=0;
#SCROLLS:0.000=1.000;
#FAKES:;
#LABELS:0.000=Song Start;
#BGCHANGES:;
#FGCHANGES:0.000=lua=1.000=0=0=1=====,
;
#KEYSOUNDS:;
#ATTACKS:
;

//---------------dance-single - TaroNuke----------------
#NOTEDATA:;
#CHARTNAME:TaroNuke;
#STEPSTYPE:dance-single;
#DESCRIPTION:TaroNuke;
#CHARTSTYLE:;
#DIFFICULTY:Beginner;
#METER:3;
#RADARVALUES:0.108130,0.159815,0.065818,0.205682,0.000000,92.000000,84.000000,8.000000,25.000000,0.000000,0.000000,0.000000,0.000000,0.000000,0.108130,0.159815,0.065818,0.205682,0.000000,92.000000,84.000000,8.000000,25.000000,0.000000,0.000000,0.000000,0.000000,0.000000;
#CREDIT:TaroNuke;
#OFFSET:-0.027000;
#BPMS:0.000000=112.000000
;
#STOPS:;
#DELAYS:;
#WARPS:;
#TIMESIGNATURES:0.000000=3=4
,54.000000=4=4
,58.000000=3=4
,136.000000=5=4
,141.000000=3=4
;
#TICKCOUNTS:0.000000=4
;
#COMBOS:0.000000=1
;
#SPEEDS:0.000000=0.600000=0.000000=0
,150.000000=0.950000=0.375000=0
,150.375000=0.900000=0.375000=0
,150.750000=0.850000=0.375000=0
,151.125000=0.800000=0.375000=0
,151.500000=0.750000=0.375000=0
,151.875000=0.700000=0.375000=0
,152.250000=0.650000=0.375000=0
,152.625000=0.600000=0.375000=0
,171.000000=0.625000=0.500000=0
,171.500000=0.650000=0.500000=0
,172.000000=0.675000=0.500000=0
,172.500000=0.700000=0.500000=0
,173.000000=0.725000=0.500000=0
,173.500000=0.750000=0.500000=0
,174.000000=0.775000=0.500000=0
,174.500000=0.800000=0.500000=0
,175.000000=0.683974=0.250000=0
,175.250000=0.635191=0.250000=0
,175.500000=0.614680=0.250000=0
,175.750000=0.606056=0.250000=0
,176.000000=0.602430=0.250000=0
,176.250000=0.600906=0.250000=0
,176.500000=0.600265=0.250000=0
,176.750000=0.600000=0.250000=0
,187.000000=0.603125=0.250000=0
,187.250000=0.625000=0.250000=0
,187.500000=0.684375=0.250000=0
,187.750000=0.800000=0.250000=0
,188.000000=0.915625=0.250000=0
,188.250000=0.975000=0.250000=0
,188.500000=0.996875=0.250000=0
,188.750000=1.000000=0.250000=0
;
#SCROLLS:0.000000=1.000000
,198.000000=0.000000
,198.500000=1.000000
,199.000000=0.000000
,199.500000=1.000000
,200.000000=0.000000
,200.500000=1.000000
;
#FAKES:;
#LABELS:0.000000=Song Start
;
#NOTES:
0000
0000
0000
0000
,
0000
0000
0000
0000
,
0000
1000
0000
0000
,
1000
0000
0000
0001
,
0000
0000
0001
0000
,
0000
0010
0000
0000
,
0010
0000
0000
0100
,
0000
0000
0100
0000
,
0000
2000
3000
0000
,
0002
0003
0000
0200
,
0300
0000
0020
0030
,
0000
2000
0000
0000
,
3002
0000
0000
0203
,
0000
0000
0000
0300
,
0000
0000
1001
0000
,
0000
0110
0000
0000
,
1001
0000
0000
0110
,
0000
0000
0001
0000
,
0000
1000
0000
0000
,
0010
0000
0000
0200
,
0000
0000
0301
0001
,
0001
0001
0000
0000
,
1000
1000
1000
1000
,
0000
0000
0100
0100
,
0100
0100
0000
0000
,
0010
0010
0010
0010
,
0000
0000
0001
1000
,
0001
0010
0000
0000
,
1000
0001
1000
0010
,
0000
0000
1000
1000
,
0000
0001
0001
0000
,
2002
0000
0000
0000
,
0000
3003
0000
0000
,
0000
0000
0000
0000
,
0000
0000
0000
0000
,
0000
2001
0000
3000
,
0200
0000
0300
0020
,
0000
0030
0002
0000
,
0003
1000
0000
0000
,
1000
0000
0000
0010
,
0000
0000
0010
0000
,
0000
0001
0000
0000
,
0001
0000
0000
0100
,
0000
0000
0110
0000
,
0000
0002
0003
0000
,
2000
3000
0000
0020
,
0030
0000
0200
0300
,
0000
0002
0000
0000
,
2003
0000
0000
3200
,
0000
0000
0310
0010
,
0010
0002
0000
0000
,
1003
0000
0000
2000
,
0000
0000
3010
0000
,
0000
0020
0000
0000
,
0230
0000
0000
0301
,
1000
0001
1001
0000
;

//---------------dance-single - TaroNuke----------------
#NOTEDATA:;
#CHARTNAME:TaroNuke;
#STEPSTYPE:dance-single;
#DESCRIPTION:TaroNuke;
#CHARTSTYLE:;
#DIFFICULTY:Easy;
#METER:6;
#RADARVALUES:0.217435,0.274585,0.148091,0.526545,0.000000,185.000000,167.000000,18.000000,64.000000,0.000000,0.000000,0.000000,0.000000,0.000000,0.217435,0.274585,0.148091,0.526545,0.000000,185.000000,167.000000,18.000000,64.000000,0.000000,0.000000,0.000000,0.000000,0.000000;
#CREDIT:TaroNuke;
#OFFSET:-0.027000;
#BPMS:0.000000=112.000000
;
#STOPS:;
#DELAYS:;
#WARPS:;
#TIMESIGNATURES:0.000000=3=4
,54.000000=4=4
,58.000000=3=4
,136.000000=5=4
,141.000000=3=4
;
#TICKCOUNTS:0.000000=4
;
#COMBOS:0.000000=1
;
#SPEEDS:0.000000=0.600000=0.000000=0
,150.000000=0.950000=0.375000=0
,150.375000=0.900000=0.375000=0
,150.750000=0.850000=0.375000=0
,151.125000=0.800000=0.375000=0
,151.500000=0.750000=0.375000=0
,151.875000=0.700000=0.375000=0
,152.250000=0.650000=0.375000=0
,152.625000=0.600000=0.375000=0
,171.000000=0.625000=0.500000=0
,171.500000=0.650000=0.500000=0
,172.000000=0.675000=0.500000=0
,172.500000=0.700000=0.500000=0
,173.000000=0.725000=0.500000=0
,173.500000=0.750000=0.500000=0
,174.000000=0.775000=0.500000=0
,174.500000=0.800000=0.500000=0
,175.000000=0.683974=0.250000=0
,175.250000=0.635191=0.250000=0
,175.500000=0.614680=0.250000=0
,175.750000=0.606056=0.250000=0
,176.000000=0.602430=0.250000=0
,176.250000=0.600906=0.250000=0
,176.500000=0.600265=0.250000=0
,176.750000=0.600000=0.250000=0
,187.000000=0.603125=0.250000=0
,187.250000=0.625000=0.250000=0
,187.500000=0.684375=0.250000=0
,187.750000=0.800000=0.250000=0
,188.000000=0.915625=0.250000=0
,188.250000=0.975000=0.250000=0
,188.500000=0.996875=0.250000=0
,188.750000=1.000000=0.250000=0
;
#SCROLLS:0.000000=1.000000
,198.000000=0.000000
,198.500000=1.000000
,199.000000=0.000000
,199.500000=1.000000
,200.000000=0.000000
,200.500000=1.000000
;
#FAKES:;
#LABELS:0.000000=Song Start
;
#NOTES:
0000
0000
0000
0000
,
0000
0000
0000
0000
,
0000
2000
3100
0020
,
0032
2003
3000
0002
,
0003
0020
0230
2300
,
3000
0002
0103
0020
,
2030
3002
0003
2000
,
3000
0200
0320
0032
,
2003
3002
0100
0203
,
0010
0320
0030
2000
,
0100
3200
0010
0320
,
0030
2001
0000
3100
,
1002
0000
0103
0220
,
0000
0000
0000
0330
,
0000
0000
1000
0100
,
0010
0001
0010
0100
,
1000
0010
0100
0001
,
0100
0010
2000
0100
,
0010
3002
0100
0010
,
2003
0001
0100
3001
,
0000
0000
1000
0100
,
1000
0001
0100
0001
,
0010
0100
0010
0001
,
1000
0001
0020
0100
,
0031
0200
0010
0301
,
0020
0100
0031
1000
,
0001
1000
0001
0100
,
0001
1000
0100
1000
,
0010
0100
0010
1000
,
0001
1000
0020
0100
,
1030
0200
0010
1300
,
2002
0000
0000
0000
,
0000
0000
0000
0000
,
0000
0000
0000
0000
,
0000
0000
3003
0000
,
0000
2200
0000
3300
,
2002
0000
3003
0202
,
0000
0303
0220
0000
,
0330
2000
0001
3001
,
0002
0100
0103
0200
,
0010
0310
0020
1000
,
1030
2000
3002
0023
,
0230
2300
3020
0230
,
0302
2003
3002
0013
,
0000
0001
0011
0000
,
1000
1010
0000
0001
,
0101
0000
1000
1100
,
0000
1002
0000
0103
,
2001
0000
3100
0220
,
0000
0330
1001
1001
,
1001
0001
0100
0001
,
1000
0100
1000
0010
,
0100
0001
0010
0100
,
1000
0001
0100
1000
,
0001
0000
0100
0000
1000
0000
0010
0100
,
0010
0100
0010
0100
0002
0003
0000
0000
;

//---------------dance-single - TaroNuke----------------
#NOTEDATA:;
#CHARTNAME:TaroNuke;
#STEPSTYPE:dance-single;
#DESCRIPTION:TaroNuke;
#CHARTSTYLE:;
#DIFFICULTY:Medium;
#METER:9;
#RADARVALUES:0.336143,0.411878,0.106955,0.756909,0.090500,286.000000,273.000000,13.000000,92.000000,0.000000,0.000000,0.000000,0.000000,0.000000,0.336143,0.411878,0.106955,0.756909,0.090500,286.000000,273.000000,13.000000,92.000000,0.000000,0.000000,0.000000,0.000000,0.000000;
#CREDIT:TaroNuke;
#OFFSET:-0.027000;
#BPMS:0.000000=112.000000
;
#STOPS:;
#DELAYS:;
#WARPS:;
#TIMESIGNATURES:0.000000=3=4
,54.000000=4=4
,58.000000=3=4
,136.000000=5=4
,141.000000=3=4
;
#TICKCOUNTS:0.000000=4
;
#COMBOS:0.000000=1
;
#SPEEDS:0.000000=0.600000=0.000000=0
,150.000000=0.950000=0.375000=0
,150.375000=0.900000=0.375000=0
,150.750000=0.850000=0.375000=0
,151.125000=0.800000=0.375000=0
,151.500000=0.750000=0.375000=0
,151.875000=0.700000=0.375000=0
,152.250000=0.650000=0.375000=0
,152.625000=0.600000=0.375000=0
,171.000000=0.625000=0.500000=0
,171.500000=0.650000=0.500000=0
,172.000000=0.675000=0.500000=0
,172.500000=0.700000=0.500000=0
,173.000000=0.725000=0.500000=0
,173.500000=0.750000=0.500000=0
,174.000000=0.775000=0.500000=0
,174.500000=0.800000=0.500000=0
,175.000000=0.683974=0.250000=0
,175.250000=0.635191=0.250000=0
,175.500000=0.614680=0.250000=0
,175.750000=0.606056=0.250000=0
,176.000000=0.602430=0.250000=0
,176.250000=0.600906=0.250000=0
,176.500000=0.600265=0.250000=0
,176.750000=0.600000=0.250000=0
,187.000000=0.603125=0.250000=0
,187.250000=0.625000=0.250000=0
,187.500000=0.684375=0.250000=0
,187.750000=0.800000=0.250000=0
,188.000000=0.915625=0.250000=0
,188.250000=0.975000=0.250000=0
,188.500000=0.996875=0.250000=0
,188.750000=1.000000=0.250000=0
;
#SCROLLS:0.000000=1.000000
,198.000000=0.000000
,198.500000=1.000000
,199.000000=0.000000
,199.500000=1.000000
,200.000000=0.000000
,200.500000=1.000000
;
#FAKES:;
#LABELS:0.000000=Song Start
;
#NOTES:
0000
0000
0000
0000
,
0000
0000
0000
0000
,
2000
3200
0320
0000
0032
0003
0200
0000
,
0320
0000
2030
0000
3000
0002
0023
0000
,
0030
0200
2300
3002
2003
3000
0020
0000
,
0030
0200
0302
0000
0023
0030
0200
0000
,
2300
0000
3020
0000
0030
0200
0302
0000
,
0003
0200
0302
2003
3200
0000
0320
0000
,
0031
1000
0010
0100
0001
0100
0010
0000
,
1000
0100
0010
0100
1000
0000
0001
0100
,
0010
0100
0001
1000
0100
0000
0110
0000
,
0000
0002
1003
0010
1000
0010
1000
0000
,
0001
0010
0001
0010
0001
0000
0220
0000
,
0000
0000
0000
0000
,
0000
0330
2000
3002
,
0203
0302
2003
3020
,
0230
0302
0023
0032
,
2003
0000
3020
0000
1030
0001
2000
0000
,
3200
0000
0310
0001
0020
0000
0230
0000
,
1300
0010
1000
0010
0200
0000
0302
0000
,
1000
0000
0103
0000
1000
0100
1000
0000
,
1001
0000
0001
0100
0001
0000
1001
0000
,
1000
0010
1000
0000
1001
0000
0001
0010
,
0002
0000
0023
0000
0130
1000
0001
1000
,
0100
0000
0010
0001
1000
0001
0100
0000
,
0010
0000
0100
0000
0010
0000
0200
0000
0000
0000
0000
0000
0302
0000
0000
0000
0000
0000
1003
0000
0000
0100
0000
0000
,
0010
0001
2000
0000
3001
0100
0001
0000
,
1001
0000
1000
0010
1000
0000
1001
0000
,
0001
0000
0000
0010
0000
0000
0100
0000
1000
0000
0100
0000
1000
0000
0000
0000
0000
0000
0001
0000
0100
0000
0001
0000
,
0100
0000
0001
0000
0100
0000
0001
0000
0000
0000
0000
0000
1000
0000
0000
0010
0000
0000
0100
0000
0000
0000
0000
0000
,
1001
0000
0001
0010
0100
1000
0001
1000
,
0002
0000
0000
1003
,
0000
0000
0000
0001
0000
0000
1000
0000
0001
0000
1000
0000
,
0001
0000
0000
1000
0000
0000
0001
0000
0000
1000
0000
0000
0001
0000
1000
0000
0001
0000
2000
0000
0000
0000
0000
0000
,
3002
2003
0002
0000
,
3003
2001
0000
0000
,
3020
0000
0000
0230
,
0000
0000
0000
0000
0302
0003
0020
0030
,
0200
0300
2000
0000
3020
0030
0200
0300
,
0002
0010
0013
0002
,
0203
0000
0320
0000
1030
0000
0010
0100
,
0000
0001
2000
0000
3002
0003
0200
0300
,
0002
0000
1003
0100
0000
0010
0002
0000
,
2003
3020
0230
0301
,
1000
0100
0020
0000
0031
0000
0200
0000
,
0320
0000
2030
0000
3000
1000
0002
0000
,
0003
0001
0010
0100
0100
0000
1000
0001
,
0100
0001
1000
0100
1000
0100
1000
0000
,
0001
0000
0100
0000
0001
0000
0100
0000
0001
0000
0000
0000
1000
0000
0000
0100
,
0000
0000
0010
0000
0000
0001
0000
0000
0101
0000
0000
0000
1001
0000
0000
0000
,
1100
0000
1000
0010
0100
0010
1000
0000
,
0001
0010
0100
0010
0001
0000
1000
0010
,
0100
0000
0000
0001
0000
0000
1000
0000
0000
0000
0000
0000
0001
0000
0100
0000
0001
0000
0100
0000
0001
0000
0100
0000
,
0001
2000
3020
0230
,
0302
0000
0000
0023
0000
0000
0230
0000
0000
1300
0001
1000
,
0001
1000
0001
1000
0001
0000
0000
0000
2002
0000
3003
0000
0000
0000
0000
0000
;

//---------------dance-single - TaroNuke----------------
#NOTEDATA:;
#CHARTNAME:TaroNuke;
#STEPSTYPE:dance-single;
#DESCRIPTION:TaroNuke;
#CHARTSTYLE:;
#DIFFICULTY:Hard;
#METER:12;
#RADARVALUES:0.431344,0.594934,0.148091,0.781591,0.378454,367.000000,349.000000,18.000000,95.000000,0.000000,0.000000,0.000000,0.000000,0.000000,0.431344,0.594934,0.148091,0.781591,0.378454,367.000000,349.000000,18.000000,95.000000,0.000000,0.000000,0.000000,0.000000,0.000000;
#CREDIT:TaroNuke;
#OFFSET:-0.027000;
#BPMS:0.000000=112.000000
;
#STOPS:;
#DELAYS:;
#WARPS:;
#TIMESIGNATURES:0.000000=3=4
,54.000000=4=4
,58.000000=3=4
,136.000000=5=4
,141.000000=3=4
;
#TICKCOUNTS:0.000000=4
;
#COMBOS:0.000000=1
;
#SPEEDS:0.000000=0.600000=0.000000=0
,30.000000=0.603125=0.375000=0
,30.375000=0.625000=0.375000=0
,30.750000=0.684375=0.375000=0
,31.125000=0.800000=0.375000=0
,31.500000=0.915625=0.375000=0
,31.875000=0.975000=0.375000=0
,32.250000=0.996875=0.375000=0
,32.625000=1.000000=0.375000=0
,56.000000=0.997656=0.250000=0
,56.250000=0.981250=0.250000=0
,56.500000=0.936719=0.250000=0
,56.750000=0.850000=0.250000=0
,57.000000=0.763281=0.250000=0
,57.250000=0.718750=0.250000=0
,57.500000=0.702344=0.250000=0
,57.750000=0.700000=0.250000=0
,67.000000=0.702344=0.250000=0
,67.250000=0.718750=0.250000=0
,67.500000=0.763281=0.250000=0
,67.750000=0.850000=0.250000=0
,68.000000=0.936719=0.250000=0
,68.250000=0.981250=0.250000=0
,68.500000=0.997656=0.250000=0
,68.750000=1.000000=0.250000=0
,150.000000=0.950000=0.375000=0
,150.375000=0.900000=0.375000=0
,150.750000=0.850000=0.375000=0
,151.125000=0.800000=0.375000=0
,151.500000=0.750000=0.375000=0
,151.875000=0.700000=0.375000=0
,152.250000=0.650000=0.375000=0
,152.625000=0.600000=0.375000=0
,171.000000=0.650000=0.500000=0
,171.500000=0.700000=0.500000=0
,172.000000=0.750000=0.500000=0
,172.500000=0.800000=0.500000=0
,173.000000=0.850000=0.500000=0
,173.500000=0.900000=0.500000=0
,174.000000=0.950000=0.500000=0
,174.500000=1.000000=0.500000=0
,175.000000=0.767947=0.250000=0
,175.250000=0.670381=0.250000=0
,175.500000=0.629360=0.250000=0
,175.750000=0.612113=0.250000=0
,176.000000=0.604861=0.250000=0
,176.250000=0.601812=0.250000=0
,176.500000=0.600530=0.250000=0
,176.750000=0.600000=0.250000=0
,187.000000=0.603125=0.250000=0
,187.250000=0.625000=0.250000=0
,187.500000=0.684375=0.250000=0
,187.750000=0.800000=0.250000=0
,188.000000=0.915625=0.250000=0
,188.250000=0.975000=0.250000=0
,188.500000=0.996875=0.250000=0
,188.750000=1.000000=0.250000=0
;
#SCROLLS:0.000000=1.000000
,52.500000=1.009375
,52.645832=1.018750
,52.791668=1.028125
,52.916668=1.037500
,53.062500=1.046875
,53.208332=1.056250
,53.333332=1.065625
,53.479168=1.075000
,53.625000=1.084375
,53.770832=1.093750
,53.916668=1.103125
,54.041668=1.112500
,54.187500=1.121875
,54.333332=1.131250
,54.458332=1.140625
,54.604168=1.150000
,54.750000=1.159375
,54.895832=1.168750
,55.041668=1.178125
,55.166668=1.187500
,55.312500=1.196875
,55.458332=1.206250
,55.583332=1.215625
,55.729168=1.225000
,55.875000=1.234375
,56.020832=1.243750
,56.166668=1.253125
,56.291668=1.262500
,56.437500=1.271875
,56.583332=1.281250
,56.708332=1.290625
,56.854168=1.300000
,57.000000=1.225000
,57.250000=1.150000
,57.500000=1.075000
,57.750000=1.000000
,198.000000=0.000000
,198.500000=1.000000
,199.000000=0.000000
,199.500000=1.000000
,200.000000=0.000000
,200.500000=1.000000
;
#FAKES:;
#LABELS:0.000000=Song Start
;
#NOTES:
0000
0000
0000
0000
,
0000
0000
0000
0000
,
2000
3200
0320
0000
0032
0003
0200
0000
,
0320
0000
2030
0000
3000
1000
0002
0000
,
0003
0002
0023
0031
0002
0003
0200
0000
,
0300
0010
2000
0000
3002
0003
0020
0000
,
0230
0000
2300
0000
3000
1000
0020
0000
,
0030
0200
0320
1030
2000
0000
3002
0000
,
2003
3200
0310
0001
0011
0000
0010
0001
,
1000
0000
0000
0000
1010
0000
1000
0001
1000
0000
0100
0000
0010
0000
0001
0000
,
0011
0000
0001
1000
0001
0000
0010
0000
0010
0000
0000
0000
0100
0000
1000
0001
,
1000
0000
0000
0001
0000
0000
2000
0000
0000
0000
0000
0000
3020
0000
0000
0000
0000
0000
0000
0000
0000
0000
0000
0000
0030
0000
0000
0000
0100
0000
0000
0000
0001
0000
0000
0000
0010
0000
0000
0000
0100
0000
0000
0000
1000
0000
0000
0000
,
0020
0000
0000
0000
0000
0030
1000
0100
0010
0002
0000
0000
,
0000
0000
0000
0203
0000
0000
0000
0000
0000
0000
0000
0000
0320
0000
0000
0000
0000
0000
1030
0000
0100
0000
0010
0000
,
0001
1000
0100
0020
0000
0000
0031
0100
0010
1000
0010
0100
,
0001
0100
0010
1000
0010
0100
0001
0100
0010
1000
0100
0010
,
0001
0010
0100
1000
0100
0010
0001
0010
0100
1000
0010
0100
,
0001
0010
0100
1000
0002
0000
0000
0000
1003
0000
0000
0000
1100
0000
0000
0000
,
1001
0000
0000
0001
0100
0001
1000
0100
1000
0001
0100
0001
,
2000
3200
0320
0032
,
1000
0000
0203
0000
0320
0100
1000
0030
,
1000
0100
0020
0100
0032
0000
2003
0000
,
3010
0000
0100
0000
0001
0000
0010
0100
2000
0000
0000
0000
3002
0000
0000
0000
,
0203
0000
0320
0000
1030
0001
0100
0001
,
0000
2100
3002
0203
,
0310
0000
1000
0000
0010
0000
0100
0000
0001
0000
0100
0000
0010
0000
1000
0000
0010
0000
0200
0000
0000
0302
0000
0000
,
0023
0130
0200
0000
0320
0100
0001
0030
,
0001
0100
0020
0100
2030
0000
3002
0000
,
0023
0000
0000
0130
1000
0100
0010
0001
0010
0100
1000
0100
,
0010
0000
0001
0000
1000
0000
0010
0000
1000
0000
0001
0000
0020
0000
0000
0230
0000
0000
2300
0000
0000
3020
0000
0000
,
0230
0302
0023
0230
0302
0203
0320
0032
,
2003
0000
0000
3001
,
0000
0000
0000
1000
0000
0000
0001
0000
0010
0000
0100
0000
,
1000
0000
0000
0000
0000
0000
0010
0000
0000
0000
0000
0000
0100
0000
0000
0000
0000
0000
0001
0000
0000
0000
0000
0000
1000
0000
0000
0000
0001
0000
0000
0000
1000
0000
0000
0000
0001
0000
0000
1000
0000
0000
0001
0000
0000
1000
0000
0000
,
0200
0320
0002
0000
,
0033
2020
0000
3000
,
0200
0000
0030
0002
,
0000
0000
0300
0000
2003
3000
0200
0300
,
0020
0030
0001
0000
0011
0000
0011
0000
,
1000
1010
1010
0001
,
0101
0000
0101
0000
0001
0000
1000
0100
,
0000
0010
0002
0000
0100
0000
0010
0000
,
2003
0000
3100
0010
0000
0001
2000
0000
,
3020
0230
0302
1003
,
0100
0010
0001
0100
0010
0100
0010
0000
,
1000
0100
0010
0100
0010
0000
0001
0100
,
0010
0100
0010
1000
0001
0010
0200
0000
,
1300
0000
0000
0002
0000
0000
0023
0000
0000
0000
0000
0000
0030
0000
0100
0000
1000
0000
0010
0000
0100
0000
0001
0000
,
0020
0000
0000
0000
0000
0030
0001
0100
0010
2000
0000
0000
,
0000
3000
0100
0010
0001
0000
1001
0000
,
1010
0000
0000
0000
0110
0000
0100
0000
0001
0000
0100
0000
0001
1000
0001
0000
,
1100
0000
0100
0000
0010
0000
0100
0000
1000
0001
1000
0000
1010
0000
0010
0000
,
0100
0000
0000
0000
0000
0000
0010
0000
0000
0000
0000
0000
1000
0000
0000
0001
0000
0000
1000
0000
0000
0000
0000
0000
0001
0000
0000
0000
0010
0000
0000
0000
0001
0000
0000
0000
0010
0000
0000
0000
0001
0000
0000
0000
0010
0000
0000
0000
,
0001
0000
0000
1000
0000
0000
0001
0000
0000
0000
0000
0000
1000
0000
0000
0000
0010
0000
0000
0000
0100
0000
0000
0000
0001
0000
0000
0000
0010
0000
0000
0000
0100
0000
0000
0000
1000
0000
0000
0000
0010
0000
0000
0000
0100
0000
0000
0000
,
0002
0000
0000
0000
0023
0000
0000
0000
0230
0000
0000
0000
1300
0001
1000
0001
,
1000
0000
0001
0000
1000
0000
0001
0000
1000
0000
0001
0000
1000
0000
0000
0000
0000
0000
0010
0000
0000
0100
0000
0000
0002
0000
0000
0000
0000
0000
0003
0000
0000
0000
0000
0000
0000
0000
0000
0000
0000
0000
0000
0000
0000
0000
0000
0000
;

//---------------dance-single - TaroNuke vs. Ama-tan----------------
#NOTEDATA:;
#CHARTNAME:TaroNuke vs. Ama-tan;
#STEPSTYPE:dance-single;
#DESCRIPTION:TaroNuke vs. Ama-tan;
#CHARTSTYLE:;
#DIFFICULTY:Challenge;
#METER:15;
#RADARVALUES:0.628798,0.869520,0.139864,0.839182,0.937909,535.000000,518.000000,17.000000,102.000000,0.000000,0.000000,0.000000,0.000000,0.000000,0.628798,0.869520,0.139864,0.839182,0.937909,535.000000,518.000000,17.000000,102.000000,0.000000,0.000000,0.000000,0.000000,0.000000;
#CREDIT:TaroNuke vs. Ama-tan;
#OFFSET:-0.027000;
#BPMS:0.000000=112.000000
;
#STOPS:;
#DELAYS:;
#WARPS:;
#TIMESIGNATURES:0.000000=3=4
,54.000000=4=4
,58.000000=3=4
,136.000000=5=4
,141.000000=3=4
;
#TICKCOUNTS:0.000000=4
;
#COMBOS:0.000000=1
;
#SPEEDS:0.000000=0.600000=0.000000=0
,30.000000=0.603125=0.375000=0
,30.375000=0.625000=0.375000=0
,30.750000=0.684375=0.375000=0
,31.125000=0.800000=0.375000=0
,31.500000=0.915625=0.375000=0
,31.875000=0.975000=0.375000=0
,32.250000=0.996875=0.375000=0
,32.625000=1.000000=0.375000=0
,56.000000=0.997656=0.250000=0
,56.250000=0.981250=0.250000=0
,56.500000=0.936719=0.250000=0
,56.750000=0.850000=0.250000=0
,57.000000=0.763281=0.250000=0
,57.250000=0.718750=0.250000=0
,57.500000=0.702344=0.250000=0
,57.750000=0.700000=0.250000=0
,67.000000=0.702344=0.250000=0
,67.250000=0.718750=0.250000=0
,67.500000=0.763281=0.250000=0
,67.750000=0.850000=0.250000=0
,68.000000=0.936719=0.250000=0
,68.250000=0.981250=0.250000=0
,68.500000=0.997656=0.250000=0
,68.750000=1.000000=0.250000=0
,150.000000=0.950000=0.375000=0
,150.375000=0.900000=0.375000=0
,150.750000=0.850000=0.375000=0
,151.125000=0.800000=0.375000=0
,151.500000=0.750000=0.375000=0
,151.875000=0.700000=0.375000=0
,152.250000=0.650000=0.375000=0
,152.625000=0.600000=0.375000=0
,171.000000=0.650000=0.500000=0
,171.500000=0.700000=0.500000=0
,172.000000=0.750000=0.500000=0
,172.500000=0.800000=0.500000=0
,173.000000=0.850000=0.500000=0
,173.500000=0.900000=0.500000=0
,174.000000=0.950000=0.500000=0
,174.500000=1.000000=0.500000=0
,175.000000=0.767947=0.250000=0
,175.250000=0.670381=0.250000=0
,175.500000=0.629360=0.250000=0
,175.750000=0.612113=0.250000=0
,176.000000=0.604861=0.250000=0
,176.250000=0.601812=0.250000=0
,176.500000=0.600530=0.250000=0
,176.750000=0.600000=0.250000=0
,187.000000=0.603125=0.250000=0
,187.250000=0.625000=0.250000=0
,187.500000=0.684375=0.250000=0
,187.750000=0.800000=0.250000=0
,188.000000=0.915625=0.250000=0
,188.250000=0.975000=0.250000=0
,188.500000=0.996875=0.250000=0
,188.750000=1.000000=0.250000=0
;
#SCROLLS:0.000000=1.000000
,52.500000=1.009375
,52.645832=1.018750
,52.791668=1.028125
,52.916668=1.037500
,53.062500=1.046875
,53.208332=1.056250
,53.333332=1.065625
,53.479168=1.075000
,53.625000=1.084375
,53.770832=1.093750
,53.916668=1.103125
,54.041668=1.112500
,54.187500=1.121875
,54.333332=1.131250
,54.458332=1.140625
,54.604168=1.150000
,54.750000=1.159375
,54.895832=1.168750
,55.041668=1.178125
,55.166668=1.187500
,55.312500=1.196875
,55.458332=1.206250
,55.583332=1.215625
,55.729168=1.225000
,55.875000=1.234375
,56.020832=1.243750
,56.166668=1.253125
,56.291668=1.262500
,56.437500=1.271875
,56.583332=1.281250
,56.708332=1.290625
,56.854168=1.300000
,57.000000=1.225000
,57.250000=1.150000
,57.500000=1.075000
,57.750000=1.000000
,198.000000=0.000000
,198.500000=1.000000
,199.000000=0.000000
,199.500000=1.000000
,200.000000=0.000000
,200.500000=1.000000
;
#FAKES:;
#LABELS:0.000000=Song Start
;
#NOTES:
// measure 0
0000
0000
0000
0000
,  // measure 1
0000
0000
0000
0000
,  // measure 2
2000
3200
0320
0000
0032
0003
0200
0000
,  // measure 3
0320
0000
2030
0000
3000
1000
0020
0000
,  // measure 4
0030
0010
0001
0010
0020
0030
0200
0000
,  // measure 5
0300
0001
2000
0000
3200
0300
0002
0000
,  // measure 6
0203
0000
0320
0000
0030
0010
0002
0000
,  // measure 7
0003
0100
0010
0100
0200
0000
0302
0000
,  // measure 8
0013
0000
0100
0000
1100
0000
1000
0001
0100
0000
0001
0000
0101
0000
0100
0001
,  // measure 9
1000
0000
0000
0000
0000
0000
0001
0000
0010
0000
0100
0000
1000
0000
0000
0000
0000
0000
0001
0000
0100
0000
0010
0000
1000
0000
0000
0001
0000
0000
1000
0000
0000
0000
0000
0000
0101
0000
0000
0000
0000
0000
0001
0000
0000
1000
0000
0000
,  // measure 10
0100
0000
0000
0000
0000
0000
1000
0000
0000
0000
0000
0000
1100
0000
0000
0000
0000
0000
1000
0000
0100
0000
1000
0000
0001
0000
0000
0100
0000
0000
0010
0000
0000
1000
0000
0000
0001
0000
0000
0000
0000
0000
1000
0000
0000
0100
0000
0000
,  // measure 11
0001
0000
0000
0100
0000
0000
2000
0000
0000
0000
0000
0000
3001
0000
0000
0000
1000
0000
0000
0000
0001
0000
0000
0000
1000
0000
0000
0000
0001
0000
0000
0000
0010
0000
0000
0000
0100
0000
0000
0000
1000
0000
0000
0000
0010
0000
0000
0000
,  // measure 12
0200
0000
0000
0000
0000
0000
0000
0000
0000
0000
0000
0000
0000
0000
0000
0000
0000
0000
0300
0000
0000
0000
0000
0000
0001
0000
0000
0000
0000
0000
0000
0000
0100
0000
0000
0000
0000
0000
0000
0000
0001
0000
0000
0000
0000
0000
0000
0000
0100
0000
0000
0000
0000
0000
0001
0000
0000
0000
0000
0000
0100
0000
0000
0000
0000
0000
0001
0000
0000
0000
0000
0000
0200
0000
0000
0000
0000
0000
0000
0000
0000
0000
0000
0000
0000
0000
0000
0000
0000
0000
0000
0000
0000
0000
0000
0000
0310
0000
0000
0000
0000
0000
0000
0000
0000
0000
0000
0000
0000
0000
0000
0000
1000
0000
0000
0000
0000
0000
0000
0000
0000
0000
0000
0000
0000
0000
0000
0000
0001
0000
0000
0000
0000
0000
0000
0000
0000
0000
0000
0000
0000
0000
0000
0000
0020
0000
0000
0000
0000
0000
0000
0000
0000
0000
0000
0000
0000
0000
0000
0000
0000
0000
0000
0000
0000
0000
0000
0000
0000
0000
0000
0000
0000
0000
0000
0000
0000
0000
0000
0000
0000
0000
0000
0000
0000
0000
0000
0000
0000
0000
0000
0000
,  // measure 13
0000
0000
0000
0000
0000
0000
0000
0000
0000
0000
0000
0000
0000
0000
0000
0000
0000
0000
0000
0000
0000
0000
0000
0000
0230
0000
0000
0000
0000
0000
0000
0000
0000
0000
0000
0000
0000
0000
0000
0000
0000
0000
0000
0000
0000
0000
0000
0000
0000
0000
0000
0000
0000
0000
0300
0000
0002
0000
0000
0000
0000
0000
0000
0000
0000
0000
0000
0000
0000
0000
0000
0000
0000
0000
2000
0000
0000
0000
0000
0000
0003
0000
0000
0000
0000
0000
0000
0000
0000
0000
0000
0000
0000
0000
0000
0000
0000
0000
0000
0000
0000
0000
0000
0000
0000
0000
0000
0000
0000
0000
0000
0000
0000
0000
0000
0000
0000
0000
0020
0000
0000
0000
0000
0000
3000
0000
0000
0000
0000
0000
0000
0000
0000
0000
0030
0000
0000
0000
0000
0000
0000
0000
0000
0000
0001
0000
0000
0000
0000
0000
0000
0000
0000
0000
0000
0000
0000
0000
0000
0000
0100
0000
0000
0000
0000
0000
0000
0000
0000
0000
0000
0000
0000
0000
0000
0000
0010
0000
0000
0000
0000
0000
0000
0000
0000
0000
0000
0000
0000
0000
0000
0000
,  // measure 14
1000
0000
0000
0000
0000
0000
0000
0000
0010
0000
0000
0000
0000
0000
0000
0000
0100
0000
0000
0000
0000
0000
0000
0000
0001
0000
0000
0000
0000
0000
0000
0000
1000
0000
0000
0000
0000
0000
0000
0000
0200
0000
0000
0000
0000
0000
0000
0000
0020
0000
0000
0000
0000
0000
0000
0000
0000
0000
0000
0000
0000
0000
0000
0000
0300
0000
0000
0030
0000
0000
0000
0000
0000
0000
0000
0000
0000
0000
0000
0000
0000
0000
0000
0000
0100
0000
0000
0000
0000
0000
0010
0000
0000
0000
0000
0000
0001
0000
0000
0000
0000
0000
0000
0000
0000
0000
0000
0000
0000
0000
0000
0000
0010
0000
0000
0000
0000
0000
0000
0000
0000
0000
0000
0000
0000
0000
0000
0000
0100
0000
0000
0000
0000
0000
0000
0000
0000
0000
0000
0000
0000
0000
0000
0000
0001
0000
0000
0000
0000
0000
0000
0000
0000
0000
0000
0000
0000
0000
0000
0000
0100
0000
0000
0000
0000
0000
0000
0000
0000
0000
0000
0000
0000
0000
0000
0000
0010
0000
0000
0000
0000
0000
0000
0000
0000
0000
0000
0000
0000
0000
0000
0000
,  // measure 15
0001
0010
0100
0001
0100
0010
0001
0010
0100
0001
0100
1000
,  // measure 16
0010
0100
1000
0001
1000
0100
0010
0100
1000
0001
0010
0100
,  // measure 17
0001
0000
0000
0010
0000
0000
0100
0000
0000
1000
0000
0000
0001
0000
0100
0000
0010
0000
1000
0000
0010
0000
0100
0000
0001
0000
0000
0000
0000
0000
1000
0000
0000
0000
0000
0000
1100
0000
0000
0000
0000
0000
0100
0000
0000
0000
0000
0000
,  // measure 18
0010
0000
0000
0001
0000
0000
1000
0000
0000
0001
0000
0000
0101
0000
0000
0000
0100
0000
0000
0000
0001
0000
0000
0000
1000
0000
0000
0000
0100
0000
0000
0000
1000
0000
0000
0000
0001
0000
0000
0000
0100
0000
0000
0000
0010
0000
0000
0000
,  // measure 19
1000
0001
1000
0100
0010
0100
1000
0001
1000
0010
0100
0010
1000
0001
1000
0100
0010
0001
0200
0000
0000
0000
0000
0000
,  // measure 20
2000
0000
0000
3000
0000
0000
0000
0000
0000
0000
0000
0000
0302
0000
0000
0000
0000
0000
0000
0000
0000
0000
0000
0000
1003
0000
0000
0000
0000
0000
0001
0000
0100
0000
0001
0000
0100
0000
0000
0000
0000
0000
0010
0000
1000
0000
0010
0000
,  // measure 21
1000
0000
0000
0000
0000
0000
0001
0000
0000
1000
0000
0000
0001
0000
0000
0000
0000
0000
0010
0000
0000
0100
0000
0000
2000
0000
0000
0000
0000
0000
3001
0000
0010
0000
0001
0000
0010
0000
0000
0100
0000
0000
1000
0000
0000
0000
0000
0000
,  // measure 22
0001
0000
0000
0000
0000
0000
1000
0000
0000
0010
0000
0000
0100
0000
0000
0000
0000
0000
0001
0000
0010
0000
0001
0000
0010
0000
0000
0000
0000
0000
0100
0000
1000
0000
0100
0000
1000
0000
0000
0000
0000
0000
0001
0000
0000
1000
0000
0000
,  // measure 23
0020
0000
0000
0000
0000
0000
0130
0000
0001
0000
0100
0000
0001
0000
0000
1000
0000
0000
0100
0000
0000
0000
0000
0000
0020
0000
0000
0000
0000
0000
0001
0000
0000
0000
0000
0000
0100
0000
0000
0000
0000
0000
0031
0000
0000
1000
0000
0000
,  // measure 24
0010
0000
0000
0000
0000
0000
0100
0000
0000
0001
0000
0000
1000
0000
0000
0000
0000
0000
0100
0000
0000
0010
0000
0000
0001
0000
0000
0000
0000
0000
1000
0000
0001
0000
1000
0000
0002
0000
0000
0000
0000
0000
0000
0000
0000
0000
0000
0000
,  // measure 25
1003
0000
0000
0000
0100
0000
0000
0000
1000
0000
0000
0000
0001
0000
0000
0000
0100
0000
0000
0000
0001
0000
0000
0000
1000
0000
0000
0000
0100
0000
0010
0000
0100
0000
0000
0000
1000
0000
0000
0000
0000
0000
0100
0000
0000
0010
0000
0000
,  // measure 26
0001
0000
0000
0000
0000
0000
1000
0000
0000
0000
0000
0000
0001
0000
0100
0000
0001
0000
0100
0000
0001
0000
0100
0000
0020
0000
0000
0000
0000
0000
1000
0000
0000
0000
0000
0000
0100
0000
0000
0000
0000
0000
1030
0000
0000
0001
0000
0000
,  // measure 27
0010
0000
0000
0000
0000
0000
0100
0000
0000
0000
0000
0000
1000
0000
0000
0000
0000
0000
0001
0000
0000
0100
0000
0000
0001
0000
0000
0000
0000
0000
1000
0000
0000
0100
0000
0000
1000
0000
0000
0000
0010
0000
0000
0000
0100
0000
0000
0000
,  // measure 28
0000
0000
2000
0000
0000
0000
3000
0000
0000
0000
0000
0000
0000
0000
0000
0000
0000
0000
0000
0000
0002
0000
0000
0000
0003
0000
0000
0000
0000
0000
0000
0000
0000
0000
0000
0000
0000
0000
0000
0000
0000
0000
0000
0000
0000
0000
0000
0000
0010
0000
0000
0000
0000
0000
0000
0000
0000
0000
0000
0000
0000
0000
0000
0000
0100
0000
0000
0000
0000
0000
0000
0000
0000
0000
0000
0000
0000
0000
0000
0000
0001
0000
0000
0000
0000
0000
0000
0000
0000
0000
0000
0000
0000
0000
0000
0000
1000
0000
0000
0000
0000
0000
0000
0000
0000
0000
0000
0000
0000
0000
0000
0000
0100
0000
0000
0000
0000
0000
0000
0000
0000
0000
0000
0000
0000
0000
0000
0000
0010
0000
0000
0000
0000
0000
0000
0000
0000
0000
0000
0000
0000
0000
0000
0000
0001
0000
0000
0000
0000
0000
0000
0000
0000
0000
0000
0000
0000
0000
0000
0000
0100
0000
0000
0000
0000
0000
0000
0000
0010
0000
0000
0000
0000
0000
0000
0000
0100
0000
0000
0000
0000
0000
0000
0000
0000
0000
0000
0000
0000
0000
0000
0000
,  // measure 29
0001
0000
0010
0100
0010
0000
0001
0000
0100
0000
0010
0000
2000
0000
0000
3200
0000
0000
0320
0000
0000
0230
0000
0000
,  // measure 30
0302
0000
0000
0000
0000
0000
0000
0000
0000
0000
0000
0000
0000
0000
0000
0000
0000
0000
0000
0000
0000
0000
0000
0000
2003
0000
0000
0000
0000
0000
0000
0000
0000
0000
0000
0000
0000
0000
0000
0000
0000
0000
0000
0000
3000
0000
0020
0000
0000
0000
0000
0000
0000
0000
0000
0000
0000
0000
0000
0000
0000
0000
0000
0000
0000
0000
0000
0000
0000
0000
0000
0000
0032
0000
0000
0000
0000
0000
0000
0000
0000
0000
0000
0000
0000
0000
0000
0000
0000
0000
0000
0000
0000
0000
0000
0000
0203
0000
0000
0000
0000
0000
0000
0000
0000
0000
0000
0000
0000
0000
0000
0000
0000
0000
0000
0000
0000
0000
0000
0000
0300
0000
2000
0000
0000
0000
0000
0000
0000
0000
0000
0000
0000
0000
0000
0000
0000
0000
0000
0000
0000
0000
0000
0000
0002
0000
3000
0000
0000
0000
0000
0000
0000
0000
0000
0000
0000
0000
0000
0000
0000
0000
0000
0000
0000
0000
0000
0000
0003
0000
0020
0000
0000
0000
0000
0000
0000
0000
0000
0000
0000
0000
0000
0000
0000
0000
0000
0000
0000
0000
0000
0000
,  // measure 31
0000
0000
0030
0000
0000
0000
0000
0000
0000
0000
0000
0000
0000
0000
0000
0000
0000
0000
0000
0000
0000
0000
0000
0000
0000
0000
0000
0000
0200
0000
0000
0000
0000
0000
0000
0000
0000
0000
0000
0000
0000
0000
0000
0000
0002
0000
0000
0000
0000
0000
0000
0000
0000
0000
0000
0000
0000
0000
0000
0000
0000
0000
0000
0000
0000
0000
0000
0000
0000
0000
0000
0000
0000
0000
0000
0000
0000
0000
0000
0000
0000
0000
0000
0000
0000
0000
0000
0000
0000
0000
0000
0000
0000
0000
0000
0000
0000
0000
0000
0000
0000
0000
0000
0000
0300
0000
0000
0000
0000
0000
0000
0000
0000
0000
0000
0000
0000
0000
0000
0000
0000
0000
0000
0000
0000
0000
0000
0000
0000
0000
0000
0000
0000
0000
0000
0000
0000
0000
0000
0000
0000
0000
0000
0000
1000
0000
0000
0000
0000
0000
0000
0000
0000
0000
0000
0000
0000
0000
0000
0000
0000
0000
0000
0000
0000
0000
0000
0000
0000
0000
0000
0000
0000
0000
0000
0000
0000
0000
0000
0000
0000
0000
0000
0000
0000
0000
0000
0000
0000
0000
0000
0000
,  // measure 32
0000
0000
0000
0100
0000
0000
0013
0000
0001
0000
0010
0000
,  // measure 33
0100
0000
0000
0000
0000
0000
1000
0000
0000
0000
0000
0000
0010
0000
0000
0000
0000
0000
0100
0000
0000
0000
0000
0000
0001
0000
0000
0000
0010
0000
0000
0000
0100
0000
0000
0000
1000
0000
0000
0010
0000
0000
0100
0000
0000
0001
0000
0000
,  // measure 34
0010
0000
0000
0000
0000
0000
0000
0000
0100
0000
0000
0000
0000
0000
0000
0000
1000
0000
0000
0000
0000
0000
0000
0000
0010
0000
0000
0000
0000
0000
0000
0000
0100
0000
0000
0000
0000
0000
0000
0000
0001
0000
0000
0000
0000
0000
0000
0000
1000
0000
0000
0000
0000
0000
0001
0000
0000
0000
0000
0000
1000
0000
0000
0000
0000
0000
0001
0000
0000
0000
0000
0000
1000
0000
0000
0000
0000
0000
0001
0000
0000
0000
0000
0000
1000
0000
0000
0000
0000
0000
0002
0000
0000
0000
0000
0000
2000
0000
0000
0000
0000
0000
0000
0000
0000
0000
0000
0000
0000
0000
0000
0000
0000
0000
0000
0000
0000
0000
0000
0000
0000
0000
0000
0000
0000
0000
0000
0000
0000
0000
0000
0000
0000
0000
0000
0000
0000
0000
0000
0000
0000
0000
0000
0000
0000
0000
0000
0000
0000
0000
0000
0000
0000
0000
0000
0000
3000
0000
0000
0000
0000
0000
0000
0000
0000
0000
0000
0000
0000
0000
0000
0000
0000
0000
0000
0000
0000
0000
0000
0000
0000
0000
0000
0000
0000
0000
0000
0000
0000
0000
0000
0000
,  // measure 35
0000
0000
0000
0000
0000
0000
0003
0000
0000
0000
0000
0000
0000
0000
0000
0000
0000
0000
0000
0000
0000
0000
0000
0000
0000
0000
0000
0200
0000
0000
0000
0000
0000
0000
0000
0000
0000
0000
0000
0000
0000
0000
0000
0000
0000
0000
0000
0000
0000
0000
0000
2000
0000
0000
0000
0000
0000
0000
0000
0000
0000
0000
0000
0000
0000
0000
0000
0000
0000
0000
0000
0000
0000
0000
0000
0000
0000
0000
0000
0000
0000
0000
0000
0000
0000
0000
0000
0000
0000
0000
0000
0000
0000
0000
0000
0000
0000
0000
0000
0000
0000
0000
0000
0000
0000
0000
0000
0000
0000
0000
0000
0000
0000
0000
0000
0000
0000
0000
0000
0000
0000
0000
0000
0000
0000
0000
0000
0000
0000
0000
0000
0000
0000
0000
0000
0000
0000
0000
0000
0000
0000
0000
0000
0000
0000
0000
0000
0000
0000
0000
0000
0000
0000
0000
0000
0000
0000
0000
0000
0300
0000
0000
0000
0000
0000
0000
0000
0000
0000
0000
0000
0000
0000
0000
0000
0000
0000
0000
0000
0000
0000
0000
0000
0000
0000
0000
0000
0000
0000
0000
0002
0000
,  // measure 36
0000
0000
0000
0000
0000
0000
0000
0000
0000
0000
0000
0000
3000
0000
0000
0000
0000
0000
0000
0000
0000
0000
0000
0000
0000
0000
0000
0000
0000
0000
0000
0000
0000
0000
0000
0000
0000
0000
0000
0000
0000
0000
0000
0000
0020
0000
0000
0000
0000
0000
0000
0000
0000
0000
0000
0000
0000
0000
0000
0000
0000
0000
0000
0000
0000
0000
0000
0000
0000
0000
0000
0000
0000
0000
0000
0000
0000
0000
0000
0000
0000
0000
0000
0000
0000
0000
0000
0000
0000
0000
0000
0000
0000
0000
0000
0000
0000
0000
0000
0000
0000
0000
0000
0000
0000
0000
0000
0000
0000
0000
0000
0000
0000
0000
0003
0000
0000
0000
0000
0000
0000
0000
0030
0000
0000
0000
0000
0000
0000
0000
0000
0000
0000
0000
0000
0000
0000
0000
0000
0000
0000
0000
0000
0000
2000
0000
0000
0000
0000
0000
0000
0000
0000
0000
0000
0000
0000
0000
0000
0200
0000
0000
0000
0000
0000
0000
0000
0000
0000
0000
0000
0000
0000
0000
0000
0000
0000
0000
0000
0000
0000
0000
0000
0000
0000
0000
0000
0000
0000
0000
0000
0000
,  // measure 37
0000
0000
0000
0000
0000
3000
0000
0000
0000
0300
0000
0000
0002
0000
0000
0003
0000
0000
0020
0000
0000
0030
0000
0000
,  // measure 38
2000
3000
0002
0000
0100
0000
0100
0000
,  // measure 39
2003
0000
0100
0000
3100
0010
0002
1000
,  // measure 40
0010
0000
0013
0100
2000
0100
3002
0103
,  // measure 41
0000
0000
0000
0000
0000
0000
0000
0000
0000
0000
0000
0000
0000
0000
0000
0000
0000
0000
0000
0000
0000
0000
0000
0000
0000
0000
0000
0000
0020
0000
0000
0000
0000
0000
0000
0000
0000
0000
0000
0000
0000
0000
0000
0000
0000
0000
0000
0000
0030
0000
0000
2000
0000
0000
0000
0000
0000
0000
0000
0000
0000
0000
0000
0000
0000
0000
0000
0000
0000
0000
0000
0000
0000
0000
0000
0000
0000
0000
0000
0000
0000
0000
0000
0000
0000
0000
0000
0000
0000
0000
0000
0000
0000
3000
0000
0000
0000
0000
0000
0200
0000
0000
0000
0000
0000
0000
0000
0000
0000
0000
0000
0000
0000
0000
0000
0000
0000
0300
0000
0000
0000
0000
0000
0000
0000
0000
0000
0000
0000
0000
0000
0000
0000
0000
0000
0000
0000
0000
0000
0000
0000
0000
0002
0000
0000
0000
0000
0000
0000
0000
0000
0000
0000
0000
0000
0000
0000
0000
0000
0000
0000
0000
0000
0000
0000
0000
0000
0000
0000
0000
0000
0000
0000
0000
0000
0000
0000
0000
0000
0000
0000
0000
0000
0000
0003
0000
0000
0000
0000
0000
0000
0000
,  // measure 42
2000
0000
0000
0000
0000
0000
0000
0000
0000
0000
0000
0000
0000
0000
0000
0000
0000
0000
0000
0000
0000
0000
0000
0000
0000
0000
0000
0000
0000
0000
0000
0000
0000
0000
0000
0000
0000
0000
0000
0000
0000
0000
0000
0000
0000
0000
0002
0000
3000
0000
0000
0000
0000
0000
0000
0000
0000
0000
0000
0000
0000
0000
0000
0000
0000
0000
0000
0000
0000
0000
0203
0000
0000
0000
0000
0000
0000
0000
0000
0000
0000
0000
0300
0000
0000
0000
0000
0000
0000
0000
0000
0000
0000
0000
0000
0000
0000
0000
0000
0000
0000
0000
0000
0000
0000
0000
0000
0000
0000
0000
0000
0000
0000
0000
0000
0000
0000
0000
0000
0000
0000
0000
2000
0000
0000
0000
0000
0000
0000
0000
0000
0000
0000
0000
0000
0000
0000
0000
0000
0000
0000
0000
3000
0000
0020
0000
0000
0000
0000
0000
0000
0000
0000
0000
0000
0000
0000
0000
0000
0000
0000
0000
0000
0000
0000
0000
0000
0000
0000
0000
0000
0000
0000
0000
0000
0000
0000
0000
0000
0000
0000
0000
0000
0000
0000
0000
0000
0000
0000
0000
0000
0000
,  // measure 43
0032
0000
0000
0000
0000
0000
0000
0000
0000
0000
0000
0203
0000
0000
0000
0000
0000
0000
0000
0000
0000
0000
0000
0000
2300
0000
0000
0000
0000
0000
0000
0000
0000
0000
0000
0000
0020
0000
0000
0030
0000
0000
3000
0000
0000
0000
0000
0000
,  // measure 44
0001
0100
0020
0100
1030
0001
0100
0001
,  // measure 45
0020
0100
0031
1000
0100
1000
0020
0100
,  // measure 46
1030
0000
0001
0000
0010
0000
0100
0000
0200
0000
0010
0000
2300
0000
3010
0100
,  // measure 47
0001
0000
0000
1000
0100
0010
0001
0000
0001
0000
0001
0000
0001
0000
1000
0000
0010
0000
0100
0000
0001
0000
0010
0000
,  // measure 48
0200
0000
0000
0000
0000
0000
0000
0000
0000
0000
0000
0000
0000
0000
0000
0000
0000
0000
0000
0000
0000
0000
0000
0000
1300
0000
0000
0000
0000
0000
0000
0000
0100
0000
0000
0000
0000
0000
0000
0000
1000
0000
0000
0000
0000
0000
0000
0000
0100
0000
0000
0000
0000
0000
0000
0000
1000
0000
0000
0000
0000
0000
0000
0000
0100
0000
0000
0000
0000
0000
1000
0000
0000
0000
0000
0000
0200
0000
0000
0000
0000
0000
0000
0000
0000
0000
0000
0000
0000
0000
0000
0000
0000
0000
0000
0000
0310
0000
0000
0000
0000
0000
0000
0000
0000
0000
0000
0000
0000
0000
0000
0000
0001
0000
0000
0000
0000
0000
0000
0000
0000
0000
0000
0000
0000
0000
0000
0000
0100
0000
0000
0000
0000
0000
0000
0000
0000
0000
0000
0000
0000
0000
0000
0000
0101
0000
0000
0000
0000
0000
0000
0000
0000
0000
0000
0000
0000
0000
0000
0000
0000
0000
0000
0000
0000
0000
0000
0000
0000
0000
0000
0000
0000
0000
0000
0000
0000
0000
0000
0000
1100
0000
0000
0000
0000
0000
0000
0000
0000
0000
0000
0000
,  // measure 49
0000
0000
0000
0000
0101
0000
0000
0000
0000
0000
1100
0000
0000
0000
0000
0000
0202
0003
0300
0000
0000
0000
0000
0000
0220
0300
0030
0000
0000
0000
0000
0000
,  // measure 50
2020
0030
3000
0000
0000
0000
0000
0000
1002
0000
0000
0000
1003
0000
0100
0000
0010
0000
0000
0000
0011
0000
0000
0000
0001
0000
1000
0000
0010
0000
1000
0000
,  // measure 51
2001
0000
3001
0100
0020
0000
0130
0001
0020
0000
0130
1000
1002
0000
1003
0001
,  // measure 52
0010
0000
0000
0001
0000
0000
1000
0000
0000
0001
0000
0000
0200
0000
0000
0000
0000
0000
0301
0000
0000
1000
0000
0000
0010
0000
0000
0000
0100
0000
0000
0000
0010
0000
0000
0000
1000
0000
0000
0001
0000
0000
0010
0000
0000
0100
0000
0000
,  // measure 53
1000
0100
1000
0001
0100
0001
1000
0000
0010
0100
0010
0000
1000
0000
0100
0010
0100
0000
1000
0000
0001
0100
0001
0000
,  // measure 54
1000
0000
0000
0000
0000
0000
0000
0000
0100
0000
0000
0000
0000
0000
0000
0000
0010
0000
0000
0000
0000
0000
0000
0000
0001
0000
0000
0000
0000
0000
0000
0000
0010
0000
0000
0000
0000
0000
0000
0000
0100
0000
0000
0000
0000
0000
0000
0000
1000
0000
0000
0000
0000
0000
0000
0000
0001
0000
0000
0000
0000
0000
0000
0000
0100
0000
0000
0000
0000
0000
0000
0000
0010
0000
0000
0000
0000
0000
0000
0000
0100
0000
0000
0000
0000
0000
0000
0000
0001
0000
0000
0000
0000
0000
0000
0000
2000
0000
0000
0000
0000
0000
0000
0000
0000
0000
0000
0000
0000
0000
0000
0000
0000
0000
0000
0000
0000
0000
0000
0000
0000
0000
0000
0000
0000
0000
0000
0000
0000
0000
0000
0000
0000
0000
0000
0000
0000
0000
0000
0000
0000
0000
0000
0000
3001
0000
0000
0000
0000
0000
0100
0000
0000
0000
0000
0000
0001
0000
0000
0000
0000
0000
0100
0000
0000
0000
0000
0000
0001
0000
0000
0000
0000
0000
0000
0000
0000
0000
0000
0000
0000
0000
0000
0000
0000
0000
0000
0000
0000
0000
0000
0000
,  // measure 55
1000
0100
1000
0100
1000
0000
0000
0000
0001
0000
0100
0000
0010
0000
1000
0000
0200
0000
0000
0000
0300
0000
0000
0000
0000
0000
0000
0000
0000
0000
0000
0000
;
