#VERSION:0.83;
#TITLE:ハイ*ビスカス ft. Kanae Asaba;
#SUBTITLE:;
#ARTIST:Xceon;
#TITLETRANSLIT:Hibiscus ft. Kanae Asaba;
#SUBTITLETRANSLIT:;
#ARTISTTRANSLIT:;
#GENRE:YANKEE CAR J TRANCE;
#CREDIT:;
#MUSIC:Hibiscus ft. Kanae Asaba.ogg;
#BANNER:Hibiscus ft. Kanae Asaba.png;
#BACKGROUND:Hibiscus ft. Kanae Asaba-bg.png;
#CDTITLE:./CDTitles/bm IIDX 25 CANNON BALLERS.png;
#SAMPLESTART:45.311;
#SAMPLELENGTH:15.000;
#SELECTABLE:YES;
#OFFSET:-0.231;
#BPMS:0.000=157.000
,240.000=78.500
,244.000=157.000
;
#STOPS:;
#TIMESIGNATURES:0.000=4=4;
#DISPLAYBPM:157.000;
#BGCHANGES:2.000=Hibiscus ft. Kanae Asaba.mp4=1.000=0=0=0=StretchNoLoop====,
99999.000=-nosongbg-=1.000=0=0=0=StretchNoLoop====
;
#FGCHANGES:;

//--------------- dance-single - forcednature ----------------
#NOTEDATA:;
#STEPSTYPE:dance-single;
#DESCRIPTION:forcednature;
#DIFFICULTY:Beginner;
#METER:1;
#RADARVALUES:0,0,0,0,0;
#CREDIT:forcednature;
#NOTES:
0000
0000
0000
0000
,
0000
0000
0000
0000
,
0000
0000
0000
0000
,
0000
0000
0000
0000
,
0000
0000
0000
0000
,
1000
0000
0000
0000
,
0000
0000
0000
0000
,
0001
0000
0000
0000
,
0000
0000
0000
0000
,
0100
0000
0000
0000
,
0000
0000
0000
0000
,
0010
0000
0000
0000
,
0000
0000
0000
0000
,
1000
0000
0000
0000
,
0000
0000
0000
0000
,
0001
0000
0000
0000
,
0001
0000
0000
0000
,
0010
0000
0000
0000
,
0000
0000
0000
0000
,
0000
0000
0000
0000
,
0010
0000
0000
0000
,
0100
0000
0000
0000
,
0000
0000
0000
0000
,
0000
0000
0000
0000
,
0100
0000
0000
0000
,
1000
0000
0000
0000
,
0000
0000
0000
0000
,
0001
0000
0000
0000
,
0000
0000
0000
0000
,
0000
0000
0000
0000
,
1001
0000
0000
0000
,
0000
0000
0000
0000
,
1000
0000
0000
0000
,
0000
0000
0000
0000
,
0010
0000
0000
0000
,
0000
0000
0000
0000
,
0100
0000
0000
0000
,
0000
0000
0000
0000
,
0001
0000
0000
0000
,
0000
0000
0000
0000
,
0010
0000
0000
0000
,
0000
0000
0000
0000
,
0001
0000
0000
0000
,
0000
0000
0000
0000
,
1000
0000
0000
0000
,
1000
0000
0000
0000
,
0100
0000
0000
0000
,
0000
0000
0000
0000
,
0000
0000
0000
0000
,
0000
0000
0000
0000
,
0010
0000
0000
0000
,
0000
0000
0000
0000
,
0000
0000
0000
0000
,
0000
0000
0000
0000
,
0001
0000
0000
0000
,
0000
0000
0000
0000
,
0100
0000
0000
0000
,
0000
0000
0000
0000
,
0010
0000
0000
0000
,
0000
0000
0000
0000
,
0000
0000
0000
0000
,
0000
1001
0000
0000
,
0000
0000
0000
0000
,
1000
0000
0000
0000
,
0000
0000
0000
0000
,
0100
0000
0000
0000
,
0000
0000
0000
0000
,
1000
0000
0000
0000
,
0000
0000
0000
0000
,
0010
0000
0000
0000
,
0000
0000
0000
0000
,
0100
0000
0000
0000
,
0000
0000
0000
0000
,
0001
0000
0000
0000
,
0000
0000
0000
0000
,
0010
0000
0000
0000
,
0010
0000
0000
0000
,
0001
0000
0000
0000
,
0100
0000
0000
0000
;

//--------------- dance-single - forcednature ----------------
#NOTEDATA:;
#STEPSTYPE:dance-single;
#DESCRIPTION:forcednature;
#DIFFICULTY:Easy;
#METER:5;
#RADARVALUES:0,0,0,0,0;
#CREDIT:forcednature;
#NOTES:
0000
0000
0000
0000
,
0000
0000
0000
0000
,
0000
0000
0000
0000
,
0000
0000
0000
0000
,
0000
0000
0000
0000
,
1001
0000
0000
0000
,
0110
0000
0000
0000
,
1001
0000
0110
0000
,
0001
0001
1000
1000
,
0010
0000
0100
0000
,
0001
0000
0010
0100
,
1000
0000
0010
0000
,
1000
0000
0001
0100
,
0010
0000
1000
0000
,
0001
0000
0010
0100
,
1000
0000
0001
0000
,
0100
0000
0100
0010
,
1000
0000
0000
0000
,
0001
0001
0001
0000
,
0010
0000
0100
0000
,
1000
0000
0000
0000
,
0001
0000
0000
0000
,
0100
0100
0100
0000
,
0010
0000
1000
0000
,
0001
0010
0100
1000
,
1001
0000
0001
0000
,
0100
0000
0000
0000
,
0010
0010
0010
0000
,
1000
0000
0001
0001
,
0020
0000
0130
0000
,
1001
0000
1000
0000
,
0010
0010
0010
0000
,
1000
0000
0001
0000
,
0100
0100
0100
0000
,
0001
0000
0010
0000
,
0001
1000
0001
0000
,
0100
0000
0010
0000
,
1000
1000
0100
1000
,
0010
0000
0100
0000
,
0001
0001
1000
0000
,
0100
0000
0010
0000
,
0001
0010
0001
0000
,
0100
0000
0010
0000
,
1000
0100
1000
0000
,
1001
0000
0110
0000
,
0001
0001
1000
1000
,
0020
0000
0000
0000
,
0030
0000
0000
0000
,
0200
0000
0000
0000
,
0300
0000
0000
0000
,
0002
0000
0003
0000
,
0020
0000
0030
0000
,
0200
0000
0300
0000
,
2000
0000
3000
0000
,
0000
0010
0000
0010
,
0000
0100
0000
0100
,
0001
0001
1000
1000
,
0100
0000
0010
0000
,
0001
0001
1000
1000
,
0010
0000
0100
0000
,
2002
0000
0000
0000
,
3003
0110
0000
0001
,
0010
0010
0001
0000
,
0100
0000
0010
0000
,
1000
0100
0010
0000
,
0100
0000
1000
0000
,
0001
0100
0010
0000
,
1000
1000
0001
0001
,
1000
0001
1000
0000
,
0100
0000
0010
0000
,
0100
1000
0010
0000
,
0100
0000
0001
0000
,
1000
0010
0100
0000
,
0001
0000
0010
0000
,
0100
0010
0001
0000
,
1001
0000
0110
0000
,
1000
1000
0001
0000
,
0100
0000
0010
0000
,
2000
0000
0000
0000
,
0000
0000
0000
0000
,
3000
0000
0000
0000
;

//--------------- dance-single - forcednature ----------------
#NOTEDATA:;
#STEPSTYPE:dance-single;
#DESCRIPTION:forcednature;
#DIFFICULTY:Medium;
#METER:11;
#RADARVALUES:0,0,0,0,0;
#CREDIT:forcednature;
#NOTES:
0000
0000
0000
0000
,
0000
0000
0000
0000
,
0000
0000
0000
0000
,
0000
0000
0000
0000
,
0000
0000
0000
0000
,
2002
3003
0100
0010
,
2002
3003
0010
0100
,
0110
1000
0110
0001
,
0100
0000
0000
0000
0000
0000
0000
0000
0000
0100
0000
0000
0000
0000
0000
0000
0000
0000
0010
0000
0000
0000
0000
0000
1000
0000
0000
0000
0001
0000
0000
0000
1000
0000
0000
0000
0001
0000
0000
0000
0000
0000
0000
0000
0000
0000
0000
0000
,
0010
0100
0000
0100
1000
0010
0000
0010
,
0100
0001
0000
0001
0010
0100
1000
0100
,
0010
0001
0000
0001
1000
0010
0000
0010
,
0100
0001
0000
0001
1000
0100
0001
0100
,
1000
0010
0000
0010
0100
0001
0000
0001
,
0010
0100
0000
0100
1000
0010
0100
0010
,
1000
0001
0000
0001
0100
1000
0000
1000
,
0100
0010
0000
0010
1000
1000
0001
0000
,
0110
1000
0002
0010
,
1003
0000
0000
0000
0001
0000
0100
0000
0001
0000
0000
0001
0000
0000
1000
0000
,
0010
0000
1000
0100
1000
0000
0100
0010
,
0002
0203
0320
2030
,
3001
0000
0010
0100
2000
0000
0010
0000
,
3001
0000
0000
0000
1000
0000
0100
0000
0010
0000
0000
0010
0000
0000
0001
0000
,
0100
0000
0010
1000
0001
0000
0010
0100
,
2000
0000
3020
0000
0130
0100
0001
0000
,
1001
0000
1000
0100
0010
0100
1000
0000
,
0010
0100
0001
0000
0100
0010
1000
0000
,
1001
0000
0001
0010
0100
0010
0001
0000
,
0100
0100
0001
0000
0100
0100
0010
1000
,
0002
0000
0000
0000
0013
0100
2000
0000
,
3010
0100
0001
0010
0100
0010
0001
0100
,
0010
0000
0110
0000
1001
0000
1000
0100
,
0010
0100
1000
0010
0100
0010
1000
0100
,
0010
0000
0110
0000
1001
0000
0001
0100
,
0010
0100
0001
0010
0100
0010
0001
0100
,
0010
0000
0110
0000
1001
0000
1000
0100
,
0020
0000
0031
0100
0020
0000
1030
0001
,
0020
0000
0001
0000
0130
0100
1000
0000
,
0001
0100
1000
0100
0001
1000
0001
0010
,
1000
0000
0110
0000
1001
0000
1000
0010
,
1000
0100
0001
0100
1000
0001
1000
0010
,
0001
0000
0110
0000
1001
0000
0001
0100
,
0001
0010
1000
0010
0001
1000
0001
0100
,
1000
0000
0110
0000
1001
0000
1000
0010
,
0200
0000
0301
0010
0200
0000
1300
0001
,
0100
0000
0000
0000
0000
0000
0000
0000
0000
0100
0000
0000
0000
0000
0000
0000
0000
0000
0010
0000
0000
0000
0000
0000
1000
0000
0000
0000
0001
0000
0000
0000
1000
0000
0000
0000
0001
0000
0000
0000
0000
0000
0000
0000
0000
0000
0000
0000
,
0020
0000
0230
0000
,
2300
0000
3002
0203
,
0320
0000
2030
0000
,
3002
0000
0000
0003
,
0020
0030
0100
1000
,
0010
1000
0100
0000
,
0020
0030
0001
1000
,
0010
0100
0001
0000
,
0010
1001
0000
1100
,
0000
0011
0000
0101
,
1000
0000
1000
0010
0100
0000
0100
0001
,
2000
0000
0100
0000
3010
0010
0010
0000
,
1001
0000
0001
0100
0010
0000
1000
0100
,
0010
0010
0010
0001
1000
1000
1000
0010
,
0200
0000
0020
0000
,
0330
0000
0001
0100
1000
0100
0001
0010
,
0100
0000
0110
0000
1001
0000
1000
0010
,
0100
0001
1000
0100
0001
0100
1000
0010
,
0100
0000
0110
0000
1001
0000
0001
0010
,
0100
1000
0001
0010
1000
0010
0001
0100
,
0010
0000
0110
0000
1001
0000
1000
0010
,
0200
0000
0000
0000
0301
0000
0010
0000
0100
0000
0000
0100
0000
0000
1000
0000
,
0001
0100
0001
0100
0010
0010
0010
0000
,
1000
0100
0001
1000
0010
0001
1000
0001
,
0100
0000
1001
0000
0110
0000
0001
0010
,
0001
0100
1000
0001
0010
1000
0001
1000
,
0100
0000
1001
0000
0110
0000
1000
0100
,
1000
0010
0001
1000
0100
0001
1000
0001
,
0010
0000
0110
0000
1001
0000
0001
0010
,
2000
0000
3001
0100
2000
0000
3001
0001
,
0100
0000
0000
0000
0000
0000
0000
0000
0000
0100
0000
0000
0000
0000
0000
0000
0000
0000
0010
0000
0000
0000
0000
0000
1000
0000
0000
0000
0001
0000
0000
0000
1000
0000
0000
0000
0001
0000
0000
0000
0000
0000
0000
0000
0000
0000
0000
0000
,
0020
0000
0030
0100
1000
0000
0001
0200
,
0020
0000
0000
0000
,
0030
0000
0000
0000
,
0300
0000
0000
0000
;

//--------------- dance-single - forcednature ----------------
#NOTEDATA:;
#STEPSTYPE:dance-single;
#DESCRIPTION:forcednature;
#DIFFICULTY:Hard;
#METER:15;
#RADARVALUES:0,0,0,0,0;
#CREDIT:forcednature;
#NOTES:
0000
0000
0000
0000
,
0000
0000
0000
0000
,
0000
0000
0000
0000
,
0000
0000
0000
0000
,
0000
0000
0000
0000
,
2001
0100
0000
3100
,
1002
0100
0000
0103
,
2001
3010
1002
0013
,
0001
0000
0000
0000
0000
0000
0000
0000
0000
0100
0000
0000
0010
0000
0000
0000
0000
0000
1000
0000
0000
0000
0000
0000
0001
0000
0000
0000
0010
0000
0000
0000
0100
0000
0000
0000
2000
0000
0000
0000
0000
0000
0000
0000
0000
0000
0000
0000
,
3010
0000
0100
0010
0100
0000
0001
0000
0010
0000
0001
1000
0100
0000
1000
0000
,
0010
0000
0100
0010
0100
0000
0001
0000
0010
0001
0010
0000
0100
0000
1000
0000
,
0001
0000
0100
0010
0100
0000
0010
0000
1000
0000
0001
1000
0100
0000
0010
0000
,
0001
0000
0100
0010
0100
0010
1000
0000
0002
0000
0023
0000
0230
0000
2300
0000
,
3001
0000
0100
0010
0100
0000
0010
0000
1000
0000
0001
0010
0100
0000
1000
0000
,
0010
0000
0100
0010
0100
0000
0001
0000
1000
0100
1000
0000
0010
0000
0100
0000
,
0001
0000
0001
0000
0010
0000
0001
0010
0100
0000
0100
0000
1000
0000
0100
1000
,
0001
0000
0001
0000
0100
0000
0010
0000
1000
0001
1000
0001
0200
0000
0000
0000
,
0310
0000
0000
1000
0000
0000
0100
0000
0020
0000
0000
0000
0001
0000
0000
0000
,
0130
0000
0000
0000
0010
0000
0001
1000
0001
0000
0000
0100
0000
0000
0010
0000
,
2000
0000
0000
0000
3100
0000
1000
0000
0001
0000
0000
0100
0000
0000
0010
0000
,
2000
0100
3200
0010
0320
0001
0032
1000
,
1003
0000
0000
0010
0100
0000
0001
0000
2001
0000
0000
0000
0100
0000
0000
0000
,
3010
0000
0000
0000
1000
0000
0100
0000
0010
0000
0000
0100
1000
0000
0001
0000
,
0020
0000
0000
0000
0031
0000
0100
0001
0100
0000
0000
0010
0000
0000
1000
0000
,
0002
0000
0010
0000
0023
0000
0100
0000
0130
0000
1000
0100
1000
0000
0000
0000
,
0011
0000
0000
0010
0100
0000
1000
0000
1010
0000
0000
0010
0100
0000
0001
0000
,
1002
0000
0000
0000
1003
0000
0100
0010
0200
0000
0000
0000
0310
0000
0001
1000
,
0001
0000
0100
0010
0000
1000
0010
0000
0100
0000
0001
1000
0000
0001
0010
0000
,
0100
0000
0100
0000
1000
0000
0100
0000
0010
0001
0010
0001
1000
0000
0010
0100
,
0002
0000
0000
0000
0000
0000
0003
0000
2000
3200
0320
0032
0023
0000
0030
0000
,
1001
0000
0000
0000
0001
0000
0100
0010
1000
0000
0001
0000
0010
0000
0100
0000
,
0010
0001
1000
0000
0100
1000
0001
0000
0011
0000
0000
0000
0100
0000
0010
0000
,
0110
0000
0000
0000
1000
0000
0100
0010
0001
0000
1000
0000
0010
0000
0100
0000
,
0010
1000
0001
0000
0100
0001
1000
0000
1010
0000
0000
0000
0010
0000
0100
0000
,
1001
0000
0000
0000
0001
0000
0010
0001
1000
0000
0010
0000
0100
0000
0001
0000
,
0010
0100
1000
0000
0010
0100
0001
0000
1001
0000
0000
0000
1000
0000
0100
1000
,
0010
0000
0000
1000
0001
0000
0100
0001
0010
0000
0000
0001
1000
0000
0010
0000
,
0200
0000
0001
0000
0001
0000
0310
0000
1000
0001
1000
0001
0010
0000
0100
0000
,
0010
0000
0001
0100
0000
0010
0100
0010
0100
0000
0010
1000
0000
0100
1000
0100
,
1000
0000
0010
0100
0001
0000
0010
0000
1001
0000
0000
0000
1000
0000
0010
0000
,
0110
0000
0100
0010
0000
0100
0001
0100
0001
0000
0010
0001
0000
0010
0100
1000
,
0100
0000
1000
0001
0010
0000
0100
0000
1001
0000
0000
0000
0001
0000
0100
0000
,
0110
0000
0010
1000
0000
0100
1000
0100
1000
0000
0010
0100
0000
0001
0010
0001
,
0010
0000
0100
0010
0001
0000
0100
0000
1001
0000
0000
0000
1000
0000
0010
0000
,
1001
0000
0001
0000
0010
0000
0001
1000
0100
0000
0100
0000
1000
0000
0010
0100
,
0001
0000
0000
0000
0000
0000
0000
0000
0000
0011
0000
0000
0000
0000
0000
0000
0000
0000
1000
0000
0000
0000
0000
0000
0001
0000
0000
0000
0100
0000
0000
0000
0010
0000
0000
0000
1000
0000
0000
0001
0000
0000
1000
0000
0000
0001
0000
0000
,
0020
0000
0000
0130
2000
0000
0000
3010
,
0200
0000
0000
0301
0010
0100
0010
0001
,
2000
0000
0000
3010
0200
0000
0000
0301
,
0020
0000
0000
0130
2000
0000
3010
0100
,
0002
0000
0000
0000
0013
0000
0001
0010
0000
0000
0100
0000
1000
0000
0001
0000
,
0100
0010
0100
0001
1000
0000
0010
1000
,
0020
0000
0000
0000
1030
0000
0100
1000
0000
0000
0001
0000
0100
0000
0001
0000
,
0010
0100
1000
0100
0002
0000
0103
1000
,
0010
0000
0110
0001
0010
0000
0110
1000
,
0010
0000
0101
1000
0010
0000
1100
0001
,
0010
0000
0001
0010
0001
0000
0100
0001
0100
0000
0010
0100
0010
0000
1000
0000
,
0100
1000
0100
1000
0100
0010
0100
0000
1000
0001
1000
0001
0010
0001
0010
0000
,
0100
0000
1000
0100
1000
0000
0010
1000
0010
0000
0100
0010
0100
0000
0001
0000
,
0010
0001
0010
0001
0010
0100
0010
0000
0001
0100
0001
0100
0010
1000
0010
1000
,
0002
0000
0000
0003
0020
0000
0200
0000
,
0330
0000
0000
0000
1001
0000
1000
0100
0010
0000
0001
0000
0100
0000
1000
0000
,
0100
0001
0010
0000
0100
1000
0010
0000
1001
0000
0000
0000
1000
0000
0010
0000
,
0110
0000
0001
0000
0010
0000
0001
0100
0010
0000
1000
0000
0001
0000
0010
0000
,
0001
0100
0010
0000
1000
0100
0010
0000
1001
0000
0000
0000
0001
0000
0010
0000
,
0011
0000
1000
0000
0010
0000
0100
0001
0010
0000
0100
0000
0010
0000
0001
0000
,
1000
0010
0100
0000
0001
0010
0100
0000
1001
0000
0000
0000
1000
0000
0100
1000
,
0010
0000
0000
0100
0010
0000
0100
0001
0010
0000
0000
0001
0100
0000
0010
0000
,
2000
0000
0100
0000
0100
0000
3001
0000
1000
0010
1000
0010
0100
0000
0001
0000
,
1001
0000
1000
0100
0000
1000
0010
0100
0010
0000
1000
0001
0000
0100
0001
0100
,
0010
0000
1000
0100
0010
0000
0100
0000
1001
0000
0000
0000
0001
0000
0010
0000
,
0011
0000
0001
0100
0000
0010
0100
0010
1000
0000
0001
0010
0000
0001
0100
0001
,
0010
0000
0100
1000
0010
0000
0100
0000
1001
0000
0000
0000
1000
0000
0010
0000
,
1001
0000
0001
0010
0000
0100
0010
0100
1000
0000
0001
0100
0000
0010
0100
0001
,
1000
0000
0100
0010
0001
0000
0100
0000
1001
0000
0000
0000
0001
0000
0010
0100
,
1000
0000
1000
0000
0010
0000
0100
0001
0010
0000
0010
0000
0100
0000
0010
0001
,
1000
0000
0000
0000
0000
0000
0000
0000
0000
1010
0000
0000
0000
0000
0000
0000
0000
0000
0001
0000
0000
0000
0000
0000
0010
0000
0000
0000
0100
0000
0000
0000
1000
0000
0000
0000
0010
0000
0000
0100
0000
0000
0010
0000
0000
0100
0000
0000
,
0002
0000
0013
0100
2000
0000
3010
0100
,
2002
0000
0000
0000
,
3000
0000
0000
0000
,
0003
0000
0000
0000
;

//--------------- dance-double - forcednature ----------------
#NOTEDATA:;
#STEPSTYPE:dance-double;
#DESCRIPTION:forcednature;
#DIFFICULTY:Easy;
#METER:6;
#RADARVALUES:0,0,0,0,0;
#CREDIT:forcednature;
#NOTES:
00000000
00000000
00000000
00000000
,
00000000
00000000
00000000
00000000
,
00000000
00000000
00000000
00000000
,
00000000
00000000
00000000
00000000
,
00000000
00000000
00000000
00000000
,
00011000
00000000
00000000
00000000
,
00100000
00000000
00000000
00000000
,
00010000
00000000
01000000
00000000
,
00100000
00100000
10000000
10000000
,
00010000
00000000
00100000
00000000
,
00001000
00000000
00010000
00001000
,
00010000
00000000
00000100
00000000
,
00001000
00000000
00000010
00001000
,
00000010
00000000
00000100
00000000
,
00000001
00000000
00000010
00000001
,
00000010
00000000
00000100
00000000
,
00001000
00000000
00001000
00000001
,
00000100
00000000
00000000
00000000
,
00001000
00001000
00001000
00000000
,
00010000
00000000
00100000
00000000
,
01000000
00000000
00000000
00000000
,
00100000
00000000
00000000
00000000
,
10000000
10000000
10000000
00000000
,
01000000
00000000
00010000
00000000
,
00001000
00001000
00001000
00000000
,
00011000
00000000
00000100
00000000
,
00001000
00000000
00000000
00000000
,
00000010
00000010
00000010
00000000
,
00001000
00000000
00000001
00000000
,
00000200
00000000
00000300
00000000
,
00001001
00000000
00000001
00000000
,
00000010
00000010
00000010
00000000
,
00000100
00000000
00010000
00000000
,
00001000
00001000
00001000
00000000
,
00100000
00000000
00010000
00000000
,
01000000
01000000
01000000
00000000
,
00100000
00000000
10000000
00000000
,
01000000
01000000
10000000
10000000
,
00010000
00000000
00100000
00000000
,
00001000
00010000
00001000
00000000
,
00010000
00000000
00000100
00000000
,
00001000
00000100
00001000
00000000
,
00000001
00000000
00000010
00000000
,
00000001
00001000
00000001
00000000
,
00000100
00000000
00000010
00000000
,
00001000
00001000
00001000
00000000
,
00000200
00000000
00000000
00000000
,
00000300
00000000
00000000
00000000
,
00020000
00000000
00000000
00000000
,
00030000
00000000
00000000
00000000
,
00002000
00000000
00003000
00000000
,
00200000
00000000
00300000
00000000
,
00020000
00000000
00030000
00000000
,
02000000
00000000
03000000
00000000
,
00000000
00100000
00000000
00100000
,
00000000
10000000
00000000
10000000
,
00010000
00010000
00010000
00100000
,
01000000
00000000
10000000
00000000
,
01000000
01000000
01000000
00000000
,
00010000
00000000
00001000
00000000
,
00022000
00000000
00000000
00000000
,
00033000
00011000
00000000
00000100
,
00001000
00001000
00000010
00000000
,
00000100
00000000
00000001
00000000
,
00000010
00000010
00000001
00000000
,
00000100
00000000
00000010
00000000
,
00001000
00001000
00000100
00000000
,
00010000
00010000
00001000
00001000
,
00100000
00010000
00100000
00000000
,
01000000
00000000
10000000
00000000
,
00100000
10000000
00100000
00000000
,
01000000
00000000
00010000
00000000
,
00100000
00010000
00100000
00000000
,
00001000
00000000
00010000
00000000
,
00000010
00001000
00000010
00000000
,
00000110
00000000
00001001
00000000
,
00001000
00001000
00000100
00000000
,
00010000
00000000
00001000
00000000
,
00200000
00000000
00000000
00000000
,
00000000
00000000
00000000
00000000
,
00300000
00000000
00000000
00000000
;

//--------------- dance-double - forcednature ----------------
#NOTEDATA:;
#STEPSTYPE:dance-double;
#DESCRIPTION:forcednature;
#DIFFICULTY:Medium;
#METER:12;
#RADARVALUES:0,0,0,0,0;
#CREDIT:forcednature;
#NOTES:
00000000
00000000
00000000
00000000
,
00000000
00000000
00000000
00000000
,
00000000
00000000
00000000
00000000
,
00000000
00000000
00000000
00000000
,
00000000
00000000
00000000
00000000
,
00022000
00033000
00100000
00100000
,
00022000
00033000
00000010
00000010
,
00000110
00001000
00011000
00010000
,
01000000
00000000
00000000
00000000
00000000
00000000
00000000
00000000
00000000
01000000
00000000
00000000
00000000
00000000
00000000
00000000
00000000
00000000
01000000
00000000
00000000
00000000
00000000
00000000
10000000
00000000
00000000
00000000
00010000
00000000
00000000
00000000
10000000
00000000
00000000
00000000
00010000
00000000
00000000
00000000
00000000
00000000
00000000
00000000
00000000
00000000
00000000
00000000
,
00100000
01000000
00000000
01000000
10000000
01000000
00000000
01000000
,
00010000
00001000
00000000
00001000
00100000
00001000
00010000
00000100
,
00010000
00001000
00000000
00001000
00000010
00000001
00000000
00000001
,
00000100
00000010
00000000
00000010
00001000
00000001
00000100
00001000
,
00010000
00000010
00000000
00000010
00001000
00000100
00000000
00000100
,
00010000
00001000
00000000
00001000
00100000
00010000
01000000
00100000
,
10000000
01000000
00000000
01000000
00010000
01000000
00000000
01000000
,
10000000
00100000
00000000
00100000
00010000
00010000
00001000
00000000
,
00011000
00000010
00002000
00000100
,
00003001
00000000
00000000
00000000
00001000
00000000
00000010
00000000
00010000
00000000
00000000
00010000
00000000
00000000
00001000
00000000
,
01000000
00000000
00010000
10000000
00100000
00000000
10000000
01000000
,
00200000
00320000
00032000
00003200
,
00000310
00000000
00000100
00001000
00000002
00000000
00000100
00000000
,
00001003
00000000
00000000
00000000
00000001
00000000
00000010
00000000
00000100
00000000
00000000
00000100
00000000
00000000
00001000
00000000
,
00000010
00000000
00000100
00000001
00001000
00000000
00000010
00001000
,
00020000
00000000
02030000
00000000
03100000
00100000
10000000
00000000
,
10010000
00000000
00010000
00100000
01000000
10000000
01000000
00000000
,
00010000
00001000
00000010
00000000
00001000
00010000
00100000
00000000
,
00011000
00000000
00000100
00001000
00000010
00001000
00000100
00000000
,
00000010
00000010
00000001
00000000
00000100
00000100
00000001
00001000
,
00000020
00000000
00000000
00000000
00000130
00001000
00020000
00000000
,
00130000
01000000
00100000
10000000
01000000
00010000
00001000
00100000
,
00010000
00000000
00101000
00000000
00010100
00000000
00001000
00000001
,
00000010
00000100
00000010
00000001
00000100
00001000
00010000
00000010
,
00001000
00000000
00010010
00000000
01001000
00000000
00010000
10000000
,
00100000
10000000
01000000
00010000
00001000
00100000
00010000
01000000
,
00100000
00000000
01001000
00000000
00010010
00000000
00000010
00001000
,
00000200
00000000
00000310
00000001
00000200
00000000
00001300
00010000
,
00200000
00000000
01000000
00000000
10300000
10000000
00010000
00000000
,
00100000
01000000
10000000
01000000
00010000
00001000
00000010
00001000
,
00010000
00000000
00101000
00000000
00010100
00000000
00000100
00001000
,
00000010
00000100
00000001
00000100
00001000
00010000
00100000
00010000
,
00001000
00000000
00010010
00000000
01001000
00000000
00010000
01000000
,
10000000
01000000
00010000
00100000
00001000
00010000
00000100
00001000
,
00000010
00000000
00000110
00000000
00001001
00000000
00000001
00000100
,
00002000
00000000
00013000
00100000
20000000
00000000
30010000
01000000
,
00100000
00000000
00000000
00000000
00000000
00000000
00000000
00000000
00000000
00100000
00000000
00000000
00000000
00000000
00000000
00000000
00000000
00000000
00100000
00000000
00000000
00000000
00000000
00000000
10000000
00000000
00000000
00000000
00010000
00000000
00000000
00000000
10000000
00000000
00000000
00000000
00010000
00000000
00000000
00000000
00000000
00000000
00000000
00000000
00000000
00000000
00000000
00000000
,
00200000
00000000
00302000
00000000
,
00023000
00000000
00030200
00002300
,
00003020
00000000
00020030
00000000
,
00032000
00000000
00000000
00003000
,
02000000
03000000
00010000
00100000
,
01000000
00100000
00001000
00000000
,
00020000
00030000
00000100
00001000
,
00000010
00001000
00000001
00000000
,
00000100
00001001
00000000
00010100
,
00000000
01001000
00000000
10010000
,
00010000
00000000
00010000
00100000
01000000
00000000
01000000
00010000
,
00002000
00000000
00100000
00000000
00010000
00010000
00013000
00000000
,
00011000
00000000
00000100
00001000
00000010
00000000
00000100
00000001
,
00000010
00000010
00000010
00001000
00010000
00010000
00010000
00000000
,
02000000
00000000
00200000
00000000
,
03300000
00000000
00010000
01000000
10000000
01000000
00010000
00100000
,
00001000
00000000
00011000
00000000
00010010
00000000
00010000
00001000
,
00010000
00000010
00001000
00000100
00000001
00000100
00001000
00000010
,
00010000
00000000
00011000
00000000
00101000
00000000
01000000
00010000
,
10000000
00100000
00010000
00001000
01000000
00010000
00100000
00001000
,
00010000
00000000
00011000
00000000
00010010
00000000
00000010
00001000
,
00000200
00000000
00000000
00000000
00000310
00000000
00000001
00000000
00000100
00000000
00000000
00000100
00000000
00000000
00001000
00000000
,
00010000
00100000
00010000
00100000
10000000
10000000
10000000
00000000
,
01000000
00010000
00001000
00100000
00010000
00100000
00001000
00000010
,
00000100
00000000
00010100
00000000
00001010
00000000
00001000
00000001
,
00000100
00001000
00010000
00000010
00001000
00000010
00010000
00100000
,
01000000
00000000
01001000
00000000
00110000
00000000
10000000
00100000
,
10000000
01000000
00010000
00001000
00000100
00000001
00000010
00000100
,
00001000
00000000
00001010
00000000
00010100
00000000
00010000
00001000
,
00000020
00000000
00001030
00010000
00200000
00000000
01300000
01000000
,
00010000
00000000
00000000
00000000
00000000
00000000
00000000
00000000
00000000
00010000
00000000
00000000
00000000
00000000
00000000
00000000
00000000
00000000
00010000
00000000
00000000
00000000
00000000
00000000
00100000
00000000
00000000
00000000
01000000
00000000
00000000
00000000
00100000
00000000
00000000
00000000
01000000
00000000
00000000
00000000
00000000
00000000
00000000
00000000
00000000
00000000
00000000
00000000
,
20000000
00000000
30000000
00100000
00010000
00000000
00001000
00020000
,
00000200
00000000
00000000
00000000
,
00000300
00000000
00000000
00000000
,
00030000
00000000
00000000
00000000
;

//--------------- dance-double - forcednature ----------------
#NOTEDATA:;
#STEPSTYPE:dance-double;
#DESCRIPTION:forcednature;
#DIFFICULTY:Hard;
#METER:15;
#RADARVALUES:0,0,0,0,0;
#CREDIT:forcednature;
#NOTES:
00000000
00000000
00000000
00000000
,
00000000
00000000
00000000
00000000
,
00000000
00000000
00000000
00000000
,
00000000
00000000
00000000
00000000
,
00000000
00000000
00000000
00000000
,
00012000
00000010
00000000
00003010
,
00021000
00100000
00000000
00130000
,
00012000
00003100
00021000
01030000
,
00010000
00000000
00000000
00000000
00000000
00000000
00000000
00000000
00000000
00001000
00000000
00000000
00000000
00000000
00000000
00000000
00000000
00000000
00000010
00000000
00000000
00000000
00000000
00000000
00000001
00000000
00000000
00000000
00000100
00000000
00000000
00000000
00000001
00000000
00000000
00000000
00000200
00000000
00000000
00000000
00000000
00000000
00000000
00000000
00000000
00000000
00000000
00000000
,
00000310
00000000
00000000
00000010
00001000
00000000
00000100
00000000
00000001
00000000
00000100
00000000
00010000
00000000
00001000
00000000
,
00100000
00000000
00000000
00100000
00010000
00000000
01000000
00000000
00100000
10000000
00100000
00000000
10000000
00000000
01000000
00000000
,
00010000
00000000
00000000
00010000
00001000
00000000
00100000
00000000
00010000
00000000
00100000
00000000
00001000
00000000
00000010
00000000
,
00000100
00000000
00000000
00000100
00001000
00000000
00000001
00000000
00000200
00000000
00002300
00000000
00023000
00000000
00230000
00000000
,
01300000
00000000
00000000
01000000
00010000
00000000
10000000
00000000
00100000
00000000
10000000
00000000
01000000
00000000
00010000
00000000
,
00001000
00000000
00000000
00001000
00100000
00000000
00010000
00000000
01000000
00100000
01000000
00000000
00100000
00000000
10000000
00000000
,
01000000
00000000
01000000
00000000
00010000
00000000
00001000
00010000
00001000
00000000
00001000
00000000
00000010
00000000
00000001
00000010
,
00000001
00000000
00000100
00000000
00001000
00000000
00010000
00000000
00100000
01000000
00100000
01000000
00020000
00000000
00000000
00000000
,
10030000
00000000
00000000
00100000
00000000
00000000
10000000
00000000
02000000
00000000
00000000
00000000
00010000
00000000
00000000
00000000
,
13000000
00000000
00000000
00000000
01000000
00000000
00000000
00010000
00001000
00000000
00000000
00000010
00000000
00000000
00000100
00000000
,
00020000
00000000
00000000
00000000
00030010
00000000
00001000
00000000
00000001
00000000
00000000
00000100
00000000
00000000
00001000
00000000
,
00020000
00100000
00230000
10000000
20300000
01000000
32000000
00010000
,
03010000
00000000
00000000
00010000
00001000
00000000
00100000
00000000
00020000
00000000
00000000
00000000
01000000
00000000
00000000
00000000
,
10030000
00000000
00000000
00000000
00010000
00000000
00000000
00100000
00001000
00000000
00000000
00010000
00000000
00000000
00000100
00000000
,
00002000
00000000
00000000
00000000
00003010
00000000
00000100
00000010
00000100
00000000
00000000
00000001
00000000
00000000
00000010
00000000
,
00002000
00000000
00010000
00000000
00023000
00000000
00100000
00000000
00130000
00000000
10000000
00100000
10000000
00000000
00000000
00000000
,
01010000
00000000
00000000
00010000
00100000
00000000
00001000
00000000
00010000
00000000
00000000
00000010
00001000
00000000
00000100
00000000
,
00000020
00000000
00000000
00000000
00000031
00000000
00000100
00000001
00000200
00000000
00000000
00000000
00001300
00000000
00010000
00001000
,
00010000
00000000
00000000
00100000
00000000
10000000
00100000
00000000
10000000
00000000
00000000
01000000
00000000
00010000
01000000
00000000
,
00010000
00000000
00001000
00000000
00010000
00000000
00001000
00000000
00000010
00000000
00000100
00000010
00000100
00000000
00001000
00000001
,
00000200
00000000
00000000
00000000
00000000
00000000
00000300
00000000
00000002
00000023
00000230
00002300
00003200
00000000
00000300
00000000
,
00001001
00000000
00000000
00000000
00000001
00000000
00000000
00000100
00001000
00000000
00010000
00000000
00100000
00000000
00010000
00000000
,
00001000
00010000
00001000
00000000
01000000
00010000
00100000
00000000
00110000
00000000
00000000
00000000
01000000
00000000
00100000
00000000
,
01100000
00000000
00000000
00000000
10000000
00000000
00000000
01000000
00010000
00000000
00001000
00000000
00100000
00000000
00010000
00000000
,
00100000
00001000
00010000
00000000
00000100
00010000
00001000
00000000
00011000
00000000
00000000
00000000
00000010
00000000
00001000
00000000
,
00001100
00000000
00000000
00000000
00000001
00000000
00000000
00000010
00001000
00000000
00010000
00000000
00001000
00000000
00100000
00000000
,
00010000
01000000
00100000
00000000
10000000
01000000
00100000
00000000
10010000
00000000
00000000
00000000
10000000
00000000
00000000
01000000
,
00010000
00000000
00000000
00000000
00001000
00000000
00000000
00000010
00000001
00000000
00000000
00000001
00000100
00000000
00001000
00000000
,
00020000
00000000
00000000
00000000
00031000
00000000
00001000
00000000
00100000
00010000
00100000
00010000
01000000
00000000
00100000
00000000
,
10000000
00000000
01000000
10000000
00000000
01000000
00010000
00000000
00001000
00000000
00100000
00001000
00000000
00010000
00001000
00000000
,
00000010
00000000
00000100
00001000
00000010
00000000
00000100
00000000
00001001
00000000
00000000
00000000
00000001
00000000
00000100
00000000
,
00001000
00000000
00010000
00001000
00000000
00100000
00010000
00000000
00100000
00000000
01000000
10000000
00000000
01000000
00010000
00000000
,
00001000
00000000
00100000
00001000
00010000
00000000
00000100
00000000
00011000
00000000
00000000
00000000
00001000
00000000
00000010
00000000
,
00000001
00000000
00000100
00000001
00000000
00000100
00000010
00000000
00001000
00000000
00000100
00000010
00000000
00000100
00010000
00000000
,
00001000
00000000
00100000
00010000
01000000
00000000
00100000
00000000
10010000
00000000
00000000
00000000
10000000
00000000
01000000
00000000
,
00010000
00010000
00001000
00000010
00000001
00000001
00000100
00001000
,
00010000
00000000
00000000
00000000
00000000
00000000
00000000
00000000
00000000
00011000
00000000
00000000
00000000
00000000
00000000
00000000
00000000
00000000
00100000
00000000
00000000
00000000
00000000
00000000
00010000
00000000
00000000
00000000
01000000
00000000
00000000
00000000
00100000
00000000
00000000
00000000
10000000
00000000
00000000
00010000
00000000
00000000
10000000
00000000
00000000
00010000
00000000
00000000
,
00200000
00000000
00000000
01300000
20000000
00000000
00000000
31000000
,
00020000
00000000
00000000
00031000
00100000
00010000
00100000
00001000
,
00000020
00000000
00000000
00000130
00020000
00000000
00000000
00030010
,
00002000
00000000
00000000
00003001
00000200
00000000
00001300
00010000
,
00200000
00000000
00000000
00000000
01300000
00000000
00100000
10000000
00000000
00000000
01000000
00000000
00010000
00000000
01000000
00000000
,
10000000
00100000
00010000
00001000
00010000
00000000
00001000
00000010
,
00000002
00000000
00000000
00000000
00000013
00000000
00000100
00000010
00000000
00000000
00000100
00000000
00010000
00000000
00000010
00000000
,
00001000
00000001
00000100
00001000
00020000
00000000
00030010
00001000
,
00000100
00000000
00011000
00100000
00010000
00000000
00011000
00000010
,
00001000
00000000
00011000
01000000
00100000
00000000
00011000
00000100
,
00000010
00000000
00000001
00000010
00000001
00000000
00000100
00000001
00000100
00000000
00000010
00000100
00000010
00000000
00001000
00000000
,
00000100
00001000
00000100
00001000
00000100
00000000
00010000
00000000
00001000
00010000
00001000
00010000
00001000
00000000
00100000
00010000
,
00100000
00000000
00000000
00000000
00010000
00000000
01000000
00010000
01000000
00000000
00100000
01000000
00100000
00000000
10000000
00000000
,
01000000
10000000
01000000
10000000
01000000
00000000
00010000
00000000
00001000
00010000
00001000
00010000
00001000
00000000
00000010
00000000
,
00000220
00000000
00000000
00000330
00000002
00000000
00002000
00000000
,
00003003
00000000
00000000
00000000
00100000
00000000
00010000
01000000
00100000
00000000
10000000
00000000
01000000
00000000
00010000
00000000
,
00001000
00010000
00000100
00000000
00010000
00001000
00100000
00000000
00011000
00000000
00000000
00000000
00000010
00000000
00001000
00000000
,
00000100
00000000
00000001
00000000
00000100
00000000
00001000
00000010
00001000
00000000
00000001
00000000
00000100
00000000
00001000
00000000
,
00010000
00000010
00001000
00000000
00000100
00010000
00001000
00000000
00011000
00000000
00000000
00000000
00100000
00000000
00010000
00000000
,
01000000
00000000
10000000
00000000
01000000
00000000
00010000
10000000
00100000
00000000
01000000
00000000
00010000
00000000
00100000
00000000
,
00001000
00010000
00000100
00000000
00001000
00000001
00000010
00000000
00001001
00000000
00000000
00000000
00000001
00000000
00000000
00000100
,
00001000
00000000
00000000
00000000
00010000
00000000
00000000
00100000
10000000
00000000
00000000
10000000
01000000
00000000
00010000
00000000
,
00002000
00000000
00000000
00000000
00013000
00000000
00010000
00000000
00000010
00001000
00000010
00001000
00000100
00000000
00000010
00000000
,
00001001
00000000
00000001
00000100
00000000
00000010
00000100
00000000
00000010
00000000
00001000
00000100
00000000
00010000
00001000
00010000
,
00001000
00000000
00100000
00010000
01000000
00000000
00100000
00000000
10010000
00000000
00000000
00000000
10000000
00000000
01000000
00000000
,
00010000
00000000
00001000
00010000
00000000
00000100
00001000
00000000
00000010
00000000
00000100
00000001
00000000
00000010
00000001
00000010
,
00000001
00000000
00000100
00000010
00001000
00000000
00000100
00000000
00011000
00000000
00000000
00000000
00100000
00000000
00010000
00000000
,
00110000
00000000
10000000
01000000
00000000
10000000
00100000
00000000
01000000
00000000
00010000
00100000
00000000
00001000
00010000
00001000
,
00010000
00000000
00000010
00001000
00000100
00000000
00000010
00000000
00001001
00000000
00000000
00000000
00000001
00000000
00000000
00000100
,
00001000
00000000
00001000
00000000
00010000
00000000
00000000
00100000
10000000
00000000
10000000
00000000
01000000
00000000
00100000
00010000
,
10000000
00000000
00000000
00000000
00000000
00000000
00000000
00000000
00000000
11000000
00000000
00000000
00000000
00000000
00000000
00000000
00000000
00000000
00010000
00000000
00000000
00000000
00000000
00000000
00100000
00000000
00000000
00000000
00001000
00000000
00000000
00000000
00010000
00000000
00000000
00000000
00000100
00000000
00000000
00001000
00000000
00000000
00000100
00000000
00000000
00001000
00000000
00000000
,
00000002
00000000
00000103
00001000
00020000
00000000
01030000
10000000
,
00200000
00000000
00000000
00000000
,
00000000
00000000
00000000
00000000
,
00300000
00000000
00000000
00000000
;
