#TITLE:Have Mercy;
#SUBTITLE:;
#ARTIST:Chloe Bailey;
#TITLETRANSLIT:;
#SUBTITLETRANSLIT:;
#ARTISTTRANSLIT:;
#GENRE:;
#CREDIT:;
#BANNER:;
#BACKGROUND:;
#LYRICSPATH:;
#CDTITLE:;
#MUSIC:Have_Mercy.ogg;
#OFFSET:0.688000;
#SAMPLESTART:54.209583;
#SAMPLELENGTH:14.999996;
#SELECTABLE:YES;
#BPMS:0.000000=130.000000
,224.000000=65.000000
,240.000000=130.000000
;
#STOPS:
;
#BGCHANGES:;
#KEYSOUNDS:;
#ATTACKS:;

//---------------dance-single - ----------------
#NOTES:
     dance-single:
     :
     Challenge:
     14:
     0.530663,0.963719,0.014918,0.328201,0.365497,498.000000,496.000000,2.000000,44.000000,23.000000,0.000000,0.530663,0.963719,0.014918,0.328201,0.365497,498.000000,496.000000,2.000000,44.000000,23.000000,0.000000:
// measure 0
0000
0000
0000
0000
,  // measure 1
0000
0000
0000
0000
,  // measure 2
0000
0000
0000
0000
,  // measure 3
0000
0000
0000
0000
,  // measure 4
1000
0000
0000
0100
0000
0000
0010
0000
,  // measure 5
0000
0010
0000
0000
,  // measure 6
0001
0000
0000
0100
0000
0000
0010
0000
,  // measure 7
0000
0010
0000
0000
,  // measure 8
1000
1000
0001
0010
1000
0000
1000
0010
,  // measure 9
0001
0000
0001
0000
1000
0000
0010
0000
0001
0000
0000
0000
0010
0000
0001
0010
,  // measure 10
0001
0010
1000
0100
0001
0000
0001
0100
,  // measure 11
1000
0000
0010
0100
0010
0000
1000
0000
0001
0000
0000
0000
MMMM
0000
0000
0000
,  // measure 12
1000
0000
0000
1000
0010
0100
0001
0010
,  // measure 13
0000
0000
0001
0000
0010
0000
0100
0000
1000
0001
1000
0000
0001
1000
0010
1000
,  // measure 14
0001
0000
0000
0001
0010
0100
1000
0010
,  // measure 15
0000
0000
1000
0000
0010
0000
0100
0000
0001
1000
0001
0000
0010
0000
0100
0000
,  // measure 16
2000
0000
0000
0000
0000
0000
3010
0100
0002
0000
0000
0000
0000
0000
1003
0100
,  // measure 17
0010
0000
0001
0000
1000
0000
0000
0000
0001
0000
0000
0000
0010
0100
1000
0000
,  // measure 18
1000
0000
0001
0200
0010
0010
1000
1300
,  // measure 19
0100
0000
0010
0000
1000
0000
0100
0000
0010
0100
0010
0000
0001
0000
1000
0000
,  // measure 20
0020
0100
1030
0200
0010
0301
0200
0010
,  // measure 21
1300
0000
0010
0000
0200
0000
1000
0000
0310
0100
0010
0000
1000
0000
0001
0000
,  // measure 22
0020
0100
0031
0200
0010
1300
0200
0010
,  // measure 23
0301
0000
0010
0000
0200
0000
0001
0000
0310
0100
0010
0000
0010
0000
0001
0000
,  // measure 24
2000
0001
3010
0200
1000
0310
2000
0001
,  // measure 25
3100
0000
0010
0000
0002
0000
1000
0000
0013
0001
0010
0000
0100
0000
1000
0000
,  // measure 26
0001
0200
1000
1000
0001
0301
1000
0200
,  // measure 27
0001
0000
0001
0000
1000
0000
1300
0000
0010
1000
0010
0000
0100
0000
0001
0000
,  // measure 28
2000
0100
0000
0000
0001
0000
0000
0000
3010
0000
0000
0000
0100
0000
0000
0000
,  // measure 29
0020
0000
0000
0100
0130
0000
MMMM
0000
,  // measure 30
1001
0000
0000
1000
0100
M000
0100
0000
0001
0000
0000
0000
0010
0000
0010
0000
,  // measure 31
0001
0000
0000
0001
0100
000M
0100
0000
1000
0010
1000
0000
0001
0000
0100
0000
,  // measure 32
0020
0000
1000
1000
0100
0000
0100
0100
,  // measure 33
2030
0000
0000
0000
0010
0000
0010
0000
3001
1000
0001
0000
0010
0000
0100
0000
,  // measure 34
1000
1000
0001
0100
1000
0000
1000
0100
,  // measure 35
0001
0000
0001
0000
1000
0000
0100
0000
0001
0100
0001
0000
0100
0000
1000
0100
,  // measure 36
1000
1000
0001
0100
1000
0000
1000
0100
,  // measure 37
0001
0000
0010
0100
0010
0000
0001
0000
1000
0000
0000
0000
MMMM
0000
0000
0000
,  // measure 38
0001
0000
0000
0000
0000
0000
0000
0000
0010
0000
0000
0001
0000
0000
0010
0000
0000
0000
0010
0000
0100
0000
0000
0000
0100
0000
0000
0010
0000
0000
0100
0000
,  // measure 39
0000
0000
0100
0000
1000
0000
0000
0000
1000
0000
0000
0100
0000
0000
1000
0000
0000
0000
1000
0000
0001
0000
0000
0000
1000
0000
0001
0000
0010
0000
0001
0000
,  // measure 40
1000
0000
0000
0000
0000
0000
0000
0000
0010
0000
0000
1000
0000
0000
0010
0000
0000
0000
0010
0000
0100
0000
0000
0000
0100
0000
0000
0010
0000
0000
0100
0000
,  // measure 41
0000
0000
0100
0000
0001
0000
0000
0000
0001
0000
0000
0100
0000
0000
0001
0000
0000
0000
0001
0000
1000
0000
0100
0000
0010
0000
0000
0000
0001
0000
0000
0000
,  // measure 42
1000
0000
0000
0000
0000
0000
0000
0000
0010
0000
0000
1000
0000
0000
0100
0000
M000
0000
0100
0000
0001
0000
0000
0000
0010
0000
0000
0001
0000
0000
0100
0000
,  // measure 43
000M
0000
0100
0000
1000
0000
0000
0000
0010
0000
0000
1000
0000
0000
0100
0000
M000
0000
0100
0000
0001
0000
0000
0000
0010
0000
0100
0000
1000
0000
0000
0000
,  // measure 44
0001
0000
1000
0200
0010
0010
0001
0301
,  // measure 45
0100
0000
0010
0000
0001
0000
0100
0000
0010
0100
0010
0000
1000
0000
0001
0000
,  // measure 46
0020
0100
0031
0200
0010
1300
0200
0010
,  // measure 47
0301
0000
0010
0000
0200
0000
0001
0000
0310
0100
0010
0000
0001
0000
1000
0000
,  // measure 48
0020
0100
1030
0200
0010
0301
0200
0010
,  // measure 49
1300
0000
0010
0000
0200
0000
1000
0000
0310
0100
0010
0000
0010
0000
1000
0000
,  // measure 50
0002
1000
0013
0200
0001
0310
0002
1000
,  // measure 51
0103
0000
0010
0000
2000
0000
0001
0000
3010
1000
0010
0000
0100
0000
0001
0000
,  // measure 52
1000
0200
0001
0001
1000
1300
0001
0200
,  // measure 53
1000
0000
1000
0000
0001
0000
0301
0000
0010
0001
0010
0000
0100
0000
1000
0000
,  // measure 54
0002
0100
0000
0000
1000
0000
0000
0000
0013
0000
0000
0000
0100
0000
0000
0000
,  // measure 55
0020
0000
0000
0100
0130
0000
MMMM
0000
,  // measure 56
1000
0000
0000
0000
0000
0000
0100
0000
0000
0000
0000
0000
0010
0000
0000
0000
0000
0000
0000
0000
0010
0000
0000
0000
0010
0100
0010
0100
2000
0000
0000
0000
,  // measure 57
3001
0000
0000
0000
0000
0000
0100
0000
0000
0000
0000
0000
0010
0000
0000
0000
0000
0000
0000
0000
0010
0000
0000
0000
0010
0100
0010
0100
0002
0000
0000
0000
,  // measure 58
1003
0000
1000
0000
0001
0000
0010
0000
1000
0000
0000
0000
1000
0000
0010
0000
0001
0000
0001
0000
1000
0000
0010
0000
0100
0010
0100
0010
1000
0000
1000
0001
,  // measure 59
1000
0000
1000
0000
0001
0000
0010
0000
1000
0000
0000
0000
1000
0000
0010
0000
0001
0000
0100
0010
0100
0000
0001
0000
0010
0100
0010
0100
1000
0000
1000
0000
,  // measure 60
1001
0000
0000
0001
0100
000M
0100
0000
1000
0000
0000
0000
0010
0000
0010
0000
,  // measure 61
1000
0000
0000
1000
0100
M000
0100
0000
0001
0010
0001
0000
1000
0000
0100
0000
,  // measure 62
0020
0000
0001
0001
0100
0000
0100
0100
,  // measure 63
0032
0000
0000
0000
0010
0000
0010
0000
1003
0001
1000
0000
0010
0000
0100
0000
,  // measure 64
0001
0001
1000
0100
0001
0000
0001
0100
,  // measure 65
1000
0000
1000
0000
0001
0000
0100
0000
1000
0100
1000
0000
0100
0000
0001
0100
,  // measure 66
0001
0001
1000
0100
0001
0000
0001
0100
,  // measure 67
1000
0000
0010
0100
0010
0000
1000
0000
0002
0000
0000
0000
2000
0000
0000
0000
,  // measure 68
3003
0000
0000
0000
;

//---------------dance-single - ----------------
#NOTES:
     dance-single:
     :
     Hard:
     11:
     0.410252,0.735470,0.059673,0.246151,0.082050,385.000000,377.000000,8.000000,33.000000,0.000000,0.000000,0.410252,0.735470,0.059673,0.246151,0.082050,385.000000,377.000000,8.000000,33.000000,0.000000,0.000000:
0000
0000
0000
0000
,
0000
0000
0000
0000
,
0000
0000
0000
0000
,
0000
0000
0000
0000
,
0001
0000
0000
0010
0000
0000
0100
0000
,
0000
0100
0000
0000
,
1000
0000
0000
0010
0000
0000
0100
0000
,
0000
0100
0000
0000
,
0001
0001
1000
0100
0010
0000
0110
0000
,
1000
1000
0001
0100
0010
0000
0100
0010
,
1000
1000
0001
0010
0100
0000
0110
0000
,
0001
0001
1000
0010
0100
0000
0010
0000
,
0100
0000
0000
0100
0001
0000
0001
0010
,
0000
0010
0100
0000
0010
0100
2000
0000
,
3100
0000
0000
0100
1000
0000
1000
0010
,
0000
0010
0100
0000
0010
0100
0002
0000
,
0023
0000
0000
0100
0230
0000
0000
1000
,
2300
0000
3020
0000
0130
0000
0010
1000
,
0001
0000
1000
0100
0010
0100
0010
0100
,
1000
0001
0100
0010
0000
0100
0100
0000
,
0010
0100
0001
0000
0001
0000
0010
0100
,
1000
0000
0001
0100
0010
0010
0100
0000
,
0010
0010
1000
0001
0010
0010
0001
1000
,
0010
0010
1000
0001
0010
0010
0100
0000
,
0010
0100
1000
0000
1000
0000
0010
0100
,
0001
0000
1000
0100
0010
0010
0100
0000
,
0010
0100
1000
0001
1000
0001
1000
0010
,
0100
0010
0100
0010
1000
0000
0001
1000
,
0002
0023
0230
2300
,
3002
0000
0000
1000
1003
0000
0001
0000
,
1000
0000
0010
0100
1000
0000
0100
0010
,
1000
0000
0010
0100
1000
0000
0100
0010
,
2000
0010
0001
0100
,
3002
0010
2003
0010
,
3001
0001
1000
0100
0010
0000
0110
0000
,
1000
1000
0001
0100
0010
0000
0100
0010
,
1000
1000
0001
0010
0100
0000
0110
0000
,
0001
0001
1000
0010
0100
0000
0010
0000
,
1000
0000
0000
0000
0200
0000
0000
0010
0000
0000
0301
0000
0200
0000
0000
0010
,
0000
0000
0301
0000
0200
0000
0000
0010
0000
0000
1300
0000
0100
0000
1000
0000
,
0001
0000
0000
0000
0200
0000
0000
0010
0000
0000
1300
0000
0200
0000
0000
0010
,
0000
0000
1300
0000
0200
0000
0000
0010
0000
0000
0301
0000
0100
0000
0001
0000
,
1000
0000
0000
0000
0200
0000
0000
0001
0000
0000
0301
0000
0200
0000
0000
0010
,
0000
0000
0310
0000
0200
0000
0000
1000
0000
0000
1300
0000
0100
0000
1000
0000
,
0001
0000
1000
0010
0100
0010
0100
0010
,
1000
0001
0010
0100
0000
0010
0010
0000
,
0100
0010
0001
0000
0001
0000
0100
0010
,
1000
0000
0001
0010
0100
0100
0010
0000
,
0100
0100
1000
0001
0100
0100
0001
1000
,
0100
0100
1000
0001
0100
0100
0010
0000
,
0100
0010
1000
0000
1000
0000
0100
0010
,
0001
0000
1000
0010
0100
0100
0010
0000
,
0100
0010
1000
0001
1000
0001
1000
0100
,
0010
0100
0010
0100
1000
0000
0001
1000
,
0002
0203
0320
2030
,
3002
0000
0000
1000
1003
0000
0001
0000
,
1000
0000
0000
0010
0000
0000
0100
0000
0000
0000
0100
0000
0010
0100
0001
0000
,
0001
0000
0000
0010
0000
0000
0100
0000
0000
0000
0100
0000
0010
0100
1000
0000
,
1000
1000
0001
0100
0010
0000
0110
0000
0001
0001
1000
0100
0010
0000
0100
0010
,
0001
0001
1000
0010
0100
0000
0110
0000
1000
1000
0001
0010
0100
0000
1000
0000
,
0001
0000
0100
0010
0001
0000
0010
0100
,
0001
0000
0100
0010
0001
0000
0010
0100
,
0002
0100
1000
0010
,
2003
0100
3002
0100
,
1003
1000
0001
0010
0100
0000
0110
0000
,
0001
0001
1000
0010
0100
0000
0010
0100
,
0001
0001
1000
0100
0010
0000
0110
0000
,
1000
1000
0001
0100
0020
0000
0200
0000
,
0330
0000
0000
0000
;

//---------------dance-single - ----------------
#NOTES:
     dance-single:
     :
     Medium:
     8:
     0.303693,0.557943,0.000000,0.589271,0.026107,285.000000,285.000000,0.000000,79.000000,0.000000,0.000000,0.303693,0.557943,0.000000,0.589271,0.026107,285.000000,285.000000,0.000000,79.000000,0.000000,0.000000:
0000
0000
0000
0000
,
0000
0000
0000
0000
,
0000
0000
0000
0000
,
0000
0000
0000
0000
,
1000
0000
0000
0010
0000
0000
0100
0000
,
0000
0100
0000
0000
,
0001
0000
0000
0010
0000
0000
0100
0000
,
0000
0100
0000
0000
,
1000
0000
0010
1000
0010
0000
0100
0000
,
0010
1000
0010
0000
0100
0000
0001
1000
,
0001
0000
0010
0001
0010
0000
0100
0000
,
0010
0001
0010
0000
0001
0000
1000
0000
,
0001
0000
0000
0010
0000
0000
0100
0000
,
0000
0000
0100
0000
0100
1000
0200
0000
,
1300
0000
0000
0010
0000
0000
0100
0000
,
0000
0000
0100
0000
0100
0001
0100
0000
,
0002
0000
0023
0000
,
0130
0010
0100
0000
0000
0000
2000
0000
,
3001
0000
1000
0001
1000
0000
0010
0000
,
1000
0001
1000
0000
0100
0000
0010
0000
,
0002
0203
2300
3020
,
0032
0203
2300
3002
,
2003
3200
0302
0023
,
2030
3200
0301
0001
,
2000
3200
0302
0023
,
2030
3200
0302
2003
,
3002
0100
0103
2000
,
0010
3010
0100
0010
,
2000
3200
0320
0031
,
2000
0000
0000
0001
3001
0000
1000
0000
,
0010
0000
1000
0100
1000
0000
0010
0000
,
0100
0000
0001
0010
0001
0000
0100
0000
,
0002
1000
0010
0100
,
2003
0010
0002
3003
,
0001
0000
0010
0001
0010
0000
0100
0000
,
0010
0001
0010
0000
0100
0000
1000
0001
,
1000
0000
0010
1000
0010
0000
0100
0000
,
0010
1000
0010
0000
1000
0000
0001
0000
,
1000
0200
0001
0320
,
0001
0000
0230
0000
0001
0000
0310
0010
,
0001
0200
1000
0320
,
1000
0000
0230
0000
1000
0000
0310
0010
,
1000
0200
0001
0010
,
0001
0000
1000
0000
0010
0000
1300
1000
,
0001
0000
1000
0001
1000
0000
0010
0000
,
1000
0001
1000
0000
0100
0000
0010
0000
,
0002
0203
2300
3020
,
0032
0203
2300
3002
,
2003
3200
0302
0023
,
2030
3200
0301
0001
,
2000
3200
0302
0023
,
2030
3200
0302
2003
,
3002
0100
0103
2000
,
0010
3010
0100
0010
,
2000
3200
0320
0031
,
2000
0000
0000
0001
3001
0000
1000
0000
,
0001
0000
0000
0100
0000
0000
0010
0000
0000
0000
0010
0000
0200
0000
0302
0000
,
1003
0000
0000
0100
0000
0000
0010
0000
0000
0000
0010
0000
0200
0000
2300
0000
,
3001
0000
0010
0001
0010
0000
0100
0000
0010
0001
0010
0000
0100
0000
1000
0001
,
1000
0000
0010
1000
0010
0000
0100
0000
0010
1000
0010
0000
0100
0000
0001
0000
,
0010
0000
0001
0100
0001
0000
0010
0000
,
0100
0000
1000
0010
1000
0000
0100
0000
,
2000
0001
0010
0100
,
3002
0010
2000
3003
,
1000
0000
0010
1000
0010
0000
0100
0000
,
0010
1000
0010
0000
0100
0000
0001
1000
,
0001
0000
0010
0001
0010
0000
0100
0000
,
0010
0001
0010
0000
0002
0000
2000
0000
,
3003
0000
0000
0000
;

//---------------dance-single - ----------------
#NOTES:
     dance-single:
     :
     Easy:
     5:
     0.208855,0.329693,0.000000,0.246151,0.000000,196.000000,196.000000,0.000000,33.000000,0.000000,0.000000,0.208855,0.329693,0.000000,0.246151,0.000000,196.000000,196.000000,0.000000,33.000000,0.000000,0.000000:
0000
0000
0000
0000
,
0000
0000
0000
0000
,
0000
0000
0000
0000
,
0000
0000
0000
0000
,
1000
0000
0000
1000
0000
0000
1000
0000
,
0000
1000
0000
0000
,
0001
0000
0000
0001
0000
0000
0001
0000
,
0000
0001
0000
0000
,
1000
0010
0002
0003
,
1000
0100
0002
1003
,
0001
0010
1000
0000
,
0001
0100
2000
3001
,
2000
3000
0010
0100
,
0000
0100
0001
0020
,
0230
0300
1000
0001
,
0000
0001
0100
0010
,
0200
0000
0302
0000
,
0023
0130
0000
1000
,
1000
0010
0001
0001
,
0010
1000
0001
0001
,
2000
0000
0000
0010
0000
0000
0001
0000
,
0000
3001
1000
0000
,
0002
0000
0000
0010
0000
0000
1000
0000
,
0000
1003
0001
0000
,
0200
0000
0000
0001
0000
0000
0010
0000
,
0000
0310
0100
0000
,
0010
1000
1000
0000
,
0001
0001
0010
0100
,
2000
0000
3002
0000
,
1003
0000
1000
0000
,
0002
0100
1000
0000
,
0100
1000
0010
0000
,
2003
0100
0001
0000
,
3020
0000
0230
0000
,
0301
0010
2000
3000
,
0001
0100
2000
3001
,
1000
0010
0001
0000
,
1000
0100
0001
1000
,
0000
0001
0001
0010
,
0010
0100
1000
0010
,
0100
0010
0010
1000
,
1000
0001
0010
0100
,
0010
0001
0001
0100
,
0100
0010
0010
1000
,
0001
0010
1000
1000
,
0010
0001
1000
1000
,
0002
0000
0000
0010
0000
0000
1000
0000
,
0000
1003
0001
0000
,
2000
0000
0000
0010
0000
0000
0001
0000
,
0000
3001
1000
0000
,
0200
0000
0000
1000
0000
0000
0010
0000
,
0000
0310
0100
0000
,
0010
0001
0001
0000
,
1000
1000
0010
0100
,
0002
0000
2003
0000
,
3001
0000
0001
0000
,
1000
0000
1000
0000
,
0001
0000
0001
0000
,
1000
1000
1000
0000
0010
0010
0010
0000
,
0100
0100
0100
0000
0001
0001
0001
0000
,
2000
0010
0001
0000
,
0010
0001
0100
0000
,
3002
0010
1000
0000
,
0203
0000
0320
0000
,
1030
0100
0002
0003
,
1000
0010
0002
1003
,
0001
0100
1000
0000
,
0001
0010
2000
0002
,
3003
0000
0000
0000
;

//---------------dance-single - ----------------
#NOTES:
     dance-single:
     :
     Beginner:
     3:
     0.132133,0.227410,0.000000,0.156642,0.000000,124.000000,124.000000,0.000000,21.000000,0.000000,0.000000,0.132133,0.227410,0.000000,0.156642,0.000000,124.000000,124.000000,0.000000,21.000000,0.000000,0.000000:
0000
0000
0000
0000
,
0000
0000
0000
0000
,
0000
0000
0000
0000
,
0000
0000
0000
0000
,
1000
0000
0000
0000
,
1000
0000
0000
0000
,
0001
0000
0000
0000
,
0001
0000
0000
0000
,
1000
0000
0200
0300
,
0100
0000
0020
0030
,
0010
0000
0001
0000
,
1000
0000
2000
3000
,
1000
0000
0010
0000
,
0000
0000
0010
0000
,
0200
0300
0100
0000
,
0000
0000
0001
0000
,
0002
0003
0020
0030
,
0200
0300
0000
2000
,
3000
0001
0000
0001
,
0000
1000
0000
0000
,
0001
0001
0001
0000
,
1000
0000
1000
0000
,
0010
0010
0010
0000
,
0100
0000
0100
0000
,
0001
0001
0001
0000
,
1000
0000
1000
0000
,
0100
0000
0100
0000
,
0010
0000
0010
0000
,
0001
0000
0000
0000
,
1000
0000
0000
0000
,
0002
0000
1000
0000
,
0000
0000
1003
0000
,
2000
0000
0001
0000
,
0000
0000
3001
0000
,
1000
0000
0200
0300
,
0100
0000
0020
0030
,
0010
0000
0001
0000
,
1000
0000
2000
3000
,
0000
0001
0001
0000
,
0000
1000
1000
0000
,
0010
0010
0010
0000
,
0000
0100
0100
0000
,
0001
0001
0001
0000
,
0000
1000
1000
0000
,
0000
0001
0000
0001
,
0000
1000
0000
0000
,
0001
0001
0001
0000
,
1000
0000
1000
0000
,
0010
0010
0010
0000
,
0100
0000
0100
0000
,
0001
0001
0001
0000
,
1000
0000
1000
0000
,
0100
0000
0100
0000
,
0010
0000
0010
0000
,
0001
0000
0000
0000
,
1000
0000
0000
0000
,
0001
0000
0001
0000
,
1000
0000
1000
0000
,
0001
0000
0200
0300
0100
0000
0020
0030
,
0010
0000
1000
0000
0001
0000
0002
0003
,
2000
0000
0001
0000
,
0000
0000
3001
0000
,
0002
0000
1000
0000
,
0000
0000
1003
0000
,
0001
0000
0020
0030
,
0010
0000
0200
0300
,
0100
0000
1000
0000
,
0001
0000
0002
0003
;

//---------------dance-double - ----------------
#NOTES:
     dance-double:
     :
     Challenge:
     14:
     0.533860,0.963719,0.059673,0.283447,0.354308,501.000000,493.000000,8.000000,38.000000,35.000000,0.000000,0.533860,0.963719,0.059673,0.283447,0.354308,501.000000,493.000000,8.000000,38.000000,35.000000,0.000000:
00000000
00000000
00000000
00000000
,
00000000
00000000
00000000
00000000
,
00000000
00000000
00000000
00000000
,
00000000
00000000
00000000
00000000
,
00010000
00000000
00000000
00001000
00000000
00000000
00000100
00000000
,
00000000
00000100
00000000
00000000
,
00001000
00000000
00000000
00010000
00000000
00000000
01000000
00000000
,
00000000
01000000
00000000
00000000
,
10000000
10000000
00100000
00010000
00001000
00000000
00010000
00001000
,
00010000
00000000
00010000
00000000
00001000
00000000
00000100
00000000
00000001
00000000
00000000
00000000
00001000
00000000
00000001
00001000
,
00000001
00000001
00000010
00001000
00010000
00000000
00001000
00010000
,
00001000
00000000
00000100
00001000
00000100
00000000
00001000
00000000
00010000
00000000
00000000
00000000
MMMMMMMM
00000000
00000000
00000000
,
00011000
00000000
00000000
00001000
00010000
01000000
10000000
00100000
,
00000000
00000000
00100000
00000000
10000000
00000000
01000000
00000000
00100000
01000000
00100000
00000000
00010000
00100000
00010000
00100000
,
00001000
00000000
00000000
00010000
00001000
00000100
00000001
00000010
,
00000000
00000000
00000010
00000000
00000001
00000000
00000100
00000000
00000010
00000100
00000010
00000000
00000100
00000000
00001000
00000000
,
00020000
00000000
00000000
00000000
00000000
00000000
00031000
00010000
00000200
00000000
00000000
00000000
00000000
00000000
00010300
00000100
,
00001000
00000000
00000100
00000000
00010000
00000000
00000000
00000000
00001000
00000000
00000000
00000000
00010000
00001000
00000010
00000000
,
00000010
00000000
00000001
00000010
00001000
00000010
00000001
00000100
,
00001000
00000000
00010000
00000000
00100000
00000000
00010000
00000000
00001000
00010000
00001000
00000000
00010000
00000000
00000000
00000000
,
00002000
00010000
00103000
00020000
00100000
10030000
00200000
10000000
,
01300000
00000000
00100000
00000000
00020000
00000000
00100000
00000000
00031000
00010000
00001000
00000000
00010000
00000000
00001000
00000000
,
00020000
00001000
00030010
00002000
00000010
00003001
00000020
00000001
,
00000130
00000000
00000010
00000000
00002000
00000000
00000010
00000000
00013000
00001000
00010000
00000000
00000100
00000000
00001000
00000000
,
00020000
01000000
10000000
00100000
00032000
00000100
00000001
00000010
,
00023000
00000000
01000000
00000000
10000000
00000000
00100000
00000000
00031000
00010000
00001000
00000000
00010000
00000000
01000000
00000000
,
10000000
00100000
00010000
00100000
00010000
00001000
00010000
00001000
,
00000010
00000000
00001000
00000000
00000010
00000000
00001000
00000000
00010000
00001000
00010000
00000000
00001000
00000000
00000100
00000000
,
00000002
00000023
00002030
00013000
,
00002000
00000000
00000000
00010000
00013000
00000000
MMMMMMMM
00000000
,
00011000
00000000
00000000
00001000
00000100
00000000
00000001
00000000
00000010
00000000
00000000
00000000
00000110
00000000
00000000
00000000
,
00011000
00000000
00000000
00010000
01000000
00000000
10000000
00000000
00100000
01000000
00100000
00000000
10000000
00000000
01000000
00000000
,
00020000
00000000
00001000
00001000
00000100
00000000
00000010
00000010
,
00032000
00000000
00000000
00000000
00010000
00000000
00010000
00000000
00103000
00001000
00100000
00000000
00010000
00000000
00010000
00000000
,
10000000
10000000
00100000
00010000
00001000
00000000
00010000
00001000
,
00010000
00000000
00010000
00000000
00001000
00000000
00000100
00000000
00000001
00001000
00000001
00000000
00001000
00000000
00000001
00001000
,
00000001
00000001
00000010
00001000
00010000
00000000
00001000
00010000
,
00001000
00000000
00000100
00001000
00000100
00000000
00001000
00000000
00010000
00000000
00000000
00000000
MMMMMMMM
00000000
00000000
00000000
,
00011000
00000000
00000000
00000000
00000000
00000000
00000000
00000000
00010000
00000000
00000000
00001000
00000000
00000000
00000100
00000000
00000000
00000000
00000100
00000000
00000001
00000000
00000000
00000000
00000001
00000000
00000000
00000010
00000000
00000000
00000100
00000000
,
00000000
00000000
00000100
00000000
00010000
00000000
00000000
00000000
00010000
00000000
00000000
00001000
00000000
00000000
00010000
00000000
00001000
00000000
00010000
00000000
00000100
00000000
00000000
00000000
00010000
00000000
00000100
00000000
00001000
00000000
00000100
00000000
,
00010000
00000000
00000000
00000000
00000000
00000000
00000000
00000000
00001000
00000000
00000000
00010000
00000000
00000000
00100000
00000000
00000000
00000000
00100000
00000000
10000000
00000000
00000000
00000000
10000000
00000000
00000000
01000000
00000000
00000000
00100000
00000000
,
00000000
00000000
00100000
00000000
00001000
00000000
00000000
00000000
00001000
00000000
00000000
00010000
00000000
00000000
00001000
00000000
00000000
00000000
00001000
00000000
00010000
00000000
00000100
00000000
00001000
00000000
00000000
00000000
00000100
00000000
00000000
00000000
,
00010000
00000000
00000000
00000000
00000000
00000000
00000000
00000000
00001000
00000000
00000000
00010000
00000000
00000000
00100000
00000000
000M0000
00000000
00100000
00000000
00001000
00000000
00000000
00000000
00010000
00000000
00000000
00001000
00000000
00000000
00000010
0000M000
,
00000000
00000000
00000010
00000000
00010000
00000000
00000000
00000000
00001000
00000000
00000000
00010000
00000000
00000000
00100000
00000000
000M0000
00000000
00100000
00000000
00001000
00000000
00000000
00000000
00100000
00000000
00001000
00000000
00010000
00000000
00000000
00000000
,
00100000
00000000
10000000
00100000
00010000
00100000
10000000
01000000
,
00010000
00000000
00001000
00000000
00000010
00000000
00001000
00000000
00010000
00001000
00010000
00000000
00001000
00000000
00000000
00000000
,
00020000
00001000
00030010
00002000
00000010
00003001
00000020
00000001
,
00000130
00000000
00000010
00000000
00002000
00000000
00000010
00000000
00013000
00001000
00010000
00000000
00001000
00000000
00010000
00000000
,
00002000
00010000
00103000
00020000
00100000
10030000
00200000
10000000
,
01300000
00000000
00100000
00000000
00020000
00000000
00100000
00000000
00031000
00010000
00001000
00000000
01000000
00000000
00010000
00000000
,
00002000
00000100
00000001
00000010
00023000
01000000
10000000
00100000
,
00032000
00000000
00000100
00000000
00000001
00000000
00000010
00000000
00013000
00001000
00010000
00000000
00001000
00000000
00000100
00000000
,
00000001
00000010
00001000
00000010
00001000
00010000
00001000
00010000
,
00100000
00000000
00010000
00000000
00100000
00000000
00010000
00000000
00001000
00010000
00001000
00000000
00010000
00000000
01000000
00000000
,
20000000
30200000
00320000
00031000
,
00020000
00000000
00000000
00001000
00031000
00000000
MMMMMMMM
00000000
,
00010000
00000000
00000000
00000000
00000000
00000000
00001000
00000000
00000000
00000000
00000000
00000000
00000010
00000000
00000000
00000000
00000000
00000000
00000000
00000000
00000010
00000000
00000000
00000000
00001000
00000010
00001000
00000010
00000100
00000000
00010000
00000000
,
00001000
00000000
00000000
00000000
00000000
00000000
00010000
00000000
00000000
00000000
00000000
00000000
00100000
00000000
00000000
00000000
00000000
00000000
00000000
00000000
00100000
00000000
00000000
00000000
00010000
00100000
00010000
00100000
01000000
00000000
00010000
00000000
,
10000000
00000000
10000000
00000000
01000000
00000000
00010000
00000000
00001000
00000000
00000000
00000000
00010000
00000000
00001000
00000000
00010000
00000000
00010000
00000000
00001000
00000000
00000100
00000000
00000010
00000100
00000010
00000100
00000001
00000000
00000001
00001000
,
00000001
00000000
00000010
00000000
00001000
00000000
00010000
00000000
00001000
00000000
00000000
00000000
00010000
00000000
00001000
00000000
00010000
00000000
01000000
00010000
01000000
00000000
00010000
00000000
00001000
00010000
00001000
00010000
00000100
00000000
00010000
00000000
,
00011000
00000000
00000000
00001000
00000100
00000000
00000001
00000000
00000010
00000000
00000000
00000000
00000110
00000000
00000000
00000000
,
00011000
00000000
00000000
00010000
01000000
00000000
10000000
00000000
00100000
01000000
00100000
00000000
10000000
00000000
01000000
00000000
,
00020000
00000000
00001000
00001000
00000100
00000000
00000010
00000010
,
00032000
00000000
00000000
00000000
00010000
00000000
00010000
00000000
00103000
00001000
00100000
00000000
00010000
00000000
00010000
00000000
,
10000000
10000000
00100000
00010000
00001000
00000000
00010000
00001000
,
00010000
00000000
00010000
00000000
00001000
00000000
00000100
00000000
00000001
00001000
00000001
00000000
00001000
00000000
00000001
00001000
,
00000001
00000001
00000010
00001000
00010000
00000000
00001000
00010000
,
00001000
00000000
00000100
00001000
00000100
00000000
00001000
00000000
00020000
00000000
00000000
00000000
00002000
00000000
00000000
00000000
,
00033000
00000000
00000000
00000000
;
