#VERSION:0.83;
#TITLE:Happy Trails;
#SUBTITLE:;
#ARTIST:Mameyudoufu;
#TITLETRANSLIT:;
#SUBTITLETRANSLIT:;
#ARTISTTRANSLIT:;
#GENRE:;
#CREDIT:;
#MUSIC:Happy Trails.ogg;
#BANNER:BR2024-bn.png;
#BACKGROUND:BR2024-bg.png;
#JACKET:;
#DISCIMAGE:;
#CDIMAGE:;
#SELECTABLE:YES;
#LYRICSPATH:;
#CDTITLE:;
#SAMPLESTART:46.594;
#SAMPLELENGTH:14.884;
#OFFSET:1.778;
#BPMS:0.000=129.000;
#STOPS:;
#WARPS:;
#DELAYS:;
#SPEEDS:;
#SCROLLS:;
#TICKCOUNTS:;
#TIMESIGNATURES:;
#LABELS:;
#COMBOS:;
#FAKES:;
#LASTSECONDHINT:142.338;
#BGCHANGES:;
#FGCHANGES:;
#ATTACKS:;

//---------------dance-single - JU- XO----------------
#NOTEDATA:;
#CHARTNAME:;
#CHARTSTYLE:;
#CREDIT:Talkion;
#STEPSTYPE:dance-single;
#DESCRIPTION:JU- XO-;
#DIFFICULTY:Hard;
#METER:11;
#METERF:11;
#RADARVALUES:0,0,0,0,0;
#NOTES:
// measure 0
0000
0000
0000
0000
,  // measure 1
0000
0000
0000
0000
,  // measure 2
0000
0000
0000
0000
,  // measure 3
0000
0000
0000
0000
,  // measure 4
0000
0000
0000
0000
,  // measure 5
0000
0000
0000
0000
0000
0000
1000
0100
,  // measure 6
0002
0000
0103
2000
0000
3001
0100
2000
,  // measure 7
0000
0000
3100
0002
0000
0013
0100
0000
,  // measure 8
1000
1000
1000
1000
,  // measure 9
1000
0000
1000
0001
1000
0010
0100
0001
,  // measure 10
0010
0000
0200
0000
1300
0000
0001
0000
0200
0000
0000
0010
0000
0000
0301
0000
,  // measure 11
0000
0000
1000
0000
0100
0000
0010
0000
0002
0000
0000
0010
0000
0000
1003
0000
,  // measure 12
0000
0000
0020
0000
1030
0000
0001
0000
0020
0000
0000
0100
0000
0000
1030
0000
,  // measure 13
0000
0000
0001
0000
0100
0000
0010
0000
0002
0000
0000
1000
0000
0000
0103
0000
,  // measure 14
0010
0000
0100
0000
0001
0000
1000
0000
0200
0000
0000
0010
0000
0000
1300
0000
,  // measure 15
0000
0000
0001
0000
0100
0000
0010
0000
2000
0000
0000
0010
0000
0000
3001
0000
,  // measure 16
0000
0000
0020
0000
0031
0000
1000
0000
0020
0000
0000
0100
0000
0000
0031
0000
,  // measure 17
1000
0000
0000
1100
0000
0000
0102
0000
0000
0000
0000
0000
0013
0000
0100
0000
,  // measure 18
1000
0000
0001
0100
0010
0000
0100
0001
,  // measure 19
1000
0000
0100
0010
0001
0000
1000
0010
,  // measure 20
0200
0000
0301
0010
0100
0010
0000
0001
,  // measure 21
0000
1000
0000
0020
0130
0001
1000
0100
,  // measure 22
0010
0100
1000
0001
0100
0010
0001
0010
,  // measure 23
0100
0001
1000
0100
0010
0001
0100
0010
,  // measure 24
1000
0001
0010
0100
1000
0010
0100
0001
,  // measure 25
0010
0000
0000
0000
0100
0000
0010
0000
0002
0000
0000
0010
0000
0000
1003
0000
,  // measure 26
1010
0000
0000
0000
1000
0000
0100
0000
0020
0000
0000
0100
0000
0000
0031
0000
,  // measure 27
1001
0000
0000
0000
1000
0000
0010
0000
0200
0000
0000
0001
0000
0000
0310
0000
,  // measure 28
2000
0000
0000
3100
0000
0000
0101
0000
0002
0000
0000
0103
0000
0000
1100
0000
,  // measure 29
1001
0000
0000
0000
0001
0000
0010
0000
0100
0000
0000
0010
0000
0000
0001
0000
,  // measure 30
1001
0000
0000
0000
1000
0000
0010
0000
0100
0000
0001
1000
0000
0000
0100
0000
,  // measure 31
0110
0000
0000
0000
0010
0000
0001
0000
0200
0000
0000
0010
0000
0000
0301
0000
,  // measure 32
2000
0000
0000
0010
0000
0000
3001
0000
0002
0000
0000
0013
0000
0000
1010
0000
,  // measure 33
1001
0000
0000
0000
0001
0000
0100
0000
0010
0000
0000
1000
0000
0000
0001
0000
,  // measure 34
0011
0000
0000
0000
0001
0000
0100
0000
0020
0000
0000
0100
0000
0000
1030
0000
,  // measure 35
1001
0000
0000
0000
0001
0000
0010
0000
0200
0000
0000
1000
0000
0000
0310
0000
,  // measure 36
0002
0000
0000
0103
0000
0000
1100
0000
2000
0000
0000
3100
0000
0000
0101
0000
,  // measure 37
1001
0000
0000
0000
1000
0000
0010
0000
0100
0000
0000
0010
0000
0000
1000
0000
,  // measure 38
1001
0000
0000
0000
0001
0000
0010
0000
0100
0000
1000
0001
0000
0000
0100
0000
,  // measure 39
0110
0000
0000
0000
0010
0000
0001
0000
0020
0000
0000
0100
0000
0000
1030
0000
,  // measure 40
0002
0000
0000
0010
0000
0000
1003
0000
2000
0000
0000
3010
0000
0000
0011
0000
,  // measure 41
1001
0000
0000
0000
1000
0000
0100
0000
0010
0000
0000
0001
0000
0000
1000
0000
,  // measure 42
0020
0000
0130
0002
1000
0000
0013
0200
,  // measure 43
1000
0000
0310
0002
1000
0000
0103
0020
,  // measure 44
0100
0000
1030
0001
0010
0100
0000
1000
,  // measure 45
0010
0100
0000
0010
1000
0000
0001
0010
,  // measure 46
2000
0000
3010
0002
0000
1003
0010
0002
,  // measure 47
0000
0000
0013
2000
0000
3100
0010
0000
,  // measure 48
0001
0100
0010
0100
0001
0010
0100
0010
,  // measure 49
0001
0000
0000
1000
0000
0010
0000
1000
0000
0000
0001
0000
0010
0000
0001
0000
,  // measure 50
0100
0000
0020
0000
1030
0000
0001
0000
0020
0000
0000
0100
0000
0000
0031
0000
,  // measure 51
1000
0000
0010
0000
0100
0000
0001
0000
2000
0000
0000
0100
0000
0000
3001
0000
,  // measure 52
0010
0000
0200
0000
1300
0000
0001
0000
0200
0000
0000
0010
0000
0000
1300
0000
,  // measure 53
0001
0000
0020
0000
0130
0000
0010
0000
2000
0000
0000
0001
0000
0000
3100
0000
,  // measure 54
0110
0000
0010
0001
1000
1010
0000
0001
,  // measure 55
0011
0000
0000
0000
0010
0000
0001
0000
1000
0000
1010
0000
0000
1010
0000
0000
,  // measure 56
0110
0000
0100
0001
1000
1100
0100
0001
,  // measure 57
1000
0000
0000
1010
0000
0000
0012
0000
0000
0000
0000
0000
2003
0000
0000
0000
,  // measure 58
3010
0000
0000
0000
0010
0000
0000
0000
0010
0000
0000
0010
0000
0000
0000
0000
,  // measure 59
0100
0000
0000
0000
0100
0000
0000
0000
0102
0000
0000
1000
0000
0000
0013
0000
,  // measure 60
0200
0000
0000
0310
0000
0000
1020
0000
0230
0000
0000
0310
0000
0000
0011
0000
,  // measure 61
1001
0000
0000
0000
1000
0000
0100
0000
0010
0000
0000
0100
0000
0000
1000
0000
,  // measure 62
1001
0000
0000
0000
0101
0000
0000
0000
2001
0000
0000
0100
0000
0000
3001
0000
,  // measure 63
0012
0000
0000
0100
0000
0000
1003
0000
2010
0000
0000
0100
0000
0000
3001
0000
,  // measure 64
0200
0000
0000
0010
0000
0000
0302
0000
0023
0000
0000
0130
0000
0000
0101
0000
,  // measure 65
1001
0000
0000
0000
1000
0000
0010
0000
0100
0000
0000
0001
0000
0000
1000
0000
,  // measure 66
1100
0000
0000
0000
1001
0000
0000
0000
2100
0000
0000
3001
0000
0001
0000
0000
,  // measure 67
0101
0000
0000
0000
0011
0000
0000
0000
0102
0000
0000
0010
0000
0000
1003
0000
,  // measure 68
0020
0000
0000
0130
0000
0000
1200
0000
0320
0000
0000
0130
0000
0000
0101
0000
,  // measure 69
1001
0000
0000
0000
1000
0000
0010
0000
0100
0000
0000
0010
0000
0000
1000
0000
,  // measure 70
1001
0000
0000
0000
0011
0000
0000
0000
2001
0000
0000
0010
0000
0000
3001
0000
,  // measure 71
0102
0000
0000
0010
0000
0000
1003
0000
2100
0000
0000
0010
0000
0000
3001
0000
,  // measure 72
0020
0000
0000
0100
0000
0000
0032
0000
0203
0000
0000
0310
0000
0000
0011
0000
,  // measure 73
1001
0000
0000
0000
1000
0000
0100
0000
0010
0000
0000
0001
0000
0000
0100
0000
,  // measure 74
0010
0000
0000
0000
;

//---------------dance-single - FS- JU- XO----------------
#NOTEDATA:;
#CHARTNAME:;
#CHARTSTYLE:;
#CREDIT:Talkion;
#STEPSTYPE:dance-single;
#DESCRIPTION:FS- JU- XO-;
#DIFFICULTY:Challenge;
#METER:14;
#METERF:13;
#RADARVALUES:0,0,0,0,0;
#NOTES:
// measure 0
0000
0000
0000
0000
,  // measure 1
0000
0000
0000
0000
,  // measure 2
0000
0000
0000
0000
,  // measure 3
0000
0000
0000
0000
,  // measure 4
0000
0000
0000
0000
,  // measure 5
0000
0000
0000
0000
0000
0000
0001
0010
,  // measure 6
2010
0000
3010
0011
0000
0001
0100
2100
,  // measure 7
0000
0000
3100
0102
0000
0013
0100
0000
,  // measure 8
1100
1000
1000
1000
,  // measure 9
1000
0000
0000
0000
1000
0000
0001
0100
0000
0100
0010
0000
1000
0010
0100
0001
,  // measure 10
0010
0000
0002
0000
1003
0000
0010
0000
0100
0000
0001
1000
0000
1000
0100
0000
,  // measure 11
0000
0000
0010
0100
1000
0000
0001
0000
0100
0000
0010
0100
0000
0100
0001
0000
,  // measure 12
0000
0000
2000
0000
3001
0000
0010
0000
0100
0000
1000
0001
0000
0001
0100
0000
,  // measure 13
0000
0000
0020
0000
0031
0000
0010
0100
0001
0000
1000
0100
0010
0100
1000
0000
,  // measure 14
1001
0000
0002
0000
0103
0000
0010
0000
1000
0000
0001
0010
0000
0010
0100
0000
,  // measure 15
1000
0000
0100
0010
0001
0000
1000
0000
0010
0000
1000
0001
0000
0001
0100
0000
,  // measure 16
0001
0000
2000
0000
3100
0000
0010
0000
0001
0000
1000
0010
0100
0010
1000
0001
,  // measure 17
0020
0100
0000
1000
0000
0130
0002
0000
0000
0000
0003
0000
0101
0000
0100
0000
,  // measure 18
1000
0000
0001
0100
0010
0000
0100
0001
,  // measure 19
1000
0000
0100
0010
0001
0000
1000
0010
,  // measure 20
0200
0000
0301
0010
0100
0010
0000
0001
,  // measure 21
0000
0000
1000
0000
0000
0000
0010
0100
0010
0000
1000
0001
0010
0100
1000
0000
,  // measure 22
0001
0100
0001
1000
0100
0010
1000
0010
,  // measure 23
0100
1000
0001
0100
0010
1000
0100
0010
,  // measure 24
0001
1000
0010
0100
0010
1000
0001
1000
0100
0010
0001
1000
0001
0100
0010
1000
,  // measure 25
0200
0300
0000
0010
0001
0000
0010
0100
1000
0000
0001
1000
0001
0100
0010
0000
,  // measure 26
1010
0000
0000
0000
1000
0000
0100
0000
0010
0000
0000
0001
1000
0000
0010
0000
,  // measure 27
0110
0000
0000
0000
0100
0000
0001
0000
1000
0000
0000
0100
0010
0000
0001
0000
,  // measure 28
0201
0000
03M0
0100
1000
0000
0100
0000
1200
0000
03M0
0100
0001
0000
0100
0000
,  // measure 29
0110
0000
0000
0000
0010
0000
1000
0000
0001
0000
0000
0010
0100
0010
0001
0000
,  // measure 30
1002
0000
0000
0000
0103
0000
0001
0000
1000
0000
0100
0010
0100
0000
1000
0000
,  // measure 31
1010
0000
0000
0000
0010
0000
1000
0000
0001
0000
0010
0100
0010
0000
0001
0000
,  // measure 32
0201
0000
03M0
0100
1000
0000
0100
0000
1200
0000
03M0
0100
0001
0000
0100
0000
,  // measure 33
0110
0000
0000
0000
0010
0000
1000
0000
0001
0000
0000
0010
0000
0010
0100
0000
,  // measure 34
1100
0000
0000
0000
1000
0000
0010
0000
0100
0000
0000
0001
1000
0000
0100
0000
,  // measure 35
0110
0000
0000
0000
0010
0000
0001
0000
1000
0000
0000
0010
0100
0000
0001
0000
,  // measure 36
0021
0000
0M30
0010
1000
0000
0010
0000
1020
0000
0M30
0010
0001
0000
0010
0000
,  // measure 37
0110
0000
0000
0000
0100
0000
1000
0000
0001
0000
0000
0100
0010
0100
0001
0000
,  // measure 38
1002
0000
0000
0000
0013
0000
0001
0000
1000
0000
0010
0100
0010
0000
1000
0000
,  // measure 39
1100
0000
0000
0000
0100
0000
0001
0000
0100
0000
1000
0001
1000
0000
0010
0000
,  // measure 40
1020
0000
0M30
0010
0001
0000
0010
0000
0021
0000
0M30
0010
1000
0000
0010
0000
,  // measure 41
0110
0000
0000
0000
0100
0000
0001
0100
0010
0000
0000
1000
0000
1000
0100
0000
,  // measure 42
0110
0000
0000
0010
0001
0000
1000
0000
0001
0010
0000
0000
0100
0000
1000
0000
,  // measure 43
0001
0000
0000
0100
0010
0000
1000
0000
0010
0100
0000
0000
0001
0000
1000
0000
,  // measure 44
0100
0000
0000
0010
0001
0000
1000
0000
0010
0100
0010
0000
1000
0000
0001
0000
,  // measure 45
0011
0000
0010
0100
0000
0000
1000
0000
0001
0100
0000
0100
0010
1000
0100
0000
,  // measure 46
0102
0000
0103
1100
0000
1000
0010
0012
,  // measure 47
0000
0000
0013
2010
0000
3100
0010
0000
,  // measure 48
0001
1000
0010
0100
0001
1000
0001
0010
0100
0010
0001
1000
0010
0100
0010
1000
,  // measure 49
0100
0000
0000
0010
0000
0100
0000
0010
0000
0001
1000
0000
0010
0000
0010
0000
,  // measure 50
1001
0000
2000
0000
3100
0000
0010
0000
0001
0000
1000
0010
0000
0010
0100
0000
,  // measure 51
0101
0000
0001
0100
0010
0000
1000
0000
0001
0000
0010
0100
0000
0100
1000
0000
,  // measure 52
1001
0000
0002
0000
0103
0000
0010
0000
1000
0000
0001
0010
0000
0010
0100
0000
,  // measure 53
0110
0000
0020
0000
1030
0000
0010
0100
1000
0000
0001
1000
0001
0100
0010
0000
,  // measure 54
1010
0000
0000
1000
0001
0000
0010
0000
0100
0000
1100
0000
0000
0000
1000
0000
,  // measure 55
1010
0000
0000
0000
0010
0000
0100
0000
0001
0000
0011
0000
0000
0011
0000
0000
,  // measure 56
1010
0000
0000
1000
0001
0000
0010
0000
0100
0000
1100
0000
1000
0001
2000
0000
,  // measure 57
3020
0100
0000
0001
0000
0130
2000
0000
0000
0000
3000
0000
1200
0000
0000
0000
,  // measure 58
0301
0000
0000
0000
0001
0000
0000
0000
0001
0000
0000
0001
2000
0000
0000
0000
,  // measure 59
3100
0000
0000
0000
0100
0000
0000
0000
0110
0000
0000
0100
1000
0000
0100
0000
,  // measure 60
0210
0000
M300
0100
0001
0000
0100
0000
0210
0000
030M
0100
1000
0000
0001
0000
,  // measure 61
0011
0000
0000
0000
0010
0000
0001
0000
0100
0000
0000
0010
0100
0010
1000
0000
,  // measure 62
1001
0000
0000
0000
0011
0000
0000
0000
2001
0000
0000
3010
0100
0000
0001
0000
,  // measure 63
0021
0000
0000
0130
1000
0000
0001
0000
0201
0000
0000
0310
1000
0000
0100
0000
,  // measure 64
0210
0000
M300
0100
0001
0000
0100
0000
0210
0000
030M
0100
1000
0000
0001
0000
,  // measure 65
0011
0000
0000
0000
0010
0000
0100
0000
1000
0000
0000
0001
0000
0001
0100
0000
,  // measure 66
0110
0000
0000
0000
1010
0000
0000
0000
0120
0000
0000
1030
0001
0010
0000
0000
,  // measure 67
0110
0000
0000
0000
0011
0000
0000
0000
0120
0000
0000
0031
1000
0000
0010
0000
,  // measure 68
0120
0000
M030
0010
0001
0000
0010
0000
0120
0000
003M
0010
1000
0000
0001
0000
,  // measure 69
0101
0000
0000
0000
0100
0000
0001
0000
0010
0000
0000
0100
0010
0100
1000
0000
,  // measure 70
1001
0000
0000
0000
0101
0000
0000
0000
2001
0000
0000
3100
0010
0001
1000
0001
,  // measure 71
0200
0000
0000
0310
1000
0000
0001
0000
0021
0000
0000
0130
1000
0000
0010
0000
,  // measure 72
0120
0000
M030
0010
0001
0000
0010
0000
0120
0000
003M
0010
1000
0000
0001
0000
,  // measure 73
0101
0000
0000
0000
0100
0000
0010
0100
0001
0000
0000
1000
0000
1000
0100
0000
,  // measure 74
0110
0000
0000
0000
;
