#VERSION:0.83;
#TITLE:HYPER JET WIND;
#SUBTITLE:;
#ARTIST:Mutsuhiko Izumi;
#TITLETRANSLIT:;
#SUBTITLETRANSLIT:;
#ARTISTTRANSLIT:;
#GENRE:;
#CREDIT:;
#MUSIC:HYPER JET WIND.ogg;
#BANNER:HYPER JET WIND.png;
#BACKGROUND:HYPER JET WIND-bg.png;
#CDTITLE:;
#SAMPLESTART:36.921;
#SAMPLELENGTH:14.239;
#SELECTABLE:YES;
#OFFSET:0.144;
#BPMS:0.000=276.000;
#STOPS:;
#BGCHANGES:;
#FGCHANGES:;

//--------------- dance-single - chronon ----------------
#NOTEDATA:;
#STEPSTYPE:dance-single;
#DESCRIPTION:chronon;
#DIFFICULTY:Beginner;
#METER:4;
#RADARVALUES:0,0,0,0,0;
#NOTES:
0000
0000
0000
0000
,
0000
0000
0000
0000
,
0000
0000
0000
0000
,
0000
0000
0000
0000
,
0000
0000
0000
0000
,
0000
0000
0000
0000
,
0000
0000
0000
0000
,
0000
0000
0000
0000
,
0000
0000
0000
0000
,
1000
0000
0000
0000
,
1001
0000
0000
0000
,
0002
0000
0000
0003
,
2000
0000
0000
3000
,
0001
0000
0001
0000
,
0001
0000
0000
0000
,
2000
0000
0000
3000
,
0002
0000
0000
0003
,
1000
0000
1000
0000
,
1000
0000
0000
0000
,
0200
0000
0000
0300
,
0020
0000
0000
0030
,
0001
0000
0001
0000
,
0001
0000
0000
0000
,
0200
0000
0000
0300
,
0020
0000
0000
0030
,
1000
0000
1000
0000
,
1000
0000
0000
0000
,
0001
0000
0000
0000
,
0010
0000
0000
0000
,
0100
0000
0000
0000
,
1000
0000
0000
0000
,
0001
0000
0000
0000
,
0100
0000
0000
0000
,
0010
0000
0000
0000
,
1000
0000
0001
0000
,
1000
0000
0000
0000
,
0100
0000
0000
0000
,
0010
0000
0000
0000
,
0001
0000
0000
0000
,
1000
0000
0000
0000
,
0010
0000
0000
0000
,
0100
0000
0000
0000
,
0001
0000
0000
0000
,
1000
0000
0001
0000
,
0000
0000
1001
0000
,
0000
0000
1000
0000
,
0001
0000
0000
0000
,
0001
0000
1000
0000
,
0001
0000
0000
0000
,
0100
0000
0010
0000
,
0100
0000
0000
0000
,
0001
0000
1000
0000
,
0000
0000
1001
0000
,
0000
0000
0001
0000
,
1000
0000
0000
0000
,
1000
0000
0001
0000
,
1000
0000
0000
0000
,
0100
0000
0010
0000
,
0100
0000
0000
0000
,
1000
0000
0000
0000
,
0001
0000
0000
0000
,
0100
0000
0000
0000
,
0001
0000
0000
0000
,
0100
0000
0000
0000
,
0010
0000
0000
0000
,
1000
0000
0000
0000
,
2002
0000
0000
0000
,
0000
0000
0000
0000
0003
3000
0000
0000
,
0001
0000
0010
0000
,
0001
0000
0000
0000
,
1000
0000
0010
0000
,
1000
0000
0000
0000
,
0001
0000
0100
0000
,
0001
0000
0000
0000
,
1000
0000
0100
0000
,
1000
0000
0000
0000
,
0001
0000
0000
0000
,
0010
0000
0000
0000
,
1000
0000
0000
0000
,
0100
0000
0000
0000
,
0001
0000
0001
0000
,
0001
0000
0000
0000
,
1000
0000
1000
0000
,
1000
0000
0000
0000
,
0001
0000
0000
0000
,
0000
0000
0000
0000
,
0010
0000
0000
0000
,
0000
0000
0000
0000
,
0100
0000
0000
0000
,
1000
0000
0000
0000
,
0001
0000
0000
0000
,
1000
0000
0000
0000
,
0001
0000
0001
0000
,
0001
0000
0000
0000
,
0100
0000
0100
0000
,
0100
0000
0000
0000
,
0010
0000
0010
0000
,
0010
0000
0000
0000
,
1000
0000
1000
0000
,
1000
0000
0000
0000
,
0001
0000
0000
0000
,
1000
0000
0000
0000
,
0100
0000
0000
0000
,
1000
0000
0000
0000
,
1000
0000
0000
0000
,
0001
0000
0000
0000
,
0100
0000
0000
0000
,
0001
0000
0000
0000
,
0100
0000
0000
0000
,
0010
0000
0000
0000
,
1000
0000
0000
0000
,
0100
0000
0000
0000
,
0010
0000
0000
0000
,
0001
0000
0000
0000
,
1000
0000
1000
0000
,
1000
0000
0000
0000
,
0001
0000
0001
0000
,
0001
0000
0000
0000
,
1000
0000
0001
0000
,
1000
0000
0001
0000
,
1000
0000
0000
0000
,
0000
0000
0000
0000
,
0001
0000
1000
0000
,
0001
0000
0000
0000
,
1001
0000
0000
0000
;

//--------------- dance-single - chronon ----------------
#NOTEDATA:;
#STEPSTYPE:dance-single;
#DESCRIPTION:chronon;
#DIFFICULTY:Easy;
#METER:8;
#RADARVALUES:0,0,0,0,0;
#NOTES:
0000
0000
0000
0000
,
0000
0000
0000
0000
,
0000
0000
0000
0000
,
0000
0000
0000
0000
,
0000
0000
0000
0000
,
0000
0000
0000
0000
,
0000
0000
0000
0000
,
0000
0000
0000
0000
,
0000
0000
0000
0000
,
0001
0000
0000
1000
0000
0000
0000
0000
,
1001
0000
0000
0000
,
0002
0000
0100
0000
,
2003
0000
0100
0000
,
3001
0000
0020
0000
,
1000
0000
1030
0000
,
0020
0000
0100
0000
,
0032
0000
1000
0000
,
0103
0000
0001
0000
,
1000
0001
1000
0000
,
2000
0000
0010
0000
,
3002
0000
0010
0000
,
1003
0000
0200
0000
,
0001
0000
0301
0000
,
0200
0000
0010
0000
,
2300
0000
0001
0000
,
3010
0000
1000
0000
,
0001
1000
0001
0000
,
2000
0000
0000
3100
0000
0000
0000
0000
,
2000
0000
0000
3001
0000
0000
0000
0000
,
1000
0000
0010
0000
,
0100
0000
0001
0000
,
0200
0000
0000
0310
0000
0000
0000
0000
,
2000
0000
0000
3001
0000
0000
0000
0000
,
1000
0100
0020
0000
,
1000
0000
1000
0000
,
0230
0000
0000
1300
0000
0000
0000
0000
,
2000
0000
0000
3001
0000
0000
0000
0000
,
1000
0000
0010
0000
,
0100
0000
0001
0000
,
0020
0000
0000
0031
0000
0000
0000
0000
,
0020
0000
0000
0130
0000
0000
0000
0000
,
0200
0000
0000
1300
0000
0000
0000
0000
,
1001
0000
0000
1001
0000
0000
0000
0000
,
0001
0000
0000
0100
0000
0001
0000
0000
,
1000
0000
0200
0300
,
1000
0000
0000
0100
0000
1000
0000
0000
,
0001
0000
0000
0000
,
0100
0000
0000
0001
0000
0100
0000
0000
,
0010
0000
1000
0000
,
0001
1000
0001
0000
,
2002
0000
3003
0000
,
1000
0000
0000
0100
0000
1000
0000
0000
,
0001
0000
0200
0300
,
0001
0000
0000
0100
0000
0001
0000
0000
,
1000
0000
0000
0000
,
0100
0000
0000
1000
0000
0100
0000
0000
,
0010
0000
0001
0000
,
1000
0001
1000
0000
,
2002
0000
3003
0000
,
0000
0001
0000
1000
0000
0001
0000
0000
,
0000
0010
0000
0100
0000
0010
0000
0000
,
0000
0100
0000
1000
0000
0100
0000
0000
,
1000
0000
0001
0000
,
1000
0000
0010
0000
0000
0100
0000
0000
,
0001
0000
0010
0000
0000
0100
0000
0000
,
1000
0000
0010
0000
0000
0100
0000
0000
,
2002
0000
0000
0000
,
0000
0000
0000
0000
3000
0003
0000
0000
,
2000
0000
3200
0000
,
0320
0000
0032
0000
,
1003
0000
0010
0000
,
0100
0001
0100
0000
,
0001
0000
0010
0000
,
0100
1000
0100
0000
,
1000
0000
0020
0000
,
0001
0000
0031
0000
,
0010
0000
0100
0000
,
0001
0000
1000
0000
,
0001
0000
0010
0000
0001
0000
0000
0020
,
0000
0000
0130
0000
,
1000
0100
1000
0000
,
1000
0001
1000
0000
,
0001
0000
0000
0000
,
1001
0000
0000
0000
,
2000
0000
0000
0100
0000
3100
0000
0000
,
1000
0000
0000
0000
,
0002
0000
0000
0100
0000
0103
0000
0000
,
0001
0000
0000
0000
,
1000
0000
0000
0000
,
0001
0000
0000
0000
,
1000
0000
0001
0000
,
1000
0000
0000
0000
,
0001
0010
0001
0000
,
0010
0100
0010
0000
,
0100
1000
0100
0000
,
1000
0000
0001
0000
,
1000
0010
1000
0000
,
0010
0100
0010
0000
,
0100
0000
0001
0000
,
1000
0000
0001
0000
,
0000
1000
0000
0100
0000
1000
0000
0000
,
0000
0001
0000
0100
0000
0001
0000
0000
,
0000
1000
0000
0010
0000
1000
0000
0000
,
0001
0000
0010
0000
,
0000
0001
0000
0010
0000
0001
0000
0000
,
0000
1000
0000
0010
0000
1000
0000
0000
,
0000
0001
0000
0100
0000
0001
0000
0000
,
1000
0000
0100
0000
,
0001
0000
0010
0000
,
1000
0000
0100
0000
,
0001
0000
0010
0000
,
1000
0000
0010
0000
0000
0100
0000
0000
,
0001
0000
0010
0000
0000
0100
0000
0000
,
1000
0000
0010
0000
0000
0100
0000
0000
,
0001
0000
0100
0000
,
0010
0000
1000
0000
,
0002
0000
1003
0000
,
2000
0000
3001
0000
,
0002
1003
0001
0000
,
2000
3001
1000
0000
,
1001
0000
0000
0000
,
0000
0000
0000
0000
,
0001
0000
0000
0100
0000
0001
0000
0000
,
1000
0000
0000
0000
0001
0000
0000
1001
;

//--------------- dance-single - chronon ----------------
#NOTEDATA:;
#STEPSTYPE:dance-single;
#DESCRIPTION:chronon;
#DIFFICULTY:Medium;
#METER:13;
#RADARVALUES:0,0,0,0,0;
#NOTES:
0000
0000
0000
0000
,
0000
0000
0000
0000
,
0000
0000
0000
0000
,
0000
0000
0000
0000
,
0000
0000
0000
0000
,
0000
0000
0000
0000
,
0000
0000
0000
0000
,
0000
0000
0000
0000
,
0000
0000
0000
0000
,
1010
0000
0000
0010
0000
0000
0100
0000
,
1001
0000
0000
0000
,
0002
0000
0010
0000
0010
0000
0013
0001
,
2000
0000
0010
0000
0010
0000
3010
1000
,
0002
0023
0230
2300
,
3200
0010
2300
0001
,
3020
0000
1000
0000
1000
0000
1030
0001
,
0200
0000
0001
0000
0001
0000
0301
1000
,
0200
0320
0230
2300
,
3001
1000
0001
0000
1000
0000
0001
0000
,
2000
0000
0010
0000
0010
0000
3010
1000
,
0002
0000
0010
0000
0010
0000
0013
0001
,
2000
3020
0230
0302
,
0203
0010
0302
1000
,
0023
0000
0001
0000
0001
0000
0031
1000
,
0200
0000
1000
0000
1000
0000
1300
0001
,
0200
0320
0230
0302
,
1003
0001
1000
0000
0001
0000
0000
0000
,
2000
0000
0000
0100
0000
0000
3001
0000
,
0002
0000
0000
0100
0000
0000
1003
0000
,
1000
0100
0010
0001
,
1000
0010
0100
0020
,
0001
0000
0000
0100
0000
0000
2030
0000
,
0001
0000
0000
3100
0000
0000
1000
0000
,
0100
0010
0001
2000
,
0010
3002
0010
1003
,
0002
0000
0000
0100
0000
0000
1003
0000
,
2000
0000
0000
0100
0000
0000
3001
0000
,
0001
0100
0010
1000
,
0001
0010
0100
0020
,
1000
0000
0000
0100
0000
0000
0032
0000
,
0010
0000
0000
1000
0000
0000
0203
0000
,
0001
0000
0000
0010
0000
0000
1300
0000
,
1100
0000
0000
0101
0000
0000
0000
0000
,
0102
0000
0000
1000
0000
0013
0000
0000
,
0100
0010
2002
3003
,
2100
0000
0000
0001
0000
3010
0000
0000
,
0100
0001
1000
0000
,
2010
0000
0000
0001
0000
3100
0000
0000
,
0010
0001
1000
0001
,
0100
0001
0100
0000
0010
0100
0010
0000
,
1000
0001
1001
0000
,
0012
0000
0000
1000
0000
0103
0000
0000
,
0010
0100
2002
3003
,
2010
0000
0000
0001
0000
3100
0000
0000
,
0010
0001
1000
0000
,
2100
0000
0000
0001
0000
3010
0000
0000
,
0100
0001
1000
0001
,
0010
0001
0010
0000
0100
0010
0100
0000
,
1000
0001
1001
0000
,
0001
1000
0000
0100
0000
0001
0000
0000
,
0100
0001
0000
0100
0000
1000
0000
0000
,
1000
0001
0000
0100
0000
1000
0000
0000
,
0001
0010
1000
0001
,
1000
0000
0010
0100
0000
1001
0000
0000
,
0001
0000
0010
0100
0000
1001
0000
0000
,
1000
0000
0010
0100
0000
1001
0000
0000
,
2002
0000
0000
0000
,
0000
0000
0000
0000
0003
3000
0000
0000
,
0002
0000
0000
0000
0013
0001
0010
0000
,
0100
1000
0100
0000
1000
0000
0001
0000
,
1000
0010
0100
0010
,
0001
0010
0100
0001
,
1000
0100
0010
0100
,
0001
0100
0010
0100
,
1000
0001
1000
0020
,
0100
2030
0001
3100
,
1000
0000
0100
0010
0000
0100
0010
0000
,
0001
1000
0000
0001
1000
0000
0010
0000
,
0100
0000
0001
0000
1000
0000
0000
0200
,
0000
0000
0310
0001
,
1000
0010
0100
0001
,
1000
0100
0010
0001
,
1000
0000
0000
0001
0000
0000
1000
0000
0000
0001
0000
0000
1000
0000
0000
0020
,
0000
0000
0000
0000
,
1030
0000
0000
0010
0000
0010
0000
0000
,
1000
0200
0300
0010
,
0001
0000
0000
0010
0000
0010
0000
0000
,
0011
0000
1001
0000
,
1000
0000
0000
0010
0000
0010
0000
0010
,
0000
0110
0000
1001
,
1000
0001
1000
0000
0100
0010
0100
0000
,
2000
0001
3001
0000
,
1000
0000
0001
0100
0000
0010
0100
0000
,
0010
2002
3003
0000
,
0001
0000
1000
0100
0000
0010
0200
0000
,
0010
2300
0001
3010
,
1000
0000
0001
0100
0000
0010
0100
0000
,
0001
0000
1000
0100
0000
0010
0100
0000
,
1000
0100
0010
0000
0100
0010
0001
0000
,
2000
0001
3001
0000
,
1000
0001
0000
0100
0000
1000
0000
0000
,
0100
1000
0000
0100
0000
0001
0000
0000
,
0001
1000
0000
0100
0000
0001
0000
0000
,
1000
0010
0001
1000
,
0001
1000
0000
0010
0000
0001
0000
0000
,
0010
0001
0000
0010
0000
1000
0000
0000
,
1000
0001
0000
0010
0000
1000
0000
0000
,
0001
0100
1000
0001
,
1000
0010
1000
0001
,
1000
0100
1000
0001
,
1000
0010
1000
0001
,
1000
0000
0100
0010
0000
1001
0000
0000
,
0001
0000
0100
0010
0000
1001
0000
0000
,
1000
0000
0100
0010
0000
1001
0000
0000
,
0002
0100
2003
0100
,
3002
0010
2003
0010
,
3001
0000
0000
1000
0000
0000
0001
0000
0000
0100
0000
0000
0001
0000
0000
0000
,
1000
0000
0000
0001
0000
0000
1000
0000
0000
0100
0000
0000
1000
0000
0000
0000
,
0001
0000
1000
0000
0001
0000
0100
0000
0001
0000
0000
0000
,
1000
0000
0001
0000
1000
0000
0100
0000
1000
0000
0000
0000
,
1001
0000
0000
0000
,
0000
0000
0000
0000
,
0102
0000
0000
1000
0000
0013
0000
0000
,
0100
0000
1000
0000
0001
0000
0000
1001
;

//--------------- dance-single - chronon ----------------
#NOTEDATA:;
#STEPSTYPE:dance-single;
#DESCRIPTION:chronon;
#DIFFICULTY:Hard;
#METER:16;
#RADARVALUES:0,0,0,0,0;
#NOTES:
0000
0000
0000
0000
,
0000
0000
0000
0000
,
0000
0000
0000
0000
,
0000
0000
0000
0000
,
0000
0000
0000
0000
,
0000
0000
0000
0000
,
0000
0000
0000
0000
,
0000
0000
0000
0000
,
0000
0000
0000
0000
,
0011
0000
0000
1001
0000
1000
0010
0000
,
1010
0000
0000
0000
0000
1000
0001
0010
,
0002
0000
0010
0000
0013
0001
1000
0010
,
2000
0000
0010
0000
3010
1000
0001
0100
,
2000
3200
0320
0130
,
1002
0000
0103
0000
2001
0000
3010
1000
,
0200
0000
0010
0000
0310
0100
0010
0001
,
0200
0000
0010
0000
0310
0100
0001
0100
,
2000
3002
0023
0230
,
0310
1000
0001
0000
0010
0001
1000
0100
,
2000
0000
0100
0000
3100
1000
0001
0100
,
0002
0000
0100
0000
0103
0010
1000
0010
,
0002
0023
0230
0310
,
2001
0000
3010
0000
1002
0000
0103
0001
,
0020
0000
0100
0000
0130
0010
0100
1000
,
0020
0000
0100
0000
0130
0010
1000
0010
,
0002
2003
3200
0320
,
0130
0001
1000
0000
1001
0000
0000
0000
,
0102
0000
0000
1000
0000
0000
0013
0000
,
2100
0000
0000
0001
0000
0000
3010
0000
,
0210
0301
1000
0001
,
0011
0010
0100
0001
,
0201
0000
0000
0010
0000
0000
1300
0000
,
1200
0000
0000
0010
0000
0000
0301
0000
,
0100
0010
0001
1000
0001
0100
0010
0100
,
2000
3100
0010
0100
2000
3100
0010
0000
,
2010
0000
0000
0001
0000
0000
3100
0000
,
0012
0000
0000
1000
0000
0000
0103
0000
,
0120
1030
0001
1000
,
1100
0100
0010
1000
,
1010
0000
0010
0100
0010
0001
0100
0000
,
0101
0000
0001
0100
0010
0100
1000
0000
,
1100
0000
0100
0010
0100
0001
0010
0000
,
0011
0000
0000
1100
0000
0100
0010
0100
,
0002
0000
0203
0010
0000
1300
0000
0001
,
1000
0000
0010
0000
0201
0000
0310
0100
,
2000
0000
3200
0010
0000
0301
0000
1000
,
0001
0000
0010
0000
0100
0000
1000
0100
,
0002
0000
0203
0010
0000
1300
0000
0001
,
1000
0010
0100
0001
,
0100
0001
1000
0001
0010
0100
1000
0002
,
0010
0000
1003
0000
0201
0000
0301
0100
,
2000
0000
3200
0010
0000
0301
0000
1000
,
0001
0000
0010
0000
1200
0000
1300
0100
,
0002
0000
0203
0010
0000
1300
0000
0001
,
1000
0000
0010
0000
0100
0000
0001
0100
,
2000
0000
3200
0010
0000
0301
0000
1000
,
0001
0010
0100
1000
,
0100
1000
0001
1000
0010
0100
0001
2000
,
0010
0000
3001
0000
1200
0000
0310
0100
,
2000
0010
0000
0001
0000
3100
0000
0010
,
0002
0100
0000
1000
0000
0013
0000
0100
,
0020
1000
0000
0100
0000
0031
0000
1000
,
0020
0230
0302
2003
,
3001
0100
0001
0100
0000
2010
0000
3001
,
1000
0100
1000
0100
0000
0012
0000
1003
,
0001
0100
0001
0100
0000
2010
0000
3001
,
1000
0000
0100
0000
0010
0100
0000
0100
,
1000
0000
0001
1000
0020
0230
0300
0000
,
0002
0000
0000
0000
1003
0001
0010
0000
,
0001
1000
0010
0100
0001
1000
0001
0010
,
0100
1000
0000
1000
0020
0000
0230
0000
,
2300
3002
0023
0230
,
0301
1000
0001
0020
0000
0000
0230
0000
,
0302
2003
3020
0230
,
1300
0001
1000
0010
0100
0001
0100
0010
,
0002
0013
0100
0010
0002
0013
0100
0001
,
0100
0000
0002
0100
0000
2003
0100
0000
,
3002
0010
0000
2003
0010
0000
3001
0100
,
0010
1000
0001
0010
0100
1000
0000
0020
,
0000
0000
0000
0000
1030
0010
0100
0001
,
1000
0100
0010
0100
1000
0001
1000
0010
,
0100
0001
1000
0001
0010
0001
1000
0100
,
1000
0000
0000
0100
0000
0000
0001
0000
0000
1000
0000
0000
0010
0000
0000
0002
,
0000
0000
0000
0000
0000
1003
0001
0100
,
0020
0000
2030
0001
0000
3100
0000
0010
,
0001
0000
0102
0000
0103
0001
1000
0100
,
0020
0000
0032
1000
0000
0103
0000
0000
,
0102
1003
2100
3001
,
1010
0000
0010
0100
0000
0100
0000
0100
,
0001
1010
0001
1100
,
1000
0100
0010
0100
0001
0100
0010
0100
,
2000
0000
0001
0000
3001
1000
0001
0100
,
1000
0100
0010
0100
0001
1000
0001
0010
,
0100
0010
2000
0000
3010
0100
1000
0100
,
0001
0100
0010
0100
1000
0001
1000
0010
,
0002
0013
0100
0000
2000
3100
0010
0000
,
0001
0010
1000
0001
1000
0100
0010
0100
,
0001
0100
0010
0100
1000
0001
1000
0010
,
0100
0001
1000
0001
0010
0100
1000
0001
,
1000
0000
1001
0000
1001
0000
0001
0100
,
0002
0010
0000
1000
0000
0103
0000
0010
,
2000
0100
0000
0001
0000
3010
0000
0100
,
0020
0001
0000
0100
0000
1030
0000
0001
,
0200
0320
2030
3200
,
2300
0100
0000
0001
0000
3010
0000
0100
,
0002
0010
0000
1000
0000
0103
0000
0010
,
0200
1000
0000
0010
0000
0301
0000
1000
,
0200
0320
0032
2003
,
3020
0230
0302
2003
,
3200
0320
0032
2003
,
3020
0230
0302
2003
,
3001
0100
0001
1000
0000
0021
0000
0130
,
1000
0100
1000
0001
0000
1020
0000
0130
,
0001
0100
0001
1000
0000
0021
0000
0130
,
1000
1100
0100
0110
,
0010
0011
0001
1001
,
1000
0000
0000
0000
0000
0000
0000
0000
0000
0000
0000
0000
0000
0000
0000
0000
0000
0000
0000
0000
0000
0000
0000
0000
0000
0000
0000
0000
0000
0000
0000
0000
0000
0000
0000
0000
0000
0000
0010
0000
0000
0000
0000
0000
0000
0000
0000
0000
0000
0000
0000
0000
0000
0000
0000
0000
0000
0000
0000
0000
0000
0000
0000
0000
0000
0000
0000
0000
0000
0000
0000
0000
0000
0000
0000
0000
0000
0100
0000
0000
0000
0000
0000
0000
0000
0000
0000
0000
0000
0000
0000
0000
0000
0000
0000
0000
0000
0000
0000
0000
0000
0000
0000
0000
0000
0000
0000
0000
0000
0000
0000
0000
0000
0000
0000
0001
0000
0000
0000
0000
0000
0000
0000
0000
0000
0000
0000
0000
0000
0000
0000
0000
0000
0000
0000
0000
0000
0000
0000
0000
0000
0000
0000
0000
0000
0000
0000
0000
0000
0000
0000
0000
0000
0000
0100
0000
0000
0000
0000
0000
0000
0000
0000
0000
0000
0000
0000
0000
0000
0000
0000
0000
0000
0000
0000
0000
0000
0000
0000
0000
0000
0000
0000
0000
0000
0000
0000
0000
0000
0000
0000
0000
,
0001
0000
0000
0000
0000
0000
0000
0000
0000
0000
0000
0000
0000
0000
0000
0000
0000
0000
0000
0000
0000
0000
0000
0000
0000
0000
0000
0000
0000
0000
0000
0000
0000
0000
0000
0000
0000
0000
0010
0000
0000
0000
0000
0000
0000
0000
0000
0000
0000
0000
0000
0000
0000
0000
0000
0000
0000
0000
0000
0000
0000
0000
0000
0000
0000
0000
0000
0000
0000
0000
0000
0000
0000
0000
0000
0000
0000
0100
0000
0000
0000
0000
0000
0000
0000
0000
0000
0000
0000
0000
0000
0000
0000
0000
0000
0000
0000
0000
0000
0000
0000
0000
0000
0000
0000
0000
0000
0000
0000
0000
0000
0000
0000
0000
0000
1000
0000
0000
0000
0000
0000
0000
0000
0000
0000
0000
0000
0000
0000
0000
0000
0000
0000
0000
0000
0000
0000
0000
0000
0000
0000
0000
0000
0000
0000
0000
0000
0000
0000
0000
0000
0000
0000
0000
0100
0000
0000
0000
0000
0000
0000
0000
0000
0000
0000
0000
0000
0000
0000
0000
0000
0000
0000
0000
0000
0000
0000
0000
0000
0000
0000
0000
0000
0000
0000
0000
0000
0000
0000
0000
0000
0000
,
0010
0000
0001
0000
0100
0000
0010
0000
1000
0000
0100
0000
,
0010
0000
0001
0000
0100
0000
0010
0000
1000
0000
0100
0000
,
0010
0000
0100
1000
0000
1000
0001
0000
,
1000
0010
0000
0010
1000
0001
0010
0100
,
0002
0000
0203
0010
0000
1300
0000
0001
,
1000
0000
0010
0000
0100
0000
0000
1001
;
