#VERSION:0.83;
#TITLE:Hot;
#SUBTITLE:;
#ARTIST:1TYM;
#TITLETRANSLIT:;
#SUBTITLETRANSLIT:;
#ARTISTTRANSLIT:;
#GENRE:K-POP;
#ORIGIN:;
#CREDIT:MUINELIM;
#BANNER:Hot-bg.png;
#BACKGROUND:Hot-bg.png;
#PREVIEWVID:;
#JACKET:Hot-jacket.png;
#CDIMAGE:;
#DISCIMAGE:Hot-banner.png;
#LYRICSPATH:;
#CDTITLE:;
#MUSIC:Hot.ogg;
#OFFSET:-0.039000;
#SAMPLESTART:79.003998;
#SAMPLELENGTH:18.000000;
#SELECTABLE:YES;
#BPMS:0.000=98.000;
#STOPS:;
#DELAYS:;
#WARPS:;
#TIMESIGNATURES:0.000=4=4;
#TICKCOUNTS:0.000=4;
#COMBOS:0.000=1;
#SPEEDS:0.000=1.000=0.000=0;
#SCROLLS:0.000=1.000;
#FAKES:;
#LABELS:0.000=Song Start;
#BGCHANGES:-10000.000=songbackground=1.000=0=0=1=====,
0.000=Hot.avi=1.000=1=0=0=StretchNoLoop==CrossFade==,
99999=-nosongbg-=1.000=0=0=0 // don't automatically add -songbackground-
;
#KEYSOUNDS:;
#ATTACKS:
;

//---------------dance-single - ----------------
#NOTEDATA:;
#CHARTNAME:;
#STEPSTYPE:dance-single;
#DESCRIPTION:;
#CHARTSTYLE:;
#DIFFICULTY:Beginner;
#METER:3;
#RADARVALUES:0.110900,0.156230,0.019407,0.000000,0.000000,80.000000,78.000000,2.000000,0.000000,0.000000,0.000000,0.000000,0.000000,0.000000,0.110900,0.156230,0.019407,0.000000,0.000000,80.000000,78.000000,2.000000,0.000000,0.000000,0.000000,0.000000,0.000000,0.000000;
#CREDIT:;
#NOTES:
0000
0000
0000
0000
,
0000
0000
0000
0000
,
0000
0000
0000
0000
,
0000
0000
0000
0000
,
0000
1000
0000
1000
,
0000
0100
0000
0100
,
0000
0010
0000
0010
,
0000
0001
0000
0001
,
0000
0100
0000
0010
,
0000
0100
0000
0010
,
0000
1000
0000
0001
,
0000
1000
0000
0001
,
0000
0010
0000
0100
,
0000
0010
0000
0100
,
0000
1000
0000
0001
,
0000
1000
0000
0000
,
0000
0001
0001
0001
,
0001
0000
0000
0000
,
0000
1000
1000
1000
,
1000
0000
0000
0000
,
0000
0010
0010
0010
,
0010
0000
0000
0000
,
0000
0100
0100
0100
,
0100
0000
0000
0000
,
0000
0010
0000
0000
,
0000
0010
0000
0000
,
0010
0010
0000
0000
,
0000
1001
0000
0000
,
0000
1000
0000
0010
,
0000
0100
0000
0001
,
0000
1000
0000
0010
,
0000
0100
0100
0100
,
0000
0001
0001
0001
,
0001
0001
0000
0001
,
0000
0010
0010
0010
,
0010
0010
0000
0010
,
0000
1000
1000
1000
,
1000
1000
0000
1000
,
0000
0100
0100
0100
,
0100
0100
0000
0100
,
0000
1001
0000
0000
;

//---------------dance-single - ----------------
#NOTEDATA:;
#CHARTNAME:;
#STEPSTYPE:dance-single;
#DESCRIPTION:;
#CHARTSTYLE:;
#DIFFICULTY:Easy;
#METER:5;
#RADARVALUES:0.170509,0.214817,0.048519,0.048519,0.000000,123.000000,118.000000,5.000000,5.000000,0.000000,0.000000,0.000000,0.000000,0.000000,0.170509,0.214817,0.048519,0.048519,0.000000,123.000000,118.000000,5.000000,5.000000,0.000000,0.000000,0.000000,0.000000,0.000000;
#CREDIT:;
#NOTES:
0000
0000
0000
0000
,
0000
0000
0000
0000
,
0000
0000
0000
0000
,
0000
0000
0000
0000
,
0000
1000
0001
1000
,
0001
0100
0010
0100
,
0010
1000
0001
1000
,
0001
0010
0100
0010
,
0100
1000
1000
0001
,
0001
1000
0010
0100
,
0001
1000
1000
0001
,
0001
1000
0100
0010
,
0001
0100
0100
0010
,
0010
1000
0001
0010
,
0100
1000
0010
0100
,
0001
1001
0000
0000
,
0000
2000
0000
0000
,
3000
0001
1000
0010
,
0100
0002
0000
0000
,
0003
1000
0001
0100
,
0010
0200
0000
0000
,
0300
0001
1000
0010
,
0100
0020
0000
0000
,
0030
0110
0000
0000
,
0000
1000
0000
0000
,
0000
0001
0000
0000
,
1000
1001
0000
0000
,
0000
0110
0000
0000
,
0010
0010
0010
0000
1000
0000
0100
0000
,
0000
0010
0001
0100
,
0000
0010
1000
0001
,
0000
0100
0001
2000
,
3000
0001
0010
0100
,
1000
0000
0100
0000
0010
0000
0100
0100
,
0100
1000
0100
0010
,
0001
0000
0010
0000
0100
0000
0010
0010
,
0010
0001
0100
1000
,
0100
0000
0001
0000
0010
0000
0001
0001
,
0001
1000
0100
0001
,
0100
0000
1000
0000
0010
0000
1000
1000
,
1000
1001
0000
0000
;

//---------------dance-double - ----------------
#NOTEDATA:;
#CHARTNAME:;
#STEPSTYPE:dance-double;
#DESCRIPTION:;
#CHARTSTYLE:;
#DIFFICULTY:Easy;
#METER:5;
#RADARVALUES:0.162191,0.195288,0.029111,0.048519,0.000000,117.000000,114.000000,3.000000,5.000000,0.000000,0.000000,0.000000,0.000000,0.000000,0.162191,0.195288,0.029111,0.048519,0.000000,117.000000,114.000000,3.000000,5.000000,0.000000,0.000000,0.000000,0.000000,0.000000;
#CREDIT:;
#NOTES:
00000000
00000000
00000000
00000000
,
00000000
00000000
00000000
00000000
,
00000000
00000000
00000000
00000000
,
00000000
00000000
00000000
00000000
,
00000000
00001000
00010000
00001000
,
00010000
00000010
00010000
00000010
,
00010000
00001000
00010000
00001000
,
01000000
00001000
01000000
00001000
,
00010000
00000100
00001000
00000001
,
00001000
00000100
00000010
00001000
,
00001000
00100000
00010000
10000000
,
00010000
00100000
01000000
00010000
,
00010000
00001000
00000100
00000001
,
00000100
00001000
01000000
00010000
,
00100000
01000000
10000000
00100000
,
00010000
00011000
00000000
00000000
,
00000000
00000020
00000000
00000000
,
00000030
00001000
00000100
00000010
,
00000001
00002000
00000000
00000000
,
00003000
00000100
00000010
00001000
,
00010000
02000000
00000000
00000000
,
03000000
00100000
00010000
10000000
,
01000000
00200000
00000000
00000000
,
00300000
01100000
00000000
00000000
,
00000000
10000000
00000000
00000000
,
00000000
00010000
00000000
00000000
,
00001000
00001000
00000000
00000000
,
00000000
00000001
00000000
00000000
,
00000100
00000010
00000100
00000000
00000001
00000000
00000010
00000000
,
00000000
00000010
00001000
00010000
,
00000000
00001000
00010000
00100000
,
00000000
00100000
10000000
02000000
,
03000000
00100000
00010000
00100000
,
01000000
10000000
00100000
00010000
,
00010000
00000010
00001000
00000010
,
00000100
00000001
00000010
00001000
,
00001000
01000000
00010000
00100000
,
01000000
00010000
01000000
10000000
,
00100000
00010000
00000010
00001000
,
00000100
00000001
00000100
00000010
,
00001000
00011000
00000000
00000000
;

//---------------dance-single - ----------------
#NOTEDATA:;
#CHARTNAME:;
#STEPSTYPE:dance-single;
#DESCRIPTION:;
#CHARTSTYLE:;
#DIFFICULTY:Medium;
#METER:10;
#RADARVALUES:0.300816,0.312461,0.232890,0.019407,0.000000,217.000000,193.000000,24.000000,2.000000,0.000000,0.000000,0.000000,0.000000,0.000000,0.300816,0.312461,0.232890,0.019407,0.000000,217.000000,193.000000,24.000000,2.000000,0.000000,0.000000,0.000000,0.000000,0.000000;
#CREDIT:;
#NOTES:
0000
0000
0000
0000
,
0000
0000
0000
0000
,
0000
0000
0000
0000
,
0000
0000
0000
0000
,
0000
1000
0001
1000
,
1001
0000
0001
0000
0100
0000
0010
1000
,
0010
1000
0001
0000
1000
0000
0001
0000
,
1001
0000
1000
0000
0010
0000
0100
0001
,
0100
0001
1000
0000
0100
0000
0010
0001
,
0010
0000
0100
1000
0100
1000
0010
0100
,
0010
0000
0100
0001
0100
0000
0010
1000
,
0010
0000
0100
0001
0100
0001
0010
0100
,
0010
0000
0100
0000
1100
0000
1000
0010
,
0100
0000
0001
0000
0011
0000
0010
0100
,
1000
0000
0001
0100
0010
1000
0100
0010
,
0001
1001
0000
0000
,
1000
1000
0010
0100
0001
1000
0010
0100
,
0001
0010
0011
0100
,
1100
0000
1000
0001
0010
0100
1000
0001
,
0010
0100
1100
0010
,
0011
0000
0001
0100
0010
1000
0001
0100
,
0010
1000
1010
0001
,
0101
0000
0100
0010
1000
0100
0010
0001
,
0100
0000
0110
0000
1001
0000
1000
0001
,
0200
0310
0000
0000
,
0000
0100
0000
0000
,
0110
1001
0000
0000
,
0000
1001
0000
0000
,
0001
0001
1000
0100
0010
0001
0010
0000
,
0011
0000
0001
0100
0010
1000
0010
0000
,
1010
0000
1000
0001
0100
0010
1000
0000
,
1100
0000
0100
0010
0001
1000
0020
0000
,
0100
0130
0100
0001
0010
1000
0010
0001
,
0100
0000
0110
0000
0010
0000
1000
0100
,
0010
0000
0100
1000
0010
0001
0010
1000
,
0100
0000
0110
0000
0010
0000
0001
0100
,
0010
0000
1000
0100
0001
0100
1000
0010
,
0100
0000
0101
0000
0001
0000
1000
0010
,
1010
0000
0001
0100
1000
0100
0001
0010
,
0100
0000
1000
0100
0001
0100
0010
0001
,
1000
1001
0000
0000
;

//---------------dance-double - ----------------
#NOTEDATA:;
#CHARTNAME:;
#STEPSTYPE:dance-double;
#DESCRIPTION:;
#CHARTSTYLE:;
#DIFFICULTY:Medium;
#METER:9;
#RADARVALUES:0.281409,0.292932,0.174667,0.019407,0.000000,203.000000,185.000000,18.000000,2.000000,0.000000,0.000000,0.000000,0.000000,0.000000,0.281409,0.292932,0.174667,0.019407,0.000000,203.000000,185.000000,18.000000,2.000000,0.000000,0.000000,0.000000,0.000000,0.000000;
#CREDIT:;
#NOTES:
00000000
00000000
00000000
00000000
,
00000000
00000000
00000000
00000000
,
00000000
00000000
00000000
00000000
,
00000000
00000000
00000000
00000000
,
00000000
00001000
00010000
00001000
,
00011000
00000000
00010000
00000000
00000100
00000000
00001000
00000010
,
00001000
00000010
00010000
00000000
00001000
00000000
00010000
00000000
,
00011000
00000000
00001000
00000000
01000000
00000000
00010000
00100000
,
00010000
00100000
00001000
00000000
00010000
00000000
00000010
00001000
,
00000010
00000000
00000100
00000001
00000100
00000000
00000010
00000100
,
00000010
00000000
00010000
00000000
00001000
00000000
00100000
00010000
,
00100000
00000000
01000000
10000000
01000000
00000000
00100000
01000000
,
00100000
00000000
00010000
00000000
01010000
00000000
01000000
00001000
,
00010000
00000000
00000100
00000000
00001100
00000000
00001000
00000001
,
00000010
00000000
00000100
00010000
00001000
00100000
00010000
01000000
,
00001000
00011000
00000000
00000000
,
00010000
00010000
00001000
00000100
00000001
00000000
00000001
00000010
,
00001000
00010000
00010010
00001000
,
00011000
00000000
00010000
00100000
10000000
00000000
10000000
01000000
,
00010000
00001000
01001000
00010000
,
00011000
00000000
00001000
00010000
00100000
00000000
00010000
00001000
,
00000010
00000001
00000101
00001000
,
00011000
00000000
00010000
00001000
00000100
00000000
00001000
00010000
,
01000000
00000000
11000000
00000000
10000000
00000000
00100000
00010000
,
00002000
00013000
00000000
00000000
,
00000000
00001000
00000000
00000000
,
00010000
00011000
00000000
00000000
,
00000000
00011000
00000000
00000000
,
00001000
00001000
00010000
00000100
00001000
00000100
00000010
00000000
,
00000001
00000000
00001000
00000010
00010000
00001000
00010000
00000000
,
00100000
00000000
10000000
01000000
00100000
00010000
00100000
00000000
,
00001000
00000000
00010000
00001000
00000100
00000010
00000200
00000000
,
00000301
00000001
00000010
00001000
00010000
00000000
00001000
00010000
,
01000000
00000000
11000000
00000000
10000000
00000000
00010000
00100000
,
01000000
10000000
01000000
00010000
00001000
00000000
00010000
00001000
,
00000100
00000000
00000101
00000000
00000001
00000000
00001000
00000010
,
00000100
00000001
00000100
00001000
00010000
00000000
00010000
01000000
,
10000000
00000000
10100000
00000000
00100000
00000000
01000000
00010000
,
00100000
01000000
00010000
00001000
00000100
00000000
00000100
00000001
,
00000010
00000000
00000010
00001000
00010000
01000000
10000000
00100000
,
00010000
00011000
00000000
00000000
;

//---------------dance-single - ----------------
#NOTEDATA:;
#CHARTNAME:;
#STEPSTYPE:dance-single;
#DESCRIPTION:;
#CHARTSTYLE:;
#DIFFICULTY:Hard;
#METER:13;
#RADARVALUES:0.479642,0.527277,0.339631,0.242594,0.363890,346.000000,311.000000,35.000000,25.000000,0.000000,0.000000,0.000000,0.000000,0.000000,0.479642,0.527277,0.339631,0.242594,0.363890,346.000000,311.000000,35.000000,25.000000,0.000000,0.000000,0.000000,0.000000,0.000000;
#CREDIT:;
#NOTES:
0000
0000
0000
0000
,
0000
0000
0000
0000
,
0000
0000
0000
0000
,
0000
0000
0000
0000
,
0000
0000
0000
0000
1001
0000
0001
1000
0001
0000
0100
0000
0010
0000
1000
0000
,
0001
0000
0100
0010
0100
0000
0010
0000
1000
0000
0001
0000
0100
0000
0010
1000
,
0010
1000
0010
0000
0100
0000
0001
0010
0001
0000
0100
0000
0010
0000
2000
0000
,
3100
0000
0020
0000
0031
0000
0001
0100
0000
0000
0100
0010
0000
0000
0010
1000
,
0000
0000
1000
0100
1000
0000
0010
0100
0010
0000
1000
0000
0001
0010
0001
0010
,
0001
0000
1000
0000
0020
0000
0130
0000
0100
0001
0100
0001
0100
0000
0001
0010
,
0001
0000
0200
0000
0310
0000
0010
1000
0010
0000
1000
0100
1000
0000
0001
0010
,
0001
0000
0010
0000
0200
0000
1300
0000
1000
0001
1000
0001
1000
0000
0010
0100
,
0010
0000
1000
0000
1200
0000
0310
0000
0021
0000
0130
0000
0100
1000
0010
0000
,
0100
0010
0000
0000
0210
0000
0301
0000
0120
0000
1030
0000
1000
0000
0001
0010
,
0100
0000
0010
0000
0012
0000
1003
0000
2100
0000
3001
0000
0001
0010
0001
0010
,
0001
0100
0220
0000
0000
0000
0000
0000
,
0330
0000
0000
0000
0110
0000
0010
1000
0200
0000
0310
0000
0100
1000
0020
0000
,
0130
0000
0000
0000
0101
0000
0001
0010
0001
0000
0100
0000
0010
0000
1000
0000
,
1100
0000
0000
0000
0110
0000
0010
0001
0200
0000
0310
0000
0100
0001
0020
0000
,
0130
0000
0000
0000
1100
0000
1000
0010
1000
0000
0100
0000
0010
0000
0001
0000
,
0101
0000
0000
0000
1001
0000
1000
0010
0200
0000
1300
0000
0100
0010
2000
0000
,
3100
0000
0000
0000
0110
0000
0010
0001
0010
0000
0100
0000
1000
0000
0010
0000
,
1010
0000
0000
0000
1001
0000
0001
0010
0200
0000
0301
0000
0100
0010
0002
0000
,
0103
0000
0000
0000
0110
0000
0010
1000
0200
0000
0310
0000
0010
0001
2000
0000
,
3100
0010
0002
0000
0103
0000
0000
0000
0000
0000
0000
0000
0000
0000
0000
0000
,
0000
1100
0000
0000
,
1010
0011
0000
0000
,
0000
1001
0000
0000
,
0110
0000
0110
0000
0010
0000
1000
0000
0100
0000
0001
0000
0100
0000
1000
0010
,
0000
0000
0100
0010
0100
0000
0001
0000
0010
0000
1000
0000
0010
0000
0001
0100
,
0000
0000
0010
0100
0010
0000
1000
0000
0100
0000
0001
0000
1000
0000
0010
0001
,
0000
0000
0100
0010
0100
0000
0001
0000
0010
0000
0100
0000
2000
0000
0000
0000
,
0001
0000
3001
0000
1001
0000
0001
0100
0010
0100
0001
0000
1000
0100
0010
0100
,
1000
0000
0000
0000
1010
0000
0010
0100
0001
0000
0010
0100
1000
0000
0010
0000
,
0100
0010
0000
0000
0110
0000
0100
0001
1000
0001
0100
0000
0010
1000
0001
1000
,
0010
0000
0000
0000
0110
0000
0100
0000
0001
0010
0100
0010
0001
0000
0100
0000
,
0010
1000
0000
0000
1100
0000
0100
1000
0010
0100
0010
0000
0100
0001
0010
0100
,
0010
0000
0100
1000
0001
0000
0010
0001
0100
0000
0010
1000
0100
0000
0110
0000
,
1001
0000
0000
0000
0011
0000
0001
0100
0010
0001
0010
0000
1000
0010
0100
1000
,
0100
0000
0000
0000
1010
0000
1000
0100
0001
0100
1000
0000
0001
0010
1000
0010
,
0001
0100
0110
0000
0000
0000
0000
0000
;

//---------------dance-double - ----------------
#NOTEDATA:;
#CHARTNAME:;
#STEPSTYPE:dance-double;
#DESCRIPTION:;
#CHARTSTYLE:;
#DIFFICULTY:Hard;
#METER:13;
#RADARVALUES:0.461621,0.488220,0.291112,0.135852,0.325075,333.000000,303.000000,30.000000,14.000000,0.000000,0.000000,0.000000,0.000000,0.000000,0.461621,0.488220,0.291112,0.135852,0.325075,333.000000,303.000000,30.000000,14.000000,0.000000,0.000000,0.000000,0.000000,0.000000;
#CREDIT:;
#NOTES:
00000000
00000000
00000000
00000000
,
00000000
00000000
00000000
00000000
,
00000000
00000000
00000000
00000000
,
00000000
00000000
00000000
00000000
,
00000000
00000000
00000000
00000000
00011000
00000000
00001000
00010000
00001000
00000000
01000000
00000000
00010000
00000000
00100000
00000000
,
00001000
00000000
00010000
00001000
00010000
00000000
00000100
00000000
00001000
00000000
00000010
00000000
00010000
00000000
00001000
00010000
,
00001000
00010000
00001000
00000000
00100000
00000000
00010000
01000000
00010000
00000000
00100000
00000000
01000000
00000000
20000000
00000000
,
30100000
00000000
00200000
00000000
00310000
00000000
00010000
00001000
00000000
00000000
00001000
00000100
00000000
00000000
00000100
00000001
,
00000000
00000000
00000001
00000010
00000001
00000000
00001000
00000100
00001000
00000000
00000010
00000000
00000100
00000001
00000100
00000001
,
00000100
00000000
00000010
00000000
00020000
00000000
00031000
00000000
00001000
00100000
00001000
00100000
00001000
00000000
01000000
00100000
,
01000000
00000000
00200000
00000000
10300000
00000000
10000000
01000000
10000000
00000000
00100000
01000000
00100000
00000000
01000000
00010000
,
01000000
00000000
00001000
00000000
00020000
00000000
00030100
00000000
00000100
00001000
00000100
00001000
00000100
00000000
00000010
00000001
,
00000010
00000000
00000100
00000000
00020100
00000000
00031000
00000000
01002000
00000000
00013000
00000000
00010000
00000100
00001000
00000000
,
00000010
00010000
00000000
00000000
00012000
00000000
00103000
00000000
00021000
00000000
00030010
00000000
00000010
00000000
00001000
00000100
,
00000010
00000000
00001000
00000000
00021000
00000000
00130000
00000000
00012000
00000000
00003010
00000000
00001000
00010000
00001000
00010000
,
00001000
01000000
02200000
00000000
00000000
00000000
00000000
00000000
,
03300000
00000000
00000000
00000000
01100000
00000000
00100000
10000000
01000000
00000000
00010000
00000000
01000000
10000000
00100000
00000000
,
00010000
00000000
00000000
00000000
00011000
00000000
00001000
00010000
00001000
00000000
00000100
00000000
00000001
00000000
00000010
00000000
,
00000100
00000000
00000000
00000000
00000110
00000000
00000010
00000001
00000100
00000000
00001000
00000000
00000100
00000001
00000010
00000000
,
00001000
00000000
00000000
00000000
00011000
00000000
00010000
00001000
00010000
00000000
01000000
00000000
10000000
00000000
00100000
00000000
,
01000000
00000000
00000000
00000000
01010000
00000000
00010000
00100000
01000000
00000000
00010000
00000000
00001000
00010000
01000000
00000000
,
10000000
00000000
00000000
00000000
10100000
00000000
00100000
01000000
00100000
00000000
00010000
00000000
00001000
00000000
00000100
00000000
,
00000010
00000000
00000000
00000000
00001010
00000000
00001000
00000100
00000010
00000000
00001000
00000000
00010000
00001000
00000010
00000000
,
00000001
00000000
00000000
00000000
00000101
00000000
00000100
00001000
00010000
00000000
00100000
00000000
10000000
01000000
00100000
00000000
,
01000000
00010000
00001000
00000000
00101000
00000000
00000000
00000000
00000000
00000000
00000000
00000000
00000000
00000000
00000000
00000000
,
00000000
00010010
00000000
00000000
,
01001000
00010100
00000000
00000000
,
00000000
00011000
00000000
00000000
,
00010000
00000000
00010000
00000000
00001000
00000000
00000100
00000000
00000001
00000000
00000010
00000000
00001000
00000000
00010000
00001000
,
00000000
00000000
00010000
00001000
00010000
00000000
01000000
00000000
10000000
00000000
00100000
00000000
00010000
00000000
00001000
00010000
,
00000000
00000000
00001000
00010000
00001000
00000000
00000010
00000000
00000001
00000000
00000100
00000000
00001000
00000000
00010000
00001000
,
00000000
00000000
00010000
00001000
00010000
00000000
01000000
00000000
10000000
00000000
00100000
00000000
00020000
00000000
00000000
00000000
,
00001000
00000000
00031000
00000000
00011000
00000000
00010000
01000000
10000000
00000000
01000000
00000000
00010000
01000000
10000000
00000000
,
00100000
00000000
00000000
00000000
01100000
00000000
01000000
00010000
00100000
00000000
01000000
00010000
00001000
00000000
00000010
00000000
,
00000100
00010000
00000000
00000000
00011000
00000000
00001000
00000100
00000001
00000000
00000100
00000000
00001000
00000100
00000001
00000000
,
00000010
00000000
00000000
00000000
00000110
00000000
00000100
00001000
00000010
00000000
00000100
00001000
00010000
00000000
00100000
00000000
,
01000000
00001000
00000000
00000000
00011000
00000000
00010000
00001000
00000010
00000000
00001000
00000000
00010000
00001000
00000100
00000000
,
00000001
00000000
00000010
00000100
00001000
00000000
00000100
00001000
00010000
00000000
00001000
00010000
01000000
00000000
00100000
00000000
,
01100000
00000000
00000000
00000000
10010000
00000000
10000000
01000000
00010000
00000000
00001000
00000000
00010000
00001000
00000010
00000000
,
00000001
00000000
00000000
00000000
00000101
00000000
00000100
00001000
00010000
01000000
10000000
00000000
00100000
00010000
00001000
00000100
,
00000001
00000010
00000110
00000000
00000000
00000000
00000000
00000000
;

//---------------dance-single - ----------------
#NOTEDATA:;
#CHARTNAME:;
#STEPSTYPE:dance-single;
#DESCRIPTION:;
#CHARTSTYLE:;
#DIFFICULTY:Challenge;
#METER:15;
#RADARVALUES:0.576680,0.608425,0.630743,0.524002,0.548262,416.000000,351.000000,65.000000,54.000000,33.000000,0.000000,0.000000,0.000000,0.000000,0.576680,0.608425,0.630743,0.524002,0.548262,416.000000,351.000000,65.000000,54.000000,33.000000,0.000000,0.000000,0.000000,0.000000;
#CREDIT:;
#OFFSET:-0.039000;
#BPMS:0.000000=98.000000
,61.000000=49.000000
,62.500000=196.000000
,63.000000=98.000000
,96.500000=49.000000
,97.000000=98.000000
,100.500000=49.000000
,101.000000=98.000000
,102.500000=196.000000
,103.500000=98.000000
,118.500000=196.000000
,119.500000=98.000000
,151.500000=100000000.000000
,152.000000=198.000000
;
#STOPS:62.500000=0.229591
,62.750000=0.229591
,95.000000=0.153061
,95.250000=0.153061
,95.500000=0.153061
,95.750000=0.076530
,95.875000=0.153061
,96.125000=0.076530
,96.250000=0.153061
,97.000000=0.076530
,97.125000=0.076530
,97.250000=0.076530
,97.375000=0.076530
,97.500000=0.153061
,97.750000=0.459183
,98.000000=0.153061
,99.250000=0.153061
,99.500000=0.153061
,99.750000=0.459183
,100.000000=0.076530
,100.125000=0.076530
,100.250000=0.076530
,100.375000=0.076530
,101.000000=0.153061
,101.250000=0.153061
,101.500000=0.153061
,101.750000=0.153061
,102.000000=0.153061
,102.250000=0.153061
,102.500000=0.153061
,103.000000=0.153061
,118.500000=0.153061
,119.000000=0.153061
;
#DELAYS:;
#WARPS:;
#TIMESIGNATURES:0.000000=4=4
;
#TICKCOUNTS:0.000000=4
;
#COMBOS:0.000000=1
;
#SPEEDS:0.000000=999.000000=0.000000=0
,1.000000=0.050000=0.000000=0
,1.250000=999.000000=0.000000=0
,5.000000=0.100000=0.000000=0
,5.250000=999.000000=0.000000=0
,9.000000=0.500000=0.000000=0
,13.000000=1.000000=4.000000=0
,17.000000=0.500000=0.125000=0
,17.125000=1.000000=0.125000=0
,61.000000=0.500000=0.062500=0
,61.062500=1.000000=0.062500=0
,61.250000=0.500000=0.125000=0
,61.375000=1.000000=0.125000=0
,61.500000=0.500000=0.125000=0
,61.625000=1.000000=0.125000=0
,62.000000=0.700000=0.125000=0
,62.125000=1.000000=0.125000=0
,62.250000=0.700000=0.125000=0
,62.375000=1.000000=0.125000=0
,98.250000=0.700000=0.125000=0
,98.375000=1.000000=0.125000=0
;
#SCROLLS:0.000000=1.000000
,9.000000=0.500000
,13.000000=1.000000
;
#FAKES:;
#LABELS:0.000000=Song Start
;
#NOTES:
// measure 0
0000
0000
0000
0000
,  // measure 1
0000
0000
0000
0000
,  // measure 2
0000
0000
0000
0000
,  // measure 3
0000
0000
1100
1100
1100
1100
1010
0011
,  // measure 4
0101
0000
1100
0000
1001
0000
0001
0010
0200
0000
0310
0000
0110
0000
0200
0000
,  // measure 5
1300
0000
1000
0010
0100
0000
1000
0100
0020
0000
0130
0000
0100
0001
0010
0100
,  // measure 6
1000
0010
0100
0000
0101
0000
0001
1000
0010
0100
0010
0000
1000
0000
1200
0000
,  // measure 7
0310
0000
0021
0000
0130
0000
0200
1000
0300
0000
2000
0010
3000
0000
0020
0100
,  // measure 8
0030
0000
0100
0001
0010
0000
0010
0001
0100
0000
0110
0000
0010
1000
0100
0010
,  // measure 9
0100
0000
1000
0000
1010
0000
0101
0000
0001
0010
0100
0010
0001
0000
1000
0100
,  // measure 10
0010
0000
0011
0000
1100
0000
1000
0010
0100
0000
1000
0100
0010
0000
0100
0001
,  // measure 11
0010
0000
0012
0000
1003
0000
1010
0000
0010
0100
0001
0100
0010
0000
0001
0010
,  // measure 12
0100
0000
0001
0000
0021
0000
0130
0000
1020
0000
0130
0000
0010
0001
0100
0000
,  // measure 13
1000
0000
0000
0000
0100
0000
0000
0000
0000
0000
0000
0000
1200
0000
0000
0000
0000
0000
0310
0000
0000
0000
0000
0000
0201
0000
0000
0000
0000
0000
0310
0000
0000
1000
0000
0000
0100
0000
0000
0000
0000
0000
0001
0000
0000
0100
0000
0000
,  // measure 14
1000
0000
0000
0000
0010
0000
0000
0000
0000
0000
0000
0000
0102
0000
0000
0000
0000
0000
0013
0000
0000
0000
0000
0000
2100
0000
0000
0000
0000
0000
3010
0000
0000
0100
0000
0000
0010
0000
0000
1000
0000
0000
0100
0000
0000
0001
0000
0000
,  // measure 15
0100
0000
0000
0000
1000
0000
0000
0000
0000
0000
0000
0000
2002
0000
0000
0000
0000
0000
0000
0000
0000
0000
0000
0000
0000
0000
0000
0000
0000
0000
3MM3
0000
0000
0MM0
0000
0000
1001
0000
0000
0000
0000
0000
1000
0000
0000
0100
0000
0000
,  // measure 16
M100
0001
1000
0000
0001
0100
010M
1000
0002
0000
0003
0000
0101
0000
0100
0010
,  // measure 17
1000
0000
0000
0000
0000
0000
0100
0000
0000
0010
0000
0000
1000
0000
0000
0000
0000
0000
0010
0000
0000
0000
0000
0000
0001
0000
0000
0000
0100
0000
0000
0000
0000
0000
0000
0000
1001
0000
0000
0000
0000
0000
0001
0000
0000
0010
0000
0000
,  // measure 18
001M
1000
0001
0000
1000
0010
M010
0001
2000
0000
3000
0000
1010
0000
0010
0000
,  // measure 19
0100
0000
0000
0001
0000
0000
0010
0000
0000
0100
0000
0000
0010
0000
0000
0000
0000
0000
1000
0000
0000
0000
0000
0000
0010
0000
0000
0000
0001
0000
0000
0000
0000
0000
0000
0000
1001
0000
0000
0000
0000
0000
1000
0000
0000
0010
0000
0000
,  // measure 20
M010
0001
1000
0000
0001
0100
010M
1000
0002
0000
0013
0100
1000
0000
0010
0100
,  // measure 21
1000
0100
0010
0001
0010
0000
1010
0000
0202
0000
0303
0000
0110
0000
0010
0100
,  // measure 22
01M0
1000
0001
0000
0100
0010
0M10
0001
2000
0000
3000
0000
1001
0000
0001
0010
,  // measure 23
001M
0000
1000
0000
0100
0000
0000
0000
0010
0001
0010
0001
0010
0000
0100
0000
1000
0010
1000
0010
0100
0000
0001
0000
1001
0000
0000
0000
0000
0000
0000
0000
,  // measure 24
0000
0000
0000
0000
1M1M
0000
0000
0000
0000
M1M1
0000
0000
0000
11MM
0000
0000
,  // measure 25
0000
0000
0000
0000
0000
0000
0000
0000
MM11
0000
0000
0000
0000
0000
0000
0000
0000
0000
0000
0000
0220
0330
0000
0000
0220
0330
0000
0000
1001
0000
0000
0000
,  // measure 26
2000
0000
3020
0000
0032
0000
0023
0000
1030
0100
0010
0000
0100
0010
1001
0000
,  // measure 27
0002
0000
0203
0000
2300
0000
3200
0000
0301
0010
0100
0000
0010
0100
1001
0000
,  // measure 28
2000
0000
3020
0000
0032
0000
0203
0000
1300
0010
0100
0000
0010
0100
1001
0000
,  // measure 29
0002
0000
0023
0000
2030
0000
3200
0000
0301
1000
0MM0
0000
0MM0
0000
0110
0000
,  // measure 30
0010
1000
0100
0010
0001
0M00
0010
1000
0100
0010
0022
0000
0033
0000
0101
0000
,  // measure 31
0100
0000
0000
0010
0000
0000
0001
0000
0000
0000
0000
0000
0010
0000
0000
0100
0000
0000
0001
0000
0000
0000
0000
0000
0011
0000
0000
0000
0000
0000
0100
0000
0000
0000
1000
0000
0000
0000
0000
0000
0000
0000
0110
0000
0000
0000
0000
0000
,  // measure 32
0010
0001
0100
0010
1000
0M00
0010
0001
0100
0010
2020
0000
3030
0000
1100
0000
,  // measure 33
0100
0000
0000
0000
0000
0000
1000
0000
0000
0010
0000
0000
0100
0000
0000
1000
0000
0000
0100
0000
0000
0000
0000
0000
0001
0000
0000
0000
0000
0000
0010
0000
0000
0000
0100
0000
0000
0000
0000
0000
0000
0000
1001
0000
0000
0000
0000
0000
,  // measure 34
0001
0010
0100
1000
0100
M000
0001
0010
0100
1000
1200
0000
0301
0100
1000
0000
,  // measure 35
0100
0001
0100
0010
0001
1000
0100
0000
1100
0000
0022
0000
0033
0000
1001
0000
,  // measure 36
1000
0010
0100
0001
0100
000M
1000
0010
0100
0001
0202
0000
0303
0000
0110
0000
,  // measure 37
0010
1000
0100
0010
1MM1
0000
0010
0001
0100
0010
1MM1
0000
1100
0000
0202
0000
,  // measure 38
0303
0000
0000
0000
;

//---------------dance-double - ----------------
#NOTEDATA:;
#CHARTNAME:;
#STEPSTYPE:dance-double;
#DESCRIPTION:;
#CHARTSTYLE:;
#DIFFICULTY:Challenge;
#METER:15;
#RADARVALUES:0.558658,0.571551,0.524002,0.456076,0.514298,403.000000,349.000000,54.000000,47.000000,0.000000,0.000000,0.000000,0.000000,0.000000,0.558658,0.571551,0.524002,0.456076,0.514298,403.000000,349.000000,54.000000,47.000000,0.000000,0.000000,0.000000,0.000000,0.000000;
#CREDIT:;
#OFFSET:-0.039000;
#BPMS:0.000000=98.000000
,61.000000=49.000000
,62.500000=196.000000
,63.000000=98.000000
,96.500000=49.000000
,97.000000=98.000000
,100.500000=49.000000
,101.000000=98.000000
,102.500000=196.000000
,103.500000=98.000000
,118.500000=196.000000
,119.500000=98.000000
,151.500000=100000000.000000
,152.000000=198.000000
;
#STOPS:62.500000=0.229591
,62.750000=0.229591
,95.000000=0.153061
,95.250000=0.153061
,95.500000=0.153061
,95.750000=0.076530
,95.875000=0.153061
,96.125000=0.076530
,96.250000=0.153061
,97.000000=0.076530
,97.125000=0.076530
,97.250000=0.076530
,97.375000=0.076530
,97.500000=0.153061
,97.750000=0.459183
,98.000000=0.153061
,99.250000=0.153061
,99.500000=0.153061
,99.750000=0.459183
,100.000000=0.076530
,100.125000=0.076530
,100.250000=0.076530
,100.375000=0.076530
,101.000000=0.153061
,101.250000=0.153061
,101.500000=0.153061
,101.750000=0.153061
,102.000000=0.153061
,102.250000=0.153061
,102.500000=0.153061
,103.000000=0.153061
,118.500000=0.153061
,119.000000=0.153061
;
#DELAYS:;
#WARPS:;
#TIMESIGNATURES:0.000000=4=4
;
#TICKCOUNTS:0.000000=4
;
#COMBOS:0.000000=1
;
#SPEEDS:0.000000=999.000000=0.000000=0
,1.000000=0.050000=0.000000=0
,1.250000=999.000000=0.000000=0
,5.000000=0.100000=0.000000=0
,5.250000=999.000000=0.000000=0
,9.000000=0.500000=0.000000=0
,13.000000=1.000000=4.000000=0
,17.000000=0.500000=0.125000=0
,17.125000=1.000000=0.125000=0
,61.000000=0.500000=0.062500=0
,61.062500=1.000000=0.062500=0
,61.250000=0.500000=0.125000=0
,61.375000=1.000000=0.125000=0
,61.500000=0.500000=0.125000=0
,61.625000=1.000000=0.125000=0
,62.000000=0.700000=0.125000=0
,62.125000=1.000000=0.125000=0
,62.250000=0.700000=0.125000=0
,62.375000=1.000000=0.125000=0
,98.250000=0.700000=0.125000=0
,98.375000=1.000000=0.125000=0
;
#SCROLLS:0.000000=1.000000
,9.000000=0.500000
,13.000000=1.000000
;
#FAKES:;
#LABELS:0.000000=Song Start
;
#NOTES:
00000000
00000000
00000000
00000000
,
00000000
00000000
00000000
00000000
,
00000000
00000000
00000000
00000000
,
00000000
00000000
00011000
00011000
00011000
00011000
01001000
00010100
,
00101000
00000000
00010010
00000000
00011000
00000000
00001000
00100000
00020000
00000000
01030000
00000000
01100000
00000000
00200000
00000000
,
10300000
00000000
10000000
01000000
00100000
00000000
01000000
00010000
00002000
00000000
00003010
00000000
00000010
00000100
00000010
00000001
,
00001000
00000100
00000010
00000000
00000011
00000000
00000001
00000100
00001000
00010000
01000000
00000000
10000000
00000000
10200000
00000000
,
01300000
00000000
01020000
00000000
00130000
00000000
00100000
02000000
00000000
00000000
03010000
00002000
00000000
00000000
00003010
00000200
,
00000000
00000000
00001300
00000001
00000100
00000000
00000100
00000001
00001000
00000000
00001010
00000000
00000010
00010000
00001000
00100000
,
00010000
00000000
00100000
00000000
02100000
00000000
13000000
00000000
10000000
00100000
01000000
00100000
00010000
00000000
00100000
00010000
,
00001000
00000000
00021000
00000000
00030010
00000000
00000010
00001000
00000100
00000000
00000010
00000100
00001000
00000000
00000001
00000100
,
00000010
00000000
00002010
00000000
00003100
00000000
00010100
00000000
00010000
00001000
00000100
00001000
00010000
00000000
00001000
00010000
,
01000000
00000000
10000000
00000000
10100000
00000000
01000000
00000000
00110000
00000000
01000000
00000000
10000000
00100000
00010000
00000000
,
00001000
00000000
00000000
00000000
00000100
00000000
00000000
00000000
00000000
00000000
00000000
00000000
00000101
00000000
00000000
00000000
00000000
00000000
00000010
00000000
00000000
00000000
00000000
00000000
00001100
00000000
00000000
00000000
00000000
00000000
00000010
00000000
00000000
00000001
00000000
00000000
00000100
00000000
00000000
00000000
00000000
00000000
00001000
00000000
00000000
00010000
00000000
00000000
,
01000000
00000000
00000000
00000000
10000000
00000000
00000000
00000000
00000000
00000000
00000000
00000000
10100000
00000000
00000000
00000000
00000000
00000000
01000000
00000000
00000000
00000000
00000000
00000000
00110000
00000000
00000000
00000000
00000000
00000000
00010000
00000000
00000000
01000000
00000000
00000000
00001000
00000000
00000000
00010000
00000000
00000000
00000100
00000000
00000000
00001000
00000000
00000000
,
00000010
00000000
00000000
00000000
00010000
00000000
00000000
00000000
00000000
00000000
00000000
00000000
00022000
00000000
00000000
00000000
00000000
00000000
00000000
00000000
00000000
00000000
00000000
00000000
00000000
00000000
00000000
00000000
00000000
00000000
00033000
00000000
00000000
00000000
00000000
00000000
00011000
00000000
00000000
00000000
00000000
00000000
00010000
00000000
00000000
01000000
00000000
00000000
,
10000000
01000000
00010000
00000000
00001000
00000100
00000001
00000100
00002000
00000000
00003000
00000000
00011000
00000000
00010000
00100000
,
10000000
00000000
00000000
00000000
00000000
00000000
01000000
00000000
00000000
00100000
00000000
00000000
00010000
00000000
00000000
00000000
00000000
00000000
00100000
00000000
00000000
00000000
00000000
00000000
00001000
00000000
00000000
00000000
00010000
00000000
00000000
00000000
00000000
00000000
00000000
00000000
00011000
00000000
00000000
00000000
00000000
00000000
00001000
00000000
00000000
00000010
00000000
00000000
,
00000001
00000010
00001000
00000000
00010000
00100000
10000000
00100000
00020000
00000000
00030000
00000000
00011000
00000000
00001000
00000000
,
00000100
00000000
00000000
00000001
00000000
00000000
00000010
00000000
00000000
00000100
00000000
00000000
00000010
00000000
00000000
00000000
00000000
00000000
00001000
00000000
00000000
00000000
00000000
00000000
00010000
00000000
00000000
00000000
00001000
00000000
00000000
00000000
00000000
00000000
00000000
00000000
00011000
00000000
00000000
00000000
00000000
00000000
00010000
00000000
00000000
01000000
00000000
00000000
,
10000000
00100000
00010000
00000000
00001000
00000100
00000001
00000010
00002000
00000000
00013000
01000000
00100000
00000000
00001000
00010000
,
01000000
10000000
00010000
00100000
01000000
00000000
00010000
00000000
00022000
00000000
00033000
00000000
00011000
00000000
00001000
00000010
,
00000001
00000100
00001000
00000000
00010000
00100000
10000000
01000000
00020000
00000000
00030000
00000000
00011000
00000000
00001000
00000100
,
00000010
00000000
00000001
00000000
00000010
00000000
00000000
00000000
00000100
00000010
00000100
00000000
00001000
00000000
00010000
00000000
00100000
01000000
00100000
00000000
10000000
00000000
00010000
00000000
10010000
00000000
00000000
00000000
00000000
00000000
00000000
00000000
,
00000000
00000000
00000000
00000000
00011000
00000000
00000000
00000000
00000000
00000110
00000000
00000000
00000000
00001001
00000000
00000000
,
00000000
00000000
00000000
00000000
00000000
00000000
00000000
00000000
00011000
00000000
00000000
00000000
00000000
00000000
00000000
00000000
00000000
00000000
00000000
00000000
02200000
03300000
00000000
00000000
02200000
03300000
00000000
00000000
10010000
00000000
00000000
00000000
,
20000000
00000000
32000000
00000000
03200000
00000000
00320000
00000000
00031000
00000100
00000010
00000000
00000100
00000010
00001001
00000000
,
00000002
00000000
00000023
00000000
00000230
00000000
00002300
00000000
00013000
00100000
01000000
00000000
00100000
01000000
10010000
00000000
,
20000000
00000000
30200000
00000000
02300000
00000000
03020000
00000000
00031000
00000010
00000100
00000000
00000010
00000100
00001001
00000000
,
00000002
00000000
00000203
00000000
00000320
00000000
00002030
00000000
00013000
01000000
00000000
00000000
00000000
00000000
10100000
00000000
,
10000000
01000000
00100000
00010000
00001000
00000000
00010000
00001000
00000100
00000010
00000002
00000000
00000003
00000000
00000101
00000000
,
00000100
00000000
00000000
00001000
00000000
00000000
00010000
00000000
00000000
00000000
00000000
00000000
00001000
00000000
00000000
00000100
00000000
00000000
00000001
00000000
00000000
00000000
00000000
00000000
00000011
00000000
00000000
00000000
00000000
00000000
00000100
00000000
00000000
00000000
00000010
00000000
00000000
00000000
00000000
00000000
00000000
00000000
00000011
00000000
00000000
00000000
00000000
00000000
,
00000001
00000100
00000010
00001000
00010000
00000000
00001000
00010000
01000000
00100000
20000000
00000000
30000000
00000000
11000000
00000000
,
01000000
00000000
00000000
00000000
00000000
00000000
00010000
00000000
00000000
01000000
00000000
00000000
10000000
00000000
00000000
00100000
00000000
00000000
00010000
00000000
00000000
00000000
00000000
00000000
00001000
00000000
00000000
00000000
00000000
00000000
00100000
00000000
00000000
00000000
01000000
00000000
00000000
00000000
00000000
00000000
00000000
00000000
11000000
00000000
00000000
00000000
00000000
00000000
,
10000000
00100000
01000000
00010000
00001000
00000000
00010000
00001000
00000100
00000010
00000002
00000000
00000103
00001000
00010000
00000000
,
00001000
00000100
00000001
00001000
00000100
00000010
00001000
00000000
00010000
00000000
00022000
00000000
00033000
00000000
00011000
00000000
,
00000100
00000010
00000001
00000100
00001000
00000000
00100000
01000000
10000000
00100000
00020000
00000000
00030000
00000000
00011000
00000000
,
00001000
00000100
00000010
00000001
00001000
00000000
00010000
00100000
01000000
10000000
00010000
00000000
00001000
00000000
00022000
00000000
,
00033000
00000000
00000000
00000000
;
