#TITLE:HELL SCAPER;
#SUBTITLE:;
#ARTIST:L.E.D.LIGHT-G;
#TITLETRANSLIT:;
#SUBTITLETRANSLIT:;
#ARTISTTRANSLIT:;
#GENRE:GABBAH;
#CREDIT:;
#BANNER:HELL SCAPER.png;
#BACKGROUND:HELL SCAPER-bg.png;
#LYRICSPATH:;
#CDTITLE:cdtitle.png;
#MUSIC:HELL SCAPER.ogg;
#OFFSET:-0.523000;
#SAMPLESTART:66.437004;
#SAMPLELENGTH:15.000000;
#SELECTABLE:YES;
#BPMS:0.000000=190.000000
,140.000000=195.000000
,156.000000=200.000000
;
#STOPS:
;
#BGCHANGES:0.000=HELL SCAPER.avi=1.000=0=0=0=StretchNoLoop==CrossFade_Fastest==,
99999=-nosongbg-=1.000=0=0=0 // don't automatically add -songbackground-
;
#KEYSOUNDS:;
#ATTACKS:;

//---------------dance-single - Daff_4K----------------
#NOTES:
     dance-single:
     Daff_4K:
     Beginner:
     4:
     0.201500,0.277217,0.054250,0.000000,0.000000,130.000000,125.000000,5.000000,0.000000,0.000000,0.000000,0.201500,0.277217,0.054250,0.000000,0.000000,130.000000,125.000000,5.000000,0.000000,0.000000,0.000000:
0000
0000
0000
0000
,
0000
0000
0000
0000
,
0000
0000
0000
0000
,
1001
0000
0000
0000
,
1000
0000
0000
0000
,
0001
0000
0000
0000
,
1000
0000
0000
0000
,
0001
0000
1000
0000
,
0100
0000
0000
0000
,
0010
0000
0000
0000
,
0100
0000
0000
0000
,
0010
0000
0001
0000
,
1001
0000
0000
0000
,
0000
0000
0000
0000
,
0000
0000
0000
0000
,
1000
0000
0010
0000
,
0001
0000
0000
0000
,
0001
0000
0010
0000
,
1000
0000
0000
0000
,
0001
0000
0010
0000
,
0100
0000
0000
0000
,
1000
0000
0010
0000
,
0100
0000
0000
0000
,
0001
0000
1000
0000
,
0100
0000
0000
0000
,
1000
0000
0001
0000
,
1001
0000
0000
0000
,
0000
1000
0000
0010
,
0000
1000
1000
1000
,
0000
0001
0000
0100
,
0000
0001
0001
0001
,
0000
0010
0000
0100
,
0000
1000
1000
1000
,
0000
0010
0000
0100
,
0100
0000
0000
0000
,
1000
0001
0000
0010
,
0000
0001
0001
0001
,
0000
1000
0000
0100
,
0000
1000
1000
1000
,
0000
0010
0000
0100
,
0000
0001
0001
0001
,
0001
0000
1000
0000
,
0100
0100
0100
0000
,
0010
0000
0001
0000
,
0100
0000
0000
0000
,
0010
0000
1000
0000
,
0100
0000
0000
0000
,
0010
0010
0010
0000
,
0001
0000
1000
0000
,
0010
0010
0010
0000
,
0100
0100
0100
0000
,
0001
0000
1000
0000
,
1001
0000
0000
0000
,
0001
0000
0010
0000
,
1000
0000
0000
0000
,
0010
0000
0100
0000
,
0010
0000
0001
0000
,
1000
0000
0010
0000
,
0001
0000
0000
0000
,
0010
0000
0100
0000
,
0010
0000
0000
0000
,
1000
0000
0100
0000
,
0010
0010
0010
0000
,
0001
0000
0100
0000
,
0010
0010
0010
0000
,
0100
0000
0001
0000
,
0010
0010
0010
0000
,
0100
0000
1000
0000
,
0010
0010
0010
0010
,
0010
0000
0000
0000
,
0000
0000
0000
0000
,
0000
0000
0000
0000
,
0000
0000
0000
0000
,
1001
0000
0000
0000
;

//---------------dance-single - Daff_4K----------------
#NOTES:
     dance-single:
     Daff_4K:
     Easy:
     7:
     0.350300,0.554434,0.271250,0.000000,0.000000,226.000000,201.000000,25.000000,0.000000,0.000000,0.000000,0.350300,0.554434,0.271250,0.000000,0.000000,226.000000,201.000000,25.000000,0.000000,0.000000,0.000000:
0000
0000
0000
0000
,
0000
0000
0000
0000
,
0000
0000
0000
0000
,
1001
0000
0000
0000
,
1000
0000
0100
0000
,
1000
0000
0001
1000
,
0001
0000
0100
0000
,
0001
0000
1000
0001
,
0010
0100
0010
0100
,
1000
0001
1000
0001
,
0100
0010
1000
0001
,
0010
0010
0100
0100
,
1001
0000
0000
0000
,
0000
0000
0000
0000
,
1001
0000
0000
0000
,
1000
0100
0001
0100
,
1000
0000
0000
0000
,
0001
0100
1000
0100
,
0001
0000
0000
0000
,
1000
0100
0001
0100
,
1000
1000
0001
0001
,
0100
0100
0010
1000
,
0100
0010
0001
1000
,
0001
0100
1000
0100
,
0001
0001
1000
1000
,
0100
0100
0010
0001
,
1001
0000
0000
0000
,
1000
0000
0010
0000
,
1000
1000
0001
1000
,
0100
0000
0010
0000
,
0100
0010
0001
1000
,
0001
0000
0010
0000
,
0001
0001
1000
0001
,
0100
0000
0010
0000
,
0100
0010
1000
0001
,
1000
1000
0100
0100
,
0001
0001
0100
0010
,
0001
0001
1000
1000
,
0010
0100
0010
1000
,
0001
0001
0100
0100
,
1000
1000
0100
0010
,
0110
0000
1001
0000
,
1000
0001
0100
0010
,
0110
0000
1001
0000
,
0110
0000
0000
0000
,
1001
0000
0110
0000
,
1001
0000
0000
0000
,
1000
0000
0100
0000
0001
0000
0000
0100
,
0000
0010
0000
0100
0000
0000
0000
0000
,
1000
0000
0001
0000
1000
0000
0000
0010
,
0000
0010
0000
0100
0000
0100
0000
0000
,
1001
0000
0110
0000
,
1001
0000
0000
0000
,
0001
0010
1000
0010
,
0001
0001
1000
1000
,
0010
0010
0100
0001
,
0010
0100
1000
0001
,
1000
0010
0001
0010
,
1000
1000
0001
0001
,
0010
0010
0100
1000
,
1001
0000
0000
0000
,
0001
0100
1000
0100
,
0010
0000
0000
1001
0000
0000
0000
0000
,
1000
0001
1000
0100
,
0010
0000
0000
1001
0000
0000
0000
0000
,
1000
0100
0001
0100
,
0010
0000
0000
1001
0000
0000
0000
0000
,
0001
1000
0001
0100
,
0110
0110
0110
0110
,
1001
0000
0000
0000
,
0000
0000
0000
0000
,
0000
0000
0000
0000
,
0000
0000
0000
0000
,
1001
0000
0000
0000
;

//---------------dance-single - Daff_4K----------------
#NOTES:
     dance-single:
     Daff_4K:
     Medium:
     11:
     0.460350,0.554434,0.499099,0.000000,0.016275,297.000000,251.000000,46.000000,0.000000,0.000000,0.000000,0.460350,0.554434,0.499099,0.000000,0.016275,297.000000,251.000000,46.000000,0.000000,0.000000,0.000000:
0000
0000
0000
0000
,
0000
0000
0000
0000
,
0000
0000
0000
0000
,
1001
0000
0000
0000
,
1000
0010
1000
1001
,
0001
0010
0001
1001
,
1000
0010
0100
0101
,
0001
0010
0100
1100
,
1000
0010
1000
0000
0001
0000
0100
0000
,
0001
0010
0001
0000
1000
0000
0100
0000
,
1000
0001
1000
0000
0010
0000
0100
0000
,
0001
0000
1000
0001
0000
0010
0100
0000
,
1001
0000
0000
0000
,
0000
0000
0000
0000
,
1001
0000
0000
0000
,
1000
0010
0001
0100
,
1000
0000
0000
0000
,
0001
0010
1000
0100
,
0001
0000
0000
0000
,
1000
1100
0010
0001
,
1000
0000
0001
0100
0000
0100
0010
0000
,
1000
1001
0001
0010
,
1000
0010
0001
1000
,
0001
0101
0010
1000
,
0001
0000
1000
0100
0000
0100
0010
0000
,
0001
1001
1000
0010
,
0110
0000
0000
0000
,
0000
1000
0000
0100
0000
0001
0000
0100
,
0000
1000
0000
0010
0000
0100
0010
0100
,
0000
0001
0000
0010
0000
1000
0000
0010
,
0000
0001
0000
0100
0000
0010
0100
0010
,
0000
1000
0000
0100
0000
0001
0000
1000
,
0000
0000
0010
0000
0000
0000
0001
0000
1000
0000
0000
0001
0000
0000
1000
0000
,
0000
0001
0000
0100
0000
1000
0000
0001
,
0000
0010
0000
1000
0000
0001
0000
1000
,
0001
1000
0000
0010
0000
0001
0000
0010
,
0000
0000
1000
0000
0000
0000
0001
0000
1000
0000
0000
0100
0000
0000
0010
0000
,
0000
0001
0000
0100
0000
1000
0000
0100
,
0000
0001
0000
1000
0000
0100
0010
0100
,
0000
0001
0000
0100
0000
1000
0000
0001
,
0000
0000
1000
0000
0000
0000
0010
0000
0100
0000
0000
0001
0000
0000
1000
0000
,
0100
1001
0010
1001
,
0001
0100
0010
1000
,
0001
0011
1000
1010
,
0001
0010
1000
0010
,
0001
0100
0010
1000
,
1001
0000
0000
0000
,
1001
0000
0110
0000
1001
0000
0000
0001
,
0000
1000
0000
0100
0010
0000
0100
0000
,
0001
0000
0100
0000
1000
0000
0001
1000
,
0000
0010
0000
0100
0010
0000
1000
0000
,
1001
0000
0110
0000
,
1001
0000
0000
0000
,
1010
1001
0001
1000
,
0100
0000
0010
0100
0000
1000
0001
0000
,
0101
1001
1000
0100
,
1000
0000
0001
0100
0000
0001
1000
0000
,
0011
1001
1000
0001
,
0100
0000
0010
0100
0000
0001
1000
0000
,
1100
1001
0001
1000
,
1001
0000
0000
0000
,
0101
1010
1000
0001
,
0011
0000
0000
0110
0000
0000
1100
0000
,
1000
0001
0100
0010
,
1001
0000
0000
0110
0000
0000
1001
0000
,
1100
0011
0001
1000
,
1010
0000
0000
0110
0000
0000
0101
0000
,
0001
1000
0100
0010
,
0001
1000
0001
1000
0001
1000
0001
1000
,
0001
0000
0000
0000
,
0000
0000
0000
0000
,
0000
0000
0000
0000
,
0000
0000
0000
0000
,
1001
0000
0000
0000
;

//---------------dance-single - Daff_4K----------------
#NOTES:
     dance-single:
     Daff_4K:
     Hard:
     13:
     0.664949,0.712844,0.737799,0.000000,0.016275,429.000000,361.000000,68.000000,0.000000,0.000000,0.000000,0.664949,0.712844,0.737799,0.000000,0.016275,429.000000,361.000000,68.000000,0.000000,0.000000,0.000000:
// measure 0
0000
0000
0000
0000
,  // measure 1
0000
0000
0000
0000
,  // measure 2
0000
0000
0000
0000
,  // measure 3
1001
0000
0000
0000
,  // measure 4
1001
0000
1100
0000
0011
0000
0001
0100
,  // measure 5
0001
0000
1000
0001
0010
0000
0110
0000
,  // measure 6
1001
0000
0101
0000
1010
0000
1000
0100
,  // measure 7
1000
0000
0001
1000
0000
0010
0100
0010
,  // measure 8
1000
0100
1000
0100
0001
0100
0001
0100
,  // measure 9
1000
0010
1000
0010
0001
0010
0001
0010
,  // measure 10
1000
0100
0010
0001
1000
0010
0100
0001
,  // measure 11
0010
0100
0010
1000
0010
0001
1000
0001
,  // measure 12
1001
0000
0000
0000
,  // measure 13
0000
0000
0000
0000
,  // measure 14
0110
0000
0000
0000
,  // measure 15
1001
0100
0001
0100
,  // measure 16
1000
0000
0000
0000
,  // measure 17
1001
0100
1000
0100
,  // measure 18
0001
0000
0000
0000
,  // measure 19
0011
0000
1100
0000
1000
0001
0100
0001
,  // measure 20
0010
0000
0100
0010
0000
0001
1000
0001
,  // measure 21
0100
0000
0110
0000
0010
1000
0100
0001
,  // measure 22
0100
0000
1000
0001
0000
0100
0010
0000
,  // measure 23
1010
0000
0101
0000
0001
1000
0100
1000
,  // measure 24
0010
0000
0100
0010
0000
1000
0001
1000
,  // measure 25
0100
0000
0110
0000
0010
0001
1000
0000
,  // measure 26
1001
0000
0000
0000
,  // measure 27
0001
1000
0000
1100
0000
0010
0001
1000
,  // measure 28
0000
1001
0000
0001
0100
1000
0100
0001
,  // measure 29
0000
0011
0000
1100
0000
1000
0001
0100
,  // measure 30
0000
0110
0000
1001
0000
0001
0010
0100
,  // measure 31
1000
0001
0000
0101
0000
0010
1000
0001
,  // measure 32
0000
0000
1001
0000
0000
0000
1000
0000
0001
0000
0000
0010
0000
0000
0100
0000
,  // measure 33
0000
0110
0000
1001
0000
0101
0000
1010
,  // measure 34
0000
1100
0000
0011
0000
0001
0100
0010
,  // measure 35
1000
0100
0010
0100
1000
0001
1000
0010
,  // measure 36
0100
0000
0010
0000
1000
0000
0001
0000
1000
0000
0000
0100
0000
0000
0010
0000
,  // measure 37
0001
0100
0010
0100
0001
1000
0001
0010
,  // measure 38
0100
0010
0001
1000
0001
0100
0010
1000
,  // measure 39
0001
0010
0100
0010
0001
1000
0010
0100
,  // measure 40
0010
0000
1000
0000
0100
0000
0010
0000
0001
0000
0000
1000
0000
0000
0010
0000
,  // measure 41
0100
1001
0010
1001
,  // measure 42
0101
1100
1010
0011
,  // measure 43
0001
0100
1000
0000
0001
0010
1000
0000
,  // measure 44
0100
0010
0000
1001
0000
0101
0000
1010
,  // measure 45
0000
1100
0000
0011
0000
1001
0000
0100
,  // measure 46
0010
0110
1001
0000
,  // measure 47
1000
0100
0001
0100
1000
0000
0000
1010
,  // measure 48
0000
0101
0000
0001
0010
1000
0010
0001
,  // measure 49
0100
1000
0100
0001
1000
0000
0100
0010
,  // measure 50
0000
1001
0000
0001
0100
0010
1000
0001
,  // measure 51
0011
0100
1010
0100
,  // measure 52
0001
1000
0100
0010
0001
1000
0001
0000
,  // measure 53
1010
0000
0101
0000
0001
0010
1000
0010
,  // measure 54
0001
0000
0100
0010
0000
1000
0001
0010
,  // measure 55
0100
0000
1001
0000
1000
0010
0100
0010
,  // measure 56
0001
0000
1000
0100
0000
0001
1000
0001
,  // measure 57
0011
0000
1100
0000
1000
0010
0001
0010
,  // measure 58
1000
0100
0010
0000
0001
1000
0010
0100
,  // measure 59
0010
0000
1001
0000
0001
0010
1000
0010
,  // measure 60
0001
1000
0000
1001
0000
0001
0100
0010
,  // measure 61
1010
0000
0101
0000
0001
0010
0100
0010
,  // measure 62
0001
0100
1000
0001
0010
1000
0001
0000
,  // measure 63
1000
0100
1000
0001
0010
0001
0100
0010
,  // measure 64
1010
0000
0000
0101
0000
0000
1001
0000
,  // measure 65
0011
0000
1100
0000
1000
0010
0100
0010
,  // measure 66
1000
0100
0001
1000
0010
0001
1000
0000
,  // measure 67
0001
0100
0001
1000
0010
1000
0100
0010
,  // measure 68
0001
0100
0010
1000
0100
0010
0001
1000
,  // measure 69
1001
0000
0000
0000
,  // measure 70
0000
0000
0000
0000
,  // measure 71
0000
0000
0000
0000
,  // measure 72
0000
0000
0000
0000
,  // measure 73
0110
0000
0000
0000
;

//---------------dance-single - Daff_4K ANOTHER----------------
#NOTES:
     dance-single:
     Daff_4K ANOTHER:
     Challenge:
     16:
     0.782749,1.069266,0.650999,0.260400,0.347200,505.000000,445.000000,60.000000,24.000000,0.000000,0.000000,0.782749,1.069266,0.650999,0.260400,0.347200,505.000000,445.000000,60.000000,24.000000,0.000000,0.000000:
// measure 0
0000
0000
0000
0000
,  // measure 1
0000
0000
0000
0000
,  // measure 2
0000
0000
0000
0000
,  // measure 3
2002
0000
0000
3003
,  // measure 4
1010
0000
0000
0000
0101
0000
0000
0000
1001
0000
0000
1000
0100
0000
0010
0000
,  // measure 5
0001
0000
0000
0000
0101
0000
0000
0000
1010
0000
0000
1000
0001
0000
0010
0000
,  // measure 6
0011
0000
0000
0000
1100
0000
0000
0000
1001
0000
0000
0001
0100
0000
0010
0000
,  // measure 7
1010
0000
0000
1000
0001
0000
0010
0000
0000
0010
0100
0000
1000
0000
0001
0000
,  // measure 8
1000
0010
0001
0010
1000
0100
0001
0100
,  // measure 9
1000
0001
0100
1000
0100
0001
0010
1000
,  // measure 10
0010
0001
0100
1000
0001
0010
1000
0100
,  // measure 11
0010
0000
0001
1000
0001
0000
1000
0000
0010
0100
0010
0000
0100
0000
0001
0000
,  // measure 12
1001
0000
0000
0000
,  // measure 13
0000
0000
0000
0000
,  // measure 14
2002
0000
0000
3003
,  // measure 15
1200
0000
0000
0000
0010
0000
0000
0000
1300
0100
0000
1000
0010
0000
0000
0000
,  // measure 16
0100
0000
0000
0000
,  // measure 17
0201
0000
0000
0000
0010
0000
0000
0000
0301
0100
0000
0001
0010
0000
0000
0000
,  // measure 18
0100
0000
0000
0000
,  // measure 19
1100
0000
0000
0000
0011
0000
0000
0001
1000
0000
0010
0000
0100
0000
0010
0000
,  // measure 20
2000
0000
0000
0000
3001
0000
0020
0000
0000
0000
0130
1000
0100
0000
1000
0000
,  // measure 21
0001
0000
0000
0000
1001
0000
0000
1000
0010
0000
0100
0000
0010
0000
0001
0000
,  // measure 22
0020
0000
0000
0000
1030
0000
0200
0000
0000
0000
0310
0100
0010
0000
0001
0000
,  // measure 23
0101
0000
0000
0000
1010
0000
0000
1000
0001
0000
0010
0000
0100
0000
0010
0000
,  // measure 24
0002
0000
0000
0000
1003
0000
0020
0000
0000
0000
0130
0001
0100
0000
0001
0000
,  // measure 25
1000
0000
0000
0000
1001
0000
0000
0001
0010
0000
0100
0000
1000
0000
0001
0000
,  // measure 26
2002
0000
0000
3003
,  // measure 27
0001
1000
0000
0101
0000
0010
1000
0100
,  // measure 28
0000
1001
0000
0001
0100
1000
0100
0001
,  // measure 29
0000
0110
0000
1001
0000
1000
0100
0001
,  // measure 30
0000
1100
0000
0011
0000
0001
0100
0010
,  // measure 31
1000
0001
0000
1100
0000
0010
0001
0100
,  // measure 32
0000
0000
1001
0000
0000
0000
1000
0000
0010
0000
0100
0010
0000
1000
0001
0000
,  // measure 33
0000
0110
0000
1001
0000
1010
0000
0011
,  // measure 34
0000
0101
0000
1100
0000
1000
0010
0100
,  // measure 35
0001
1000
0100
0001
0100
1000
0010
0001
,  // measure 36
0010
0000
1000
0000
0100
0000
0010
0000
0001
0000
1000
0001
0000
0001
1000
0000
,  // measure 37
0010
0100
0010
1000
0001
0010
0100
0010
,  // measure 38
0001
0100
0010
1000
0100
0010
0001
1000
,  // measure 39
0001
0010
1000
0010
0001
0100
1000
0100
,  // measure 40
0001
0000
0010
0000
0100
0000
1000
0000
0100
0000
0010
0001
0000
0001
1000
0000
,  // measure 41
1020
0000
0130
0001
0021
0000
0130
1000
,  // measure 42
1010
0101
0011
1100
,  // measure 43
1000
0001
0110
0000
0001
1000
0110
0000
,  // measure 44
1000
0000
0001
1000
0010
0000
0100
0000
0010
0000
0001
0000
0010
0000
1000
0000
,  // measure 45
0001
0000
1000
0000
0100
0000
0010
0000
0001
0000
0100
0010
0100
0000
0010
0000
,  // measure 46
2002
0000
0000
0000
0000
0000
0000
0000
3003
0000
0000
0000
1000
0000
0001
1000
,  // measure 47
0001
0100
1000
0100
0110
0000
0000
1001
,  // measure 48
0000
1100
0000
0011
0001
0100
1000
0100
,  // measure 49
0010
0100
0001
1000
1001
0000
0110
0110
,  // measure 50
0000
1001
0000
1000
0001
0010
0100
1000
,  // measure 51
1020
0130
0021
0130
,  // measure 52
1001
0000
0000
0000
1000
0000
0001
0000
0100
0010
0100
0010
0100
0010
0100
0000
,  // measure 53
0001
0000
1000
0010
1000
0000
0100
0000
0010
0001
0000
0010
0001
0000
1000
0000
,  // measure 54
0020
0000
0000
0000
0130
0000
0002
0000
0000
0000
0013
0100
0010
0000
0100
0000
,  // measure 55
1000
0000
0001
0010
0001
0000
0100
0000
0010
1000
0000
0010
1000
0000
0001
0000
,  // measure 56
0020
0000
0000
0000
0130
0000
2000
0000
0000
0000
3010
0100
0010
0000
1000
0000
,  // measure 57
0001
0000
0000
0000
1001
0000
0000
1000
0100
0000
0010
0000
0100
0000
0001
0000
,  // measure 58
0100
1000
0001
0000
1001
0000
1000
0001
,  // measure 59
0100
0000
0010
0000
0100
0000
0000
0000
1001
0000
0000
0001
1000
0000
0100
0000
,  // measure 60
0010
0000
1001
0000
0000
0000
1000
0000
0001
1000
0001
0000
0100
0000
0010
0000
,  // measure 61
1000
0000
0100
0010
0100
0000
1000
0000
0001
0100
0000
0100
0010
0000
1000
0000
,  // measure 62
0001
0000
0010
0000
1000
0000
0001
0000
0100
0000
1000
0000
0010
0100
0010
0000
,  // measure 63
0100
0000
0001
1000
0001
0000
0010
0000
0100
1000
0000
0001
1000
0000
0010
0000
,  // measure 64
0100
0000
0001
0000
0010
0000
1000
0000
0001
0000
0100
0000
1000
0001
1000
0000
,  // measure 65
0001
0000
0100
0010
0100
0000
0001
0000
1000
0100
0000
0100
0010
0000
0001
0000
,  // measure 66
1000
0000
0010
0000
0001
0000
1000
0000
0100
0000
0001
0000
0010
0100
0010
0000
,  // measure 67
0100
0000
1000
0001
1000
0000
0010
0000
0100
0001
0000
1000
0001
0000
1000
0000
,  // measure 68
0100
0010
0100
0010
0001
1000
0001
1000
0010
0100
0010
0100
0010
0100
0010
0100
,  // measure 69
0010
0000
0000
0000
,  // measure 70
0000
0000
0000
0000
,  // measure 71
0000
0000
0000
0000
,  // measure 72
0000
0000
0000
0000
,  // measure 73
1001
0000
0000
0000
;
