#VERSION:0.83;
#TITLE:H2hoe;
#SUBTITLE:;
#ARTIST:CupcakKe;
#TITLETRANSLIT:;
#SUBTITLETRANSLIT:;
#ARTISTTRANSLIT:;
#GENRE:;
#CREDIT:;
#MUSIC:H2hoe.ogg;
#BANNER:BR2024-bn.png;
#BACKGROUND:BR2024-bg.png;
#CDTITLE:;
#SAMPLESTART:15.510;
#SAMPLELENGTH:15.484;
#SELECTABLE:YES;
#OFFSET:1.909;
#BPMS:0.000=124.000;
#STOPS:;
#JACKET:;
#DISCIMAGE:;
#CDIMAGE:;
#BGCHANGES:;
#FGCHANGES:;

//--------------- dance-single - XO JU- ----------------
#NOTEDATA:;
#STEPSTYPE:dance-single;
#DESCRIPTION:XO JU-;
#DIFFICULTY:Hard;
#METER:11;
#RADARVALUES:0,0,0,0,0;
#CHARTNAME:;
#CHARTSTYLE:;
#CREDIT:Talkion;
#METERF:11;
#NOTES:
0000
0000
0000
0000
,
0000
0000
0000
0000
,
0000
0000
0000
0000
,
0000
0000
0000
0000
,
0000
0000
0000
0000
,
0001
0000
0000
1000
0000
0000
0100
0000
0010
0000
0000
0001
0000
0000
0010
0000
,
0100
0000
0000
1000
0000
0000
0001
0000
0100
0000
0000
0010
0000
0000
0100
0000
,
0001
0000
0000
1000
0000
0000
0100
0000
0010
0000
0000
0001
0000
0000
0010
0000
,
0100
0000
0000
1000
0000
0000
0001
0000
0000
0000
0100
0000
0100
0000
0000
0000
,
0010
1000
0001
0010
0100
0010
0001
1000
,
0010
0100
0001
0100
0020
0000
0030
1000
,
0100
0010
0000
0011
0000
2010
0000
3001
,
0100
0010
0000
1010
0000
0012
0000
1003
,
0100
0010
0001
0100
0010
0100
0001
0010
,
0100
1000
0001
0100
0020
0000
0030
0100
,
1000
0100
0000
0110
0000
2001
0000
3100
,
0001
0100
0000
0110
0000
1002
0000
0003
,
0100
0000
0000
0010
0000
0000
1000
0000
0002
0000
0010
0000
2003
0000
3000
0000
,
0100
0000
0000
0010
0000
0000
0001
0000
2000
0000
0010
0000
3002
0000
0003
0000
,
0100
0000
0000
0010
0000
0000
1000
0000
2000
0000
0100
0000
3002
0000
0013
0000
,
0100
0000
0000
1000
0000
0000
0001
0000
0010
0000
0001
0000
0200
0000
0300
0000
,
0010
0000
0000
0100
0000
0000
0001
0000
2000
0000
0100
0000
3002
0000
0003
0000
,
0020
0000
0000
0130
0000
0000
1000
0000
0002
0000
0100
0000
2003
0000
3000
0000
,
0010
0000
0000
0100
0000
0000
0001
0000
2000
0000
0100
0000
3002
0000
0003
0000
,
0010
0000
0000
0100
0000
0000
1000
0000
0001
0000
0100
0000
0110
0000
0000
0000
,
0010
0000
0000
1000
0000
0000
0100
0000
0000
1000
0000
0000
0010
0000
0000
0000
,
0100
0000
0000
0001
0000
0000
0010
0000
0000
0001
0000
0000
0100
0000
0000
0000
,
0010
0000
0000
1000
0000
0000
0100
0000
0000
0010
0000
0000
0001
0000
0000
0000
,
0100
0000
0000
0001
0000
0000
0010
0000
0000
0100
0000
0000
1000
0000
0000
0000
,
0001
0000
0000
0100
0000
0000
0010
0000
0000
0000
1000
0000
1100
0000
0000
0000
,
0100
0000
0000
0010
0000
0000
0001
0000
0000
0000
0100
0000
0101
0000
0000
0000
,
0001
0000
0000
0010
0000
0000
0100
0000
0000
0000
1000
0000
1010
0000
0000
0000
,
0010
0000
0000
0100
0000
0000
0001
0000
0000
0000
0010
0000
0010
0000
0100
0000
,
1000
0001
1000
0001
1000
0010
0101
0000
,
1000
0000
0000
1000
0000
0000
0100
0000
0010
0000
0100
0000
1001
0000
0000
0000
,
0001
0100
0010
0000
1000
0010
0101
0000
,
1000
0100
0010
0000
0001
0010
1100
0000
,
0001
0100
0010
0000
1000
0001
0010
1010
,
0000
1000
0001
0100
0001
1000
0100
0101
,
0000
0001
1000
0100
1000
0001
0100
1100
,
0000
0000
0001
0000
1000
0100
1000
0100
,
0010
0001
1000
0010
0100
0010
1000
0001
,
0010
0100
1000
0100
0020
0000
0030
0001
,
0100
0010
0000
0110
0000
1001
0000
1000
,
0200
0320
0030
0000
0001
1000
0001
0100
,
0010
0100
0001
0010
0100
0010
0001
0100
,
0010
1000
0001
0010
0200
0000
0300
0010
,
1000
0010
0000
0110
0000
2001
0000
3010
,
0001
0010
0000
0110
0000
1002
0000
0013
,
0100
0010
0001
0100
0010
0100
0001
0010
,
0100
1000
0001
0100
0020
0000
0030
0100
,
1000
0100
0000
0010
2000
3001
0010
0100
,
0001
0100
0000
0010
0002
1003
0010
0100
,
1000
0100
0000
0110
0020
2030
3000
0100
,
0001
0100
0000
0110
0020
0032
0003
0100
,
1000
0100
0000
0110
0020
2030
3000
0100
,
0001
0100
0000
0110
0020
0032
0103
0010
,
0001
0010
0000
0110
0200
0302
0003
0010
,
1000
0010
0000
0110
0200
2300
3000
0010
,
0001
0010
0000
0110
0200
0302
0003
0010
,
1000
0010
0000
0110
0200
2300
3010
0100
,
0001
0000
0001
0000
,
2000
0000
0000
3000
0100
0000
0000
0000
;

//--------------- dance-single - XO JU- RH- ----------------
#NOTEDATA:;
#STEPSTYPE:dance-single;
#DESCRIPTION:XO JU- RH-;
#DIFFICULTY:Challenge;
#METER:14;
#RADARVALUES:0,0,0,0,0;
#CHARTNAME:;
#CHARTSTYLE:;
#CREDIT:Talkion;
#METERF:14;
#NOTES:
0000
0000
0000
0000
,
0000
0000
0000
0000
,
0000
0000
0000
0000
,
0000
0000
0000
0000
,
0000
0000
0000
0000
,
0001
0000
0000
1000
0000
0000
0100
0000
0010
0000
0000
0001
0000
0000
0010
0000
,
0100
0000
0000
1000
0000
0000
0001
0000
0100
0000
0000
0010
0000
0000
0100
0000
,
0001
0000
0000
1000
0000
0000
0100
0000
0010
0000
0000
0001
0000
0000
0010
0000
,
0100
0000
0000
0000
0000
0000
0000
0000
0000
1000
0000
0000
0000
0000
0000
0000
0000
0000
0001
0000
0000
0000
0000
0000
0000
0000
0000
0000
0000
0000
0100
0000
0000
0000
0000
0000
0010
0000
0000
0000
0100
0000
0000
0000
0001
0000
0000
0000
,
1000
0000
0100
0010
0100
0000
1000
0000
0001
0000
0100
0010
0100
0000
0001
0000
,
0010
0000
0100
1000
0100
0000
0010
0000
0002
0000
0000
0100
0000
0000
1003
0000
,
1100
0000
0100
0010
0000
0000
1010
0000
0000
0000
0011
0000
0010
0000
0001
0000
,
0101
0000
0000
0000
0000
0000
0100
0000
0000
0010
0000
0000
0000
0000
0000
0000
0000
0000
0011
0000
0000
0000
0000
0000
0000
0000
0000
0000
0000
0000
1010
0000
0000
0000
0000
0000
0010
0000
0000
0000
0100
0000
0000
0000
0001
0000
0000
0000
,
0010
0000
0100
0001
0100
0000
1000
0000
0010
0000
0100
1000
0100
0000
0001
0000
,
0010
0000
0100
0001
0100
0000
0010
0000
0002
0000
0000
0100
0000
0000
1003
0000
,
1100
0000
0100
0010
0000
0000
1010
0000
0000
0000
0011
0000
0010
0000
0001
0000
,
0101
0000
0000
0000
0000
0000
0100
0000
0000
0010
0000
0000
0000
0000
0000
0000
0000
0000
0011
0000
0000
0000
0000
0000
0000
0000
0000
0000
0000
0000
1010
0000
0000
0000
0000
0000
0010
0000
0000
0000
0100
0000
0000
0000
0001
0000
0000
0000
,
1000
0000
0100
0010
0000
0010
0001
0000
0200
0000
0010
0000
2300
0000
3000
0000
,
0100
0000
0010
0100
0000
0100
0001
0000
0020
0000
0100
0000
2030
0000
3000
0000
,
0010
0100
0000
0100
0000
0000
1000
0010
0200
0000
0010
0000
2300
0000
3100
0010
,
1000
0000
0001
0010
0000
0000
0100
0000
1000
0100
0010
0000
2000
0000
3000
0000
,
0010
0000
0100
0010
0000
0010
0001
1000
0020
0000
0100
0000
0032
0000
0003
0000
,
0010
0100
0010
1000
0000
0001
0010
0000
0200
0000
0010
0000
0302
0000
0003
0000
,
0100
0000
0010
0100
0000
0100
1000
0000
0010
0100
0010
0000
0002
0000
0003
0010
,
0100
0000
0100
0001
0000
0000
0010
0000
0200
0000
0010
0000
0302
0000
0003
0000
,
0100
0000
0000
0000
0000
0000
1000
0000
0000
0001
0000
0000
0100
0000
0000
0010
0000
0000
0100
0000
0000
0001
0000
0000
0020
0000
0000
0030
0000
0000
0000
0000
,
0001
0000
0000
1000
0000
0000
0010
0000
0000
0100
0000
0000
0001
0000
0000
0000
0000
0000
0010
0000
0000
0001
0000
0000
0200
0000
0000
0300
0000
0000
0000
0000
,
0010
0000
0000
0000
0000
0000
1000
0000
0000
0001
0000
0000
0010
0000
0000
0100
0000
0000
0010
0000
0000
0001
0000
0000
0200
0000
0000
0300
0000
0000
0000
0000
,
0001
0000
0000
1000
0000
0000
0100
0000
0000
1000
0000
0000
0001
0000
0000
0100
0000
0000
0010
0000
0000
1000
0000
0000
0200
0000
0000
0300
0000
0000
0000
0000
,
1000
0000
0000
0001
0000
0000
0100
0000
0000
0001
0000
0000
1000
0000
0000
0100
0000
0000
0010
0000
0000
0001
0000
0000
0102
0000
0000
0003
0000
0000
0000
0000
,
0100
0000
0000
0010
0000
0000
0100
0000
0000
0001
0000
0000
1000
0000
0000
0000
0000
0000
0010
0000
0000
1000
0000
0000
2100
0000
0000
3000
0000
0000
0000
0000
,
0100
0000
0000
0010
0000
0000
0001
0000
0000
0000
0000
0000
0010
0000
0000
0100
0000
0000
1000
0000
0000
0000
0000
0000
1010
0000
0000
0000
0000
0010
0000
0000
,
0100
0000
0000
0001
0000
0000
0100
0000
0000
0010
0000
0000
1000
0000
0000
0000
0000
0000
0000
0000
1100
0000
0000
0000
0011
0000
0000
0000
0001
0000
1000
0000
,
0010
0100
0001
1000
0010
0100
0001
1000
0010
0100
0001
0000
1200
0000
0310
0100
,
0010
0001
0000
0100
0000
0010
0100
0010
1000
0000
1100
0000
0201
0000
0310
0100
,
0001
1000
0001
0010
0100
0010
0001
1000
0001
0100
0010
1000
0200
0000
0310
0100
,
0010
0000
0001
1000
0010
0100
0001
1000
0001
0010
0100
0000
0012
0000
1003
0010
,
0100
0000
0001
1000
0100
1000
0001
0000
1020
0000
0130
0001
0010
0000
1010
0000
,
0000
0001
1000
0200
0010
0000
1300
0000
0102
0000
0013
0000
2010
0000
3100
0000
,
1000
0000
0001
1000
0010
2000
0001
0000
3100
0000
0101
0000
0102
0000
0013
0000
,
0000
0000
0000
0000
0100
0010
0000
0010
0002
0000
0100
0000
2003
0000
0100
0000
,
3001
0000
0010
0100
0010
0000
0001
0000
1000
0000
0010
0100
0010
0000
1000
0000
,
0100
0000
0010
0001
0010
0000
0100
0000
2000
0000
0000
0010
0000
0000
3001
0000
,
0011
0000
0010
0100
0000
0000
1000
0000
0001
0000
0100
0010
1000
0000
0001
0000
,
0020
0000
0000
0230
0000
0000
0300
0000
0000
0000
0000
0000
1000
0000
0000
0001
0000
0000
0100
0000
0010
0000
1000
0000
,
0100
0000
0010
0100
0010
0000
0001
0000
1000
0000
0010
0100
0010
0000
1000
0000
,
0100
0000
0010
0001
0010
0000
0100
0000
2000
0000
0000
0001
0000
0000
3010
0000
,
0110
0000
0100
1000
0000
0000
1010
0000
0000
0000
0011
0000
0001
0000
0010
0000
,
0110
0000
0000
0000
0000
0000
0100
0000
0000
0001
0000
0000
0000
0000
0000
0000
0000
0000
0011
0000
0000
0000
0000
0000
0000
0000
0000
0000
0000
0000
1010
0000
0000
0000
0000
0000
0010
0000
0000
0000
0100
0000
0000
0000
0001
0000
0000
0000
,
0010
0000
0100
0001
0100
0000
1000
0000
0010
0000
0100
1000
0100
0000
0001
0000
,
0010
0000
0100
0001
0100
0000
0010
0000
0002
0000
0000
1000
0000
0000
0103
0000
,
0110
0000
0010
0001
0000
0000
0010
0000
1000
0000
0001
0000
1000
0000
0100
0000
,
0110
0000
0000
0000
0000
0000
0010
0000
0000
1000
0000
0000
0000
0000
0000
0000
0000
0000
0010
0000
0000
0000
0000
0000
0001
0000
0000
0000
0000
0000
1000
0000
0000
0000
0000
0000
0010
0000
0000
0000
0100
0000
0000
0000
0001
0000
0000
0000
,
0010
0000
0100
0001
0100
0000
0020
0000
2030
0000
3020
0000
0130
0000
1000
0000
,
0010
0000
0100
1000
0100
0000
0020
0000
0032
0000
0023
0000
0130
0000
0001
0000
,
0010
0000
0100
0001
0100
0000
0020
0000
2030
0000
3020
0000
0130
0000
1000
0000
,
0010
0000
0000
0000
0000
0000
0100
0000
0000
1000
0000
0000
0100
0000
0000
0000
0000
0000
0020
0000
0000
0000
0000
0000
0032
0000
0000
0000
0000
0000
0023
0000
0000
0000
0000
0000
1030
0000
0000
0000
0001
0000
0000
0000
0010
0000
0000
0000
,
0100
0000
0010
1000
0010
0000
0200
0000
0302
0000
0203
0000
0310
0000
0001
0000
,
0100
0000
0010
0001
0010
0000
0200
0000
2300
0000
3200
0000
0310
0000
1000
0000
,
0100
0000
0010
1000
0010
0000
0200
0000
0302
0000
0203
0000
0310
0000
0001
0000
,
0100
0000
0000
0000
0000
0000
0010
0000
0000
0001
0000
0000
0010
0000
0000
0000
0000
0000
0200
0000
0000
0000
0000
0000
2300
0000
0000
0000
0000
0000
3200
0000
0000
0000
0000
0000
0301
0000
0000
0000
1000
0000
0000
0000
0001
0000
0000
0000
,
00M0
0000
00M0
0000
,
0020
0000
0000
0000
0000
0000
0000
0030
00L0
0000
0000
0000
0000
0000
0000
0000
;
