#TITLE:極楽浄土;
#SUBTITLE:;
#ARTIST:GARNiDELiA;
#TITLETRANSLIT:Gokuraku Jodo;
#SUBTITLETRANSLIT:;
#ARTISTTRANSLIT:;
#GENRE:;
#CREDIT:;
#BANNER:;
#BACKGROUND:;
#LYRICSPATH:;
#CDTITLE:;
#MUSIC:Gokuraku Jodo.ogg;
#OFFSET:1.325960;
#SAMPLESTART:58.691002;
#SAMPLELENGTH:12.000000;
#LASTBEATHINT:297.158386;
#SELECTABLE:YES;
#BPMS:0.000000=131.000000
,168.000000=65.500000
,200.000000=131.000000
;
#STOPS:
;
#BGCHANGES:;
#KEYSOUNDS:;
#ATTACKS:;

//---------------dance-double - ----------------
#NOTES:
     dance-double:
     :
     Hard:
     14:
     0.585441,1.015929,0.186883,0.460534,0.490569,614.000000,586.000000,28.000000,69.000000,0.000000,0.000000,0.585441,1.015929,0.186883,0.460534,0.490569,614.000000,586.000000,28.000000,69.000000,0.000000,0.000000:
00000000
00000000
00000000
00000000
,
00000000
00000000
00000000
00000000
,
00000000
00000000
00000000
00000000
,
00000000
00000000
00000000
00000000
,
00000000
00000000
00000000
00000000
00000000
00000000
10000000
01000000
,
00100000
00000000
00000000
00001000
00010000
00000000
00000000
00000100
,
00000010
00000001
00000100
00000010
00001000
00000001
00000100
00001000
,
00020000
02030000
23000000
30200000
,
00310000
00000000
00001000
00000100
00000001
00000000
00000010
00000000
00000200
00000000
00000000
00000000
00010300
00000000
00000000
00000000
,
00201000
00000000
00000000
00000000
01000000
00000000
00000000
00000000
10000000
00000000
00000000
00000000
00310000
00100000
00001000
00010000
,
00000020
00000000
00000100
00000000
00000031
00000010
00010000
00001000
,
02001000
00000000
00000000
00000000
00100000
00000000
00000000
00000000
10000000
00000000
00000000
00000000
03010000
01000000
00001000
00010000
,
00000200
00000000
00000010
00000000
00000301
00000100
00000100
00010000
,
00010020
00000000
00000000
00000000
00000001
00000000
00000000
00000000
00000100
00000000
00000000
00000000
00001030
00000010
00010000
00001000
,
00200000
00000000
10000000
00000000
01300000
00100000
00001000
00010000
,
00010020
00000000
00000000
00000000
00000001
00000000
00000000
00000000
00000100
00000000
00000000
00000000
00001030
00000100
00010000
00001000
,
02000000
00000000
03100000
10000000
10000000
00010000
10010000
00000000
,
10000000
00000000
00100000
00000000
10000000
00000000
01000000
00000000
01000000
00000000
10000000
00010000
00000000
10000000
00010000
00000000
,
00100000
00000000
01000000
00000000
00010000
00000000
00001000
00010000
00000000
00010000
00001000
00000000
00000100
00000000
00000001
00000000
,
00001000
00000001
00000010
00000100
00000100
00001000
00000010
00000100
,
00001000
00000000
00010000
00000000
01000000
00000000
00010000
00000000
00001000
00000000
00010000
00100000
01000000
00000000
00000000
00000000
,
01000000
00000000
00100000
00000000
01000000
00000000
00010000
00000000
00010000
00000000
00100000
00000000
01000000
00000000
00100000
00001000
,
00000000
00100000
00001000
00000000
00010000
00000000
00000100
00000010
00000000
00000010
00000100
00000000
00001000
00000000
00000001
00000000
,
00000100
00000000
00000010
00000000
00000110
00000000
00000100
00000000
00001000
00000000
00010000
00000000
00011000
00000000
00001000
00010000
,
01000000
11000000
00202000
00303000
,
00001000
00001000
00010000
00000100
00000200
00000310
00000001
00000100
,
00001000
00000000
00000100
00000000
00000001
00000000
00000100
00000000
00000200
00000000
00001300
00000000
00010000
00000000
01000000
00100000
,
01000000
00000000
10000000
00000000
10000000
00000000
00010000
00000000
01000000
00000000
00100000
01000000
00000000
00010000
20000000
00000000
,
00000000
31000000
01000000
00100000
00002000
00000010
00003010
00001000
,
00010000
00010000
00001000
01000000
02000000
03100000
10000000
01000000
,
00010000
00000000
01000000
00000000
10000000
00000000
01000000
00000000
02000000
00000000
03010000
00000000
00001000
00000000
00000100
00000010
,
00000100
00000000
00000001
00000000
00000001
00000000
00001000
00000000
00000100
00000000
00000010
00000100
00000000
00001000
00000002
00000000
,
00000000
00000000
00000103
00000000
00000100
00000000
00000010
00000000
00010000
00000000
00000000
00000000
00011000
00000000
00001000
01000000
,
00010000
00000000
10000000
00100000
00000000
01000000
00010000
00000000
00020000
00000000
00000000
00000000
10030000
00000000
01000000
00100000
,
00001000
00000000
00010000
00000100
00000000
00000100
00010000
00000000
00002000
00000000
00000100
00000000
00003100
00000000
00000001
00000010
,
00000100
00000000
00000000
00000000
00000011
00000000
00000000
00001000
00000001
00000000
00000100
00000000
00001000
00000000
00010000
00000000
,
01000000
00010000
00000000
00010000
00001000
00000000
00000010
00000000
00000001
00000000
00001000
00000000
00000220
00000000
00000330
00000000
,
00000001
00000000
00000100
00000010
00000000
00001000
00000010
00000000
00010000
00000000
00010000
00000000
00001000
00000000
00100000
00000000
,
00010000
00000000
10000000
01000000
00000000
00100000
00001000
00000000
00020000
00000000
01000000
00000000
01030000
00000000
10000000
01000000
,
00100000
00000000
00001000
00000000
00010000
00000000
00000100
00000010
00000001
00000000
00001000
00000000
00000001
00000000
00000100
00001000
,
00010000
00000000
00100000
00000000
10000000
00000000
01000000
00000000
00020000
00000000
00000000
00000000
00031000
00000000
00010000
00000100
,
00002000
00000000
00000000
00003100
,
00000011
00000000
00000000
00000000
00000000
00000000
00002000
00000000
00000020
00000000
00000000
00000000
00000000
00000000
00003000
00000000
00000130
00000000
00000000
00000000
00001000
00000000
00010000
00001000
00010000
00000000
00100000
01000000
00100000
00000000
10000000
00010000
,
20000000
00000000
00000000
00000000
00000000
00000000
30020000
00000000
02030000
00000000
00100000
00000000
03200000
00000000
00000000
00000000
10300000
00000000
00010000
00000000
00100000
00000000
01000000
00000000
10000000
00000000
00100000
00000000
01000000
00100000
01000000
00100000
,
10000000
00000000
00000000
00000000
00000000
00000000
00020000
00000000
00200000
00000000
00000000
00000000
00000000
00000000
00030000
00000000
01300000
00000000
00000000
00000000
00010000
00000000
00001000
00010000
00001000
00000000
00000010
00000100
00000010
00000000
00000001
00001000
,
00000002
00000000
00000000
00002003
00000200
00000000
00000000
00003000
00000310
00000000
00000001
00000000
00001000
00000001
00000100
00000010
,
00001000
00000000
00000100
00010000
00000100
00000000
00010000
00001000
00010000
00000000
00001000
00000000
01000000
00010000
01000000
00010000
10000000
00000000
00100000
00000000
01000000
00000000
00010000
10000000
00010000
00000000
00100000
00000000
01000000
00100000
01000000
00100000
,
00010000
00000000
00100000
00000000
00001000
00000000
00010000
00000000
00011000
00000000
00000000
00000000
00001000
00010000
00001000
00010000
00000200
00000000
00000000
00000000
00000320
00000000
00000000
00000000
00000032
00000000
00000000
00000000
00001003
00000010
00000100
00000001
,
00001000
00000000
00000000
00000000
00000100
00000000
00000010
00000000
00000110
00000000
00000000
00000000
00000001
00000000
00000100
00000000
00000010
00000000
00001010
00000000
00000000
00000000
00000001
00000010
00000100
00000000
00001000
00000000
00000001
00000100
00000001
00000100
,
00000010
00000000
00000020
00000000
00001030
00000000
00002000
00000000
00003100
00000000
00000200
00000000
00010300
00000000
00020000
00000000
00031000
00000000
00010000
01000000
10000000
00000000
00100000
00000000
02000000
00000000
00000000
00000000
03001000
00010000
00001000
00010000
,
00000200
00000000
00000010
00000000
00000010
00000000
00000310
00000001
,
00001002
00000000
00000100
00000000
00000100
00000000
00000103
00001000
,
00021000
00000000
01000000
00000000
01000000
00000000
01030000
10000000
,
10100000
00000000
00000000
00100000
01000000
00000000
00100000
00000000
00010000
00000000
00100000
00000000
01000000
00100000
00000000
10000000
,
00010000
00010000
00100000
01000000
00010000
00010000
00001000
00000100
,
00000010
00000010
00001000
00000001
00000010
00000010
00000100
00010000
,
00001000
00010000
00001000
00010000
00001000
01000000
00001000
01000000
00001000
00010000
00001000
00010000
00000100
00010000
00000100
00020000
,
00002000
00000000
00000000
00000000
00000000
00000000
00000000
00000000
00033000
00000000
00000000
00000000
00011000
00000000
00010000
00000100
,
00001000
00000000
00000001
00000010
00000000
00000100
00001000
00000000
00002000
00000000
00000000
00000000
00003001
00000000
00000100
00000010
,
00010000
00000000
00001000
01000000
00000000
01000000
00001000
00000000
00020000
00000000
01000000
00000000
01030000
00000000
10000000
00100000
,
01000000
00000000
00000000
00000000
10100000
00000000
00000000
00010000
10000000
00000000
01000000
00000000
00010000
00000000
00001000
00000000
,
00000100
00001000
00000000
00001000
00010000
00000000
00100000
00000000
10000000
00000000
00010000
00000000
02200000
00000000
03300000
00000000
,
10000000
00000000
01000000
00100000
00000000
00010000
00100000
00000000
00001000
00000000
00001000
00000000
00010000
00000000
00000010
00000000
,
00001000
00000000
00000001
00000100
00000000
00000010
00010000
00000000
00002000
00000000
00000100
00000000
00003100
00000000
00000001
00000100
,
00000010
00000000
00010000
00000000
00001000
00000000
01000000
00100000
10000000
00000000
00010000
00000000
10000000
00000000
01000000
00010000
,
00001000
00000010
00000001
00000100
00002000
00000000
00013000
00000000
,
00010020
00000000
00000000
00000000
00000100
00000000
00000000
00000000
00000001
00000000
00000000
00000000
00001030
00000010
00010000
00001000
,
00200000
00000000
01000000
00000000
10300000
00100000
00001000
00010000
,
00010200
00000000
00000000
00000000
00000010
00000000
00000000
00000000
00000001
00000000
00000000
00000000
00001300
00000100
00010000
00001000
,
02000000
00000000
00100000
00000000
13000000
01000000
01000000
00001000
,
00201000
00000000
00000000
00000000
10000000
00000000
00000000
00000000
01000000
00000000
00000000
00000000
00310000
00100000
00001000
00010000
,
00000020
00000000
00000001
00000000
00000130
00000010
00010000
00001000
,
00201000
00000000
00000000
00000000
10000000
00000000
00000000
00000000
01000000
00000000
00000000
00000000
00310000
01000000
00001000
00010000
,
00000200
00000000
00000310
00000001
00001000
00000000
00000010
00000000
00000110
00000000
00000001
00000000
00002002
00000000
00000000
00000000
,
00000000
00003003
00000000
00000000
;

//---------------dance-single - ----------------
#NOTES:
     dance-single:
     :
     Hard:
     14:
     0.611185,1.040707,0.133488,0.740859,0.503918,641.000000,621.000000,20.000000,111.000000,0.000000,0.000000,0.611185,1.040707,0.133488,0.740859,0.503918,641.000000,621.000000,20.000000,111.000000,0.000000,0.000000:
// measure 0
0000
0000
0000
0000
,  // measure 1
0000
0000
0000
0000
,  // measure 2
0000
0000
0000
0000
,  // measure 3
0000
0000
0000
0000
,  // measure 4
0000
0000
0000
0000
0000
0000
1000
0100
,  // measure 5
0020
0000
0031
0100
0020
0000
1030
0100
,  // measure 6
0010
0001
1000
0010
0100
0010
1000
0100
,  // measure 7
0020
0032
2003
3020
,  // measure 8
0130
0000
0001
0010
0100
0000
1000
0000
0001
0000
0000
0000
2002
0000
3003
0000
,  // measure 9
2000
0000
3100
0000
0020
0000
0130
0000
2000
0000
3100
0000
0010
0001
0010
0001
,  // measure 10
2000
3010
0200
0310
2000
3100
0100
0010
,  // measure 11
0002
0000
0103
0000
0020
0000
0130
0000
0002
0000
0103
0000
0010
1000
0010
1000
,  // measure 12
0002
0013
0200
0310
0002
0103
0100
0010
,  // measure 13
2000
0000
3100
0000
0020
0000
0130
0000
0002
0000
0103
0000
0010
0001
0010
0001
,  // measure 14
2000
3010
0200
0310
0002
0013
0010
1000
,  // measure 15
0002
0000
0103
0000
0020
0000
0130
0000
2000
0000
3100
0000
0010
1000
0010
1000
,  // measure 16
0002
0000
0013
0100
2000
0000
3010
0000
0020
0000
0130
0000
0220
0000
0330
0000
,  // measure 17
0001
0000
0100
0000
0000
0000
0100
0000
0010
0000
1000
0001
0000
0000
0001
0000
,  // measure 18
0010
0000
0100
0000
1000
0000
0001
0200
0000
0000
0010
0000
0000
0000
0301
0000
,  // measure 19
1000
0100
0000
0100
0100
1000
0100
0010
,  // measure 20
0002
0000
0103
0000
2000
0000
3100
0000
0002
0000
0013
0100
2000
0000
0000
0000
,  // measure 21
3001
0000
0100
0000
0000
0000
0100
0000
0010
0000
1000
0000
0001
0000
0010
0100
,  // measure 22
0000
0000
0100
0000
1000
0000
0001
0100
0000
0000
0100
0000
0010
0000
1000
0000
,  // measure 23
0001
0000
0010
0000
0110
0000
0001
0000
1000
0000
0010
0000
0110
0000
1000
0100
,  // measure 24
0010
0000
1100
0000
0201
0010
0310
1000
,  // measure 25
0001
0001
0010
1000
2000
3010
0001
1000
,  // measure 26
0010
0000
0001
0000
0010
0000
1000
0000
2000
0000
0000
0000
3001
0000
0010
0100
,  // measure 27
0010
0000
0001
0000
0001
0000
1000
0000
0010
0000
0100
0001
0000
1000
0002
0000
,  // measure 28
0000
0010
0013
0100
0200
0010
0310
0001
,  // measure 29
1000
1000
0010
0001
0002
0013
1000
0001
,  // measure 30
0010
0000
1000
0000
0010
0000
0001
0000
0002
0000
0000
0000
1003
0000
0010
0100
,  // measure 31
0010
0000
0100
0000
0100
0000
0010
0000
1000
0000
0001
0100
0000
0001
0020
0000
,  // measure 32
0000
0000
0100
0000
0130
0000
1000
0000
0010
0000
0000
0000
1001
0000
0001
0100
,  // measure 33
0010
0000
1000
0010
0000
1000
0010
0000
0200
0000
0000
0000
0310
0000
1000
0001
,  // measure 34
0010
0000
0100
0010
0000
0001
0010
0000
0200
0000
1000
0000
1300
0000
0001
0100
,  // measure 35
0010
0000
0000
0000
0201
0000
0000
0301
0010
0000
0100
0000
1000
0000
0010
0000
,  // measure 36
1000
0100
0000
0100
0010
0000
0001
0000
1000
0000
0010
0100
0020
0000
0000
0000
,  // measure 37
1030
0000
0001
0100
0000
0001
0100
0000
0010
0000
0020
0000
0000
0000
1030
0000
,  // measure 38
0001
0000
1000
0100
0000
0100
0010
0000
0002
0000
1000
0000
1003
0000
0001
0100
,  // measure 39
0010
0000
1000
0000
0001
0000
1000
0100
0010
0000
0001
0000
1000
0000
0001
0010
,  // measure 40
0100
0000
1000
0010
0100
0000
0001
0000
1000
0000
0000
0000
1010
0000
0010
0100
,  // measure 41
0002
0000
0000
0013
,  // measure 42
2100
0000
0000
0000
0000
0000
3002
0000
0200
0000
0000
0000
0000
0000
0003
0000
0310
0000
0000
0000
0010
0000
0010
1000
0001
0000
0010
0001
0010
0000
0100
1000
,  // measure 43
0200
0000
0000
0000
0000
0000
0310
0000
0002
0000
1000
0000
0203
0000
0000
0000
0310
0000
1000
0000
0001
0000
0010
0000
0100
0000
1000
0000
0001
0100
0001
0100
,  // measure 44
0020
0000
0000
0000
0000
0000
2030
0000
0200
0000
0000
0000
0000
0000
3000
0000
0310
0000
0000
0000
0010
0000
0010
0001
1000
0000
0010
1000
0001
0000
0100
0001
,  // measure 45
2000
0000
0000
3002
0020
0000
0000
0003
0130
0000
1000
0000
0001
0100
0010
1000
,  // measure 46
0001
0000
1000
0100
0010
0000
0100
0010
0001
0000
1000
0000
0001
0100
0010
1000
0001
0000
0010
0000
0100
0000
1000
0001
1000
0000
0100
0000
1000
0100
0010
0001
,  // measure 47
1000
0000
0010
0000
0100
0000
0001
1000
0001
0000
0010
0000
0100
0010
0100
0010
0002
0000
0000
0000
0203
0000
0000
0000
0320
0000
0000
0000
1030
0010
0100
0001
,  // measure 48
1000
0000
0100
0000
0010
0000
0001
0000
0011
0000
0000
0000
1000
0000
0001
0000
0100
0000
0110
0000
0000
0000
0010
1000
0001
0000
0010
0100
1000
0100
0010
0001
,  // measure 49
1000
0000
2000
0000
0010
0000
3020
0000
0100
0000
0230
0000
0001
0000
0302
0000
0103
0000
0001
0010
0100
0000
1000
0000
0001
0000
0000
0000
1000
0100
0010
0001
,  // measure 50
2000
0000
0010
0000
0010
0000
3010
0100
,  // measure 51
0102
0010
0010
0013
,  // measure 52
0210
0000
1000
0000
1000
0000
1300
0010
,  // measure 53
0110
0000
0000
0010
0100
0000
0010
0000
0100
0000
0010
0000
0100
0010
0000
0000
,  // measure 54
0110
0010
1000
1000
0001
0001
0010
0100
,  // measure 55
0010
0010
0001
0001
1000
1000
0010
0100
,  // measure 56
0010
1000
0010
1000
0001
0010
0001
0010
0100
1000
0100
1000
0001
0100
0001
0200
,  // measure 57
0020
0000
0000
0000
0000
0000
0000
0000
0330
0000
0000
0000
1001
0000
1000
0100
,  // measure 58
0010
0000
0001
0010
0000
0001
0010
0000
0200
0000
0000
0000
0310
0000
0001
1000
,  // measure 59
0010
0000
0100
0010
0000
1000
0010
0000
0200
0000
0001
0000
0301
0000
1000
0100
,  // measure 60
0010
0000
0000
0000
1200
0000
0000
1300
0010
0000
0100
0000
0001
0000
0010
0000
,  // measure 61
0001
0100
0000
0100
0010
0000
1000
0000
0001
0000
0010
0100
0020
0000
0000
0000
,  // measure 62
0031
0000
1000
0100
0000
1000
0100
0000
0010
0000
0020
0000
0000
0000
0031
0000
,  // measure 63
1000
0000
0001
0100
0000
0100
0010
0000
2000
0000
0001
0000
3001
0000
1000
0100
,  // measure 64
0010
0000
0001
0000
0000
0000
0001
0100
0010
0000
1000
0000
0000
0000
1000
0010
,  // measure 65
0100
0000
0001
0010
0100
0000
1000
0000
0020
0000
0000
0000
0230
0000
0300
0000
,  // measure 66
0002
0000
0103
0000
0020
0000
0130
0000
2000
0000
3100
0000
0010
1000
0010
1000
,  // measure 67
0002
0013
0200
0310
2000
3010
0010
0001
,  // measure 68
2000
0000
3100
0000
0020
0000
0130
0000
0002
0000
0103
0000
0010
0001
0010
0001
,  // measure 69
2000
3010
0200
0310
0002
0013
0010
1000
,  // measure 70
0002
0000
0103
0000
0020
0000
0031
0000
2000
0000
3100
0000
0010
1000
0010
1000
,  // measure 71
0002
0013
0200
0301
2000
3010
0010
0100
,  // measure 72
2000
0000
3100
0000
0020
0000
1030
0000
0002
0000
0103
0000
0010
0001
0010
0001
,  // measure 73
2000
0000
3001
0100
2000
0000
3100
0000
0110
0000
0001
0000
2002
0000
0000
0000
,  // measure 74
0000
3003
0000
0000
;

//---------------dance-single - ----------------
#NOTES:
     dance-single:
     :
     Medium:
     10:
     0.405232,0.569911,0.160186,0.567325,0.073418,425.000000,401.000000,24.000000,85.000000,0.000000,0.000000,0.405232,0.569911,0.160186,0.567325,0.073418,425.000000,401.000000,24.000000,85.000000,0.000000,0.000000:
0000
0000
0000
0000
,
0000
0000
0000
0000
,
0000
0000
0000
0000
,
0000
0000
0000
0000
,
0000
0000
0000
0000
,
2000
0010
0000
0010
,
3002
0010
0000
0010
,
2003
3020
0230
0302
,
1003
0001
0010
0100
1000
0000
1001
0000
,
0002
0000
0203
0000
0320
0000
1030
0001
,
2000
0000
3200
0000
0310
0100
0100
0000
,
2000
0000
3020
0000
0230
0000
0301
1000
,
0002
0000
0023
0000
0130
0010
0010
0000
,
0002
0000
0203
0000
0320
0000
1030
0001
,
0020
0000
0230
0000
2300
0001
3001
0000
,
2000
0000
3020
0000
0230
0000
0301
0010
,
0200
0000
1300
0001
0001
1000
1000
0000
,
0001
0000
0100
0000
0010
1000
0010
0000
,
0100
0001
1000
0001
0010
0000
0100
0000
,
1000
0000
0010
0000
1000
0100
0010
0000
,
0011
1100
0101
1010
,
0001
0000
0100
0000
0010
0100
0001
0000
,
0010
0100
1000
0100
0010
0000
0001
0000
,
1000
0010
0110
0000
0001
0010
0110
0000
,
1100
0101
0220
0330
,
0001
0100
0001
0100
0020
0000
1030
1000
,
0000
0001
0000
0010
0200
0000
1300
0001
,
0100
0000
0001
0000
0010
0100
1000
0000
,
0001
0100
0010
0100
0001
0000
1000
0000
,
0001
0010
0001
0010
0200
0000
1300
1000
,
0000
0001
0010
0100
0020
0000
0031
0100
,
0010
0000
1000
0000
0010
0100
0001
0002
,
0000
0000
0013
1001
,
1000
0001
0100
0001
0020
0000
0130
1000
,
0010
1000
0100
0001
0200
0010
0310
0000
,
0001
0100
1000
0000
1000
0100
0001
0000
,
1000
0010
0100
0001
0010
0100
0110
0000
,
1000
0000
0000
0100
0000
0000
1000
0000
0001
0000
0002
0000
0000
0000
1003
0000
,
0100
0000
0000
0001
0000
0000
0100
0000
0020
0000
0001
0000
0031
0000
0000
0000
,
1000
0010
0001
0000
0001
0010
1000
0000
,
0001
0010
0100
1000
0010
0000
0220
0330
,
0000
0001
0100
0010
1000
0001
0010
0000
,
0110
0000
0000
0000
2000
0000
0000
0000
3001
0000
0001
0000
0100
0010
0000
0010
,
1000
0000
0000
0001
0010
0100
0020
0000
0031
0000
0100
0000
0010
1000
0010
1000
,
0100
0000
0000
0000
0020
0000
0000
0000
0130
0000
0100
0000
1000
0010
0000
0010
,
0200
0000
0000
0300
0002
0000
0000
0000
0013
0000
0100
0000
1000
0001
1000
0000
,
0001
0000
0100
0010
1000
0000
0100
0000
0010
0100
0010
0000
0001
0000
0001
0000
,
1000
0000
0001
0100
1000
0000
0100
0001
0020
0000
0230
0000
2300
0000
3002
0000
,
0103
0000
0010
1000
0001
0000
0010
0000
0100
0010
0000
0010
0001
0000
1001
0000
,
2000
0000
3002
0000
0203
0000
0320
0000
1030
0001
0010
0100
1000
0000
1001
0000
,
0002
0100
0100
0103
,
0120
1000
1000
1030
,
2100
0000
0001
0000
0001
0000
3001
0010
,
0120
0001
0001
0031
,
1000
0010
0100
0000
0001
0010
0100
0000
,
0010
0001
0100
0000
0010
1000
0100
0000
,
0010
0100
1000
0001
0100
1000
0100
0220
,
0000
0000
0330
1001
,
0001
1000
0100
1000
0020
0000
0130
0001
,
0010
0001
0100
1000
0200
0010
0310
0000
,
1000
0100
0001
0000
0001
0100
1000
0000
,
0001
0010
0100
1000
0010
0100
0110
0000
,
0001
0000
0000
0100
0000
0000
0001
0000
1000
0000
2000
0000
0000
0000
3001
0000
,
0100
0000
0000
1000
0000
0000
0100
0000
0020
0000
1000
0000
1030
0000
0001
0000
,
0010
1000
0000
1000
0010
0001
0000
1000
,
0010
0100
0001
0010
0100
0000
0220
0330
,
2000
0000
3200
0000
0302
0000
0103
0010
,
0002
0000
0203
0000
1300
0100
0100
0000
,
0002
0000
0023
0000
2030
0000
3010
0001
,
2000
0000
3020
0000
0031
0010
0010
0000
,
0200
0000
0302
0000
0023
0000
1030
0010
,
0200
0000
2300
0000
3010
0100
0100
0000
,
0020
0000
2030
0000
3200
0000
0301
0100
,
0020
0000
0031
0100
0010
1000
2002
0000
,
0000
3003
0000
0000
;

//---------------dance-single - ----------------
#NOTES:
     dance-single:
     :
     Easy:
     6:
     0.273651,0.467626,0.166860,0.307023,0.003337,287.000000,262.000000,25.000000,46.000000,0.000000,0.000000,0.273651,0.467626,0.166860,0.307023,0.003337,287.000000,262.000000,25.000000,46.000000,0.000000,0.000000:
0000
0000
0000
0000
,
0000
0000
0000
0000
,
0000
0000
0000
0000
,
0000
0000
0000
0000
,
0000
0000
0000
0000
,
1000
0000
0001
0000
,
1000
0100
1000
0100
,
0020
0032
2003
3002
,
0103
0100
0100
0000
0010
0000
1001
0000
,
2000
0010
3010
0100
,
0002
1000
1003
0000
,
0002
0010
0013
0100
,
2000
0001
3001
0000
,
2000
0010
3001
0010
,
0002
0010
1003
0000
,
0002
0010
1003
0010
,
2000
0010
3001
1001
,
1000
0100
0001
0100
,
1000
0001
1000
0000
,
0001
0100
1000
0100
,
0001
1000
0001
0000
,
1000
0010
0001
0010
,
1000
0001
1000
0000
,
0001
1001
1000
1001
,
1000
0001
2002
3003
,
0001
0100
0020
0030
,
1000
0001
0020
0030
,
0100
0100
0010
0010
,
0100
0010
0110
0000
,
1000
0010
0200
0300
,
0001
1000
0200
0300
,
0010
0000
0010
0000
0001
0000
1000
2000
,
0000
0000
0000
3001
,
1000
0100
0002
0003
,
1000
0000
0010
0000
0001
1000
1000
0000
,
0001
0101
1000
1100
,
0001
0010
0100
0110
,
0001
0100
2000
3000
,
0001
0000
0010
0000
1000
0001
0001
0000
,
1000
1100
0001
0101
,
1000
0100
0010
0110
,
0000
0000
0000
0000
,
1000
0000
0002
0000
0103
0100
0100
0010
,
1000
0000
0002
0000
0013
0100
1000
0001
,
1001
0000
2000
0000
3100
0100
0100
0010
,
0001
0000
2000
0000
3010
0100
0110
0000
,
0001
0100
0001
0100
0010
1000
0010
1000
,
0001
1000
0001
1000
0100
0100
0100
0100
,
0010
0001
0011
0000
1000
0100
1100
0000
,
0001
0000
0010
0000
1000
0000
0010
0000
0100
0100
0100
0000
0010
0000
1001
0000
,
0002
0000
0000
0003
,
0200
0000
0000
0300
,
0020
0000
0000
0030
,
2000
0000
0000
3000
,
0001
0001
0010
0010
,
0100
0100
1000
1000
,
0010
0100
0001
1000
,
0002
0000
0000
0013
,
0001
0100
2000
3000
,
0001
0000
0010
0000
1000
0001
0001
0000
,
1000
1100
0001
0101
,
1000
0010
0100
0110
,
1000
0100
0002
0003
,
1000
0000
0010
0000
0001
1000
1000
0000
,
2002
3003
0220
0330
,
1001
0110
2002
3003
,
0002
0010
1003
0010
,
2000
0010
3001
0000
,
2000
0010
3001
0010
,
0002
0010
1003
0000
,
0020
1000
0130
0001
,
0020
0000
0001
0000
0130
1000
0001
0000
,
0200
0001
0310
1000
,
0200
0000
0010
0000
1300
0001
1000
0000
;
