#VERSION:0.83;
#TITLE:Get There;
#SUBTITLE:;
#ARTIST:BEMANI Sound Team "Yvya" feat. 吾龍;
#TITLETRANSLIT:;
#SUBTITLETRANSLIT:;
#ARTISTTRANSLIT:BEMANI Sound Team "Yvya" feat. Goryu;
#GENRE:;
#CREDIT:chronon;
#MUSIC:Get There.ogg;
#BANNER:Get There.png;
#BACKGROUND:Get There-bg.png;
#CDTITLE:;
#SAMPLESTART:64.152;
#SAMPLELENGTH:16.967;
#SELECTABLE:YES;
#OFFSET:1.504;
#BPMS:0.000=122.000;
#STOPS:;
#BGCHANGES:;
#FGCHANGES:;

//--------------- dance-single - chronon ----------------
#NOTEDATA:;
#STEPSTYPE:dance-single;
#DESCRIPTION:chronon;
#DIFFICULTY:Beginner;
#METER:3;
#RADARVALUES:0,0,0,0,0;
#NOTES:
0000
0000
0000
0000
,
0000
0000
0000
0000
,
0000
0000
0000
0000
,
1001
0000
0000
0000
,
0000
0000
0000
0000
,
0001
0000
0001
0000
,
1000
0000
1000
0000
,
0100
0000
0100
0000
,
0010
0000
0000
0000
,
0001
0000
0001
0000
,
1000
0000
1000
0000
,
0010
0000
0010
0000
,
0100
0000
0000
0000
,
0000
0000
0000
0000
,
0001
0000
0100
0000
,
0001
0000
1000
0000
,
0001
0000
0010
0000
,
0001
1000
0001
0000
,
1000
0000
0100
0000
,
1000
0000
0001
0000
,
1000
0000
0010
0000
,
1000
0001
1000
0000
,
0001
0000
0001
0000
,
0100
0100
0100
0000
,
0001
0000
0001
0000
,
1000
0001
1000
0000
,
1000
0000
0100
0000
,
0001
0000
0100
0000
,
1000
0000
0001
0000
,
0100
0100
0100
0000
,
0001
0000
0100
0000
,
1000
0000
0100
0000
,
0001
0000
1000
0000
,
1001
0000
0000
0000
,
0001
0000
0010
0000
,
0100
0000
0100
0000
,
1000
0000
0010
0000
,
0100
0000
0001
0000
,
1000
0000
0100
0000
,
0010
0000
0010
0000
,
0001
0000
0100
0000
,
0010
0000
1000
0000
,
0001
0001
0001
0000
,
0010
0010
0010
0000
,
0100
0100
0100
0000
,
1000
0000
0001
0000
,
1000
0000
0010
0000
,
0100
0000
0010
0000
,
1001
0000
0000
0000
,
1000
1000
0000
0000
,
0001
0001
0000
0000
,
0010
0010
0000
0000
,
0100
0100
0000
0000
,
1000
1000
0000
0000
,
0001
0001
0000
0000
,
0100
0100
0000
0000
,
0001
0000
1000
0000
,
0100
0000
0001
0000
,
0010
0000
0000
0000
,
1000
0000
0001
0000
,
1001
0000
0000
0000
;

//--------------- dance-single - chronon ----------------
#NOTEDATA:;
#STEPSTYPE:dance-single;
#DESCRIPTION:chronon;
#DIFFICULTY:Easy;
#METER:8;
#RADARVALUES:0,0,0,0,0;
#NOTES:
0000
0000
0000
0000
,
0000
0000
0000
0000
,
0000
0000
0000
0000
,
2002
0000
0000
3003
,
0001
0000
0000
0001
0000
0000
1000
0000
0000
1000
0000
0000
0100
0000
0000
0000
,
1000
0000
0000
0100
0000
0000
1000
0000
0000
0001
0000
0000
1000
0000
0000
0000
,
0001
0000
0000
0100
0000
0000
0001
0000
0000
1000
0000
0000
0001
0000
0000
0000
,
1000
0000
0000
0010
0000
0000
1000
0000
0000
0001
0000
0000
1000
0000
0000
0000
,
0001
0000
0000
0010
0000
0000
0001
0000
1000
0000
0000
0000
0001
0000
0000
0000
,
0100
0000
0000
0001
0000
0000
0100
0000
0000
0010
0000
0000
0100
0000
0000
0000
,
0010
0000
0000
0100
0000
0000
0010
0000
0000
1000
0000
0000
0010
0000
0000
0000
,
1000
0000
0000
0001
0000
0000
1000
0000
0000
0100
0000
0000
1000
0000
0000
0000
,
0100
0000
0000
0010
0000
0000
0100
0000
1000
0000
0000
0000
0001
0000
0000
0000
,
1000
0000
0000
0001
,
1000
0010
0100
0100
,
0001
0010
0100
0100
,
1000
1000
0001
0001
,
1000
0010
0100
0100
,
0001
0100
0010
1000
,
0001
0010
0100
1000
,
1001
0000
0000
1001
,
0001
0001
1000
1000
,
0001
0000
0000
0010
0000
0000
0001
0000
0000
1000
0000
0000
0001
0000
0000
0000
,
1000
0001
1000
0000
0010
0000
0100
0000
,
0001
0000
0000
0100
0000
0000
0001
0000
0000
1000
0000
0000
0001
0000
0000
0000
,
1000
0001
1000
0001
1000
0000
0000
0000
,
0001
0010
0001
0001
,
1000
0010
1000
1000
,
0001
0100
0010
0100
,
1000
0100
0010
0000
,
1000
0001
1000
0100
,
0010
0010
0001
0001
,
1000
0000
0001
0000
,
1001
0000
0000
0000
,
1000
0010
0001
0010
,
1000
0100
0001
0100
,
1000
0010
0100
0001
,
0101
0000
0000
1010
0000
0000
1001
0000
,
0001
0010
1000
0010
,
0001
0100
1000
0100
,
0001
0100
0010
1000
,
0001
0000
0000
0001
0000
0000
1000
0000
0000
1000
0000
0000
0100
0000
0000
0000
,
1000
0100
0001
1000
,
0010
0001
0100
0001
,
0001
0100
1000
0001
,
0010
1000
0100
1000
,
0001
1000
0001
0100
,
0010
1000
0001
1000
,
1001
0000
0000
0000
,
0001
0000
0000
1000
0000
0000
1000
0000
0000
0010
0000
0000
0100
0000
0000
0000
,
0001
0000
0000
1000
0000
0000
1000
0000
0100
0000
0000
0000
0010
0000
0000
0000
,
0100
0000
0000
1000
0000
0000
1000
0000
0000
0001
0000
0000
0100
0000
0000
0000
,
0010
0000
0000
1000
0000
0000
1000
0000
0001
0000
0000
0000
0010
0000
0000
0000
,
0001
0000
0000
0010
0000
0000
0100
0000
0000
0100
0000
0000
1000
0000
0000
0000
,
0001
0000
0000
0000
0100
0000
0000
0010
0000
0100
0000
0000
0001
0000
0000
0000
,
1000
0000
0000
0000
0100
0000
0000
0010
0000
0000
0100
0000
0000
1000
0000
0000
,
0001
1000
0001
0000
1000
0000
0100
0000
,
0001
0010
1000
0001
,
2002
0000
0000
3003
,
1000
0001
1000
0001
1000
0000
0100
0000
,
0001
0000
0000
0000
;

//--------------- dance-single - chronon ----------------
#NOTEDATA:;
#STEPSTYPE:dance-single;
#DESCRIPTION:chronon;
#DIFFICULTY:Medium;
#METER:11;
#RADARVALUES:0,0,0,0,0;
#NOTES:
0000
0000
0000
0000
,
0000
0000
0000
0000
,
0000
0000
0000
0000
,
2002
0000
0000
3003
,
0001
0000
0100
0001
0000
0100
0010
0000
1000
0001
0000
0000
1001
0000
0000
0000
,
2000
0100
0000
3001
0000
0000
0002
0100
0000
1003
0000
0000
0001
0000
1000
0000
,
0002
0010
0000
1003
0000
0000
2000
0010
0000
3001
0000
0000
0010
0000
0100
0000
,
0020
0100
0000
0031
0000
0000
0002
0010
0000
1003
0000
0000
0001
0000
1000
0000
,
0020
0100
0000
1030
0000
0000
1000
0000
0001
0000
0010
0000
0001
0000
1000
0000
,
0002
0100
0000
1003
0000
0000
2000
0100
0000
3001
0000
0000
1000
0000
0001
0000
,
2000
0010
0000
3001
0000
0000
0002
0010
0000
1003
0000
0000
0010
0000
0100
0000
,
0020
0100
0000
1030
0000
0000
2000
0010
0000
3001
0000
0000
1000
0000
0001
0000
,
0020
0100
0000
0031
0000
0000
0001
0000
1000
0000
0010
0000
1000
0000
0001
0000
,
1000
0000
0000
1001
,
0001
0000
0010
0000
0100
0000
1000
0000
0001
1000
0000
0010
0000
0000
0000
0000
,
1000
0000
0010
0000
0100
0000
0001
0000
1000
0001
0000
0010
0000
0000
0001
1000
,
0000
0010
0000
0000
1000
0000
0010
0000
0100
0001
0000
1000
0000
0000
0000
0000
,
0001
0000
0010
0000
0100
0000
1000
0000
0001
1000
0000
0010
1000
0000
0001
0000
,
1000
0000
0100
0000
0010
0000
0100
0010
0000
0010
0000
0000
0001
0000
1000
0000
,
0001
0000
0100
0000
0010
0000
0100
0010
0000
0010
0000
0000
1000
0000
0002
0000
,
0100
0000
1003
0000
0001
0000
0000
1000
0000
2000
0000
0000
0100
0000
3001
0000
,
1001
1010
0110
1001
,
2000
0001
0000
0010
0000
0000
3002
1000
0000
0010
0000
0000
1003
0000
0001
0000
,
1000
0000
0001
0000
0001
0000
0010
0000
0100
0000
1000
0001
0000
0001
1000
0000
,
0002
1000
0000
0100
0000
0000
2003
0001
0000
0100
0000
0000
3001
0000
1000
0000
,
0001
0000
0100
0000
1000
0000
0100
0000
0010
0000
0000
1000
0000
0001
0000
1000
,
0100
0000
0010
0001
1000
0001
0100
0000
,
0010
0000
0100
0001
1000
0001
0010
0010
,
0100
0000
0010
0001
1000
0001
0100
0000
,
0101
0000
0000
0110
0000
0000
1010
0000
1000
0000
0000
0000
0200
0000
0000
0000
,
1300
0000
0100
0000
0001
0000
0000
1000
0000
0010
0000
0000
0001
0000
0000
0000
,
0001
0100
1000
0000
0001
0010
1000
0000
,
0001
0000
0000
0010
0000
0000
0010
0000
0001
0000
0000
1000
0000
0000
1000
0000
,
0001
0000
0000
0000
,
0100
0000
0000
1000
0000
0000
0100
0000
0010
0000
1000
0000
0001
0000
1000
0000
,
0100
0000
0000
0001
0000
0000
0100
0000
0010
0000
0001
0000
1000
0000
0001
0000
,
0100
0000
0000
0001
0100
0000
0010
0000
0000
1000
0010
0000
1000
0000
0100
0000
,
1100
0000
0000
1100
0000
0000
0101
0000
0000
0101
0000
0000
0001
0000
0100
0000
,
0010
0000
0000
0001
0000
0000
0010
0000
0100
0000
0001
0000
1000
0000
0001
0000
,
0010
0000
0000
1000
0000
0000
0010
0000
0100
0000
1000
0000
0001
0000
1000
0000
,
0010
0000
0000
0100
0001
0000
0010
0000
0000
0100
1000
0000
0010
0000
1000
0000
,
0001
1000
0000
0100
0000
0000
0010
0001
0000
1000
0000
0000
1001
0000
0000
0000
,
0001
0000
0100
0000
2000
0000
0000
0001
0000
0000
3100
0000
0010
0000
1000
0000
,
0001
0000
0010
0000
2000
0000
0000
0001
0000
0000
3010
0000
0100
0000
0010
0000
,
1000
0000
0010
0000
0002
0000
0000
1000
0000
0000
0103
0000
0001
0000
0100
0000
,
0010
0000
0000
1001
0000
0000
0100
0000
0000
1001
0000
0000
1000
0000
0100
0000
,
1000
0000
0000
0000
0100
0000
0010
0000
0001
0000
1000
0001
0000
0100
0001
0000
,
1000
0000
0001
1000
0000
0100
1000
0000
0100
0000
0000
0010
0000
0010
0000
0001
,
2000
0000
0000
0000
0000
0000
0000
0000
3001
0000
0000
1000
0000
0000
0001
0000
,
0200
0001
0000
0310
0000
0000
0020
1000
0000
0130
0000
0001
1000
0000
0100
0000
,
0020
0001
0000
0130
0000
0000
0200
1000
0000
0310
0000
0001
0100
0000
0010
0000
,
2000
0001
0000
3100
0000
0000
0200
0010
0000
1300
0000
0001
1000
0000
0010
0000
,
2000
0001
0000
3010
0000
1000
0010
0000
1000
0001
1000
0000
0001
1000
0001
0000
,
0020
0001
0000
0130
0000
0000
0200
0010
0000
1300
0000
0001
1000
0000
0010
0000
,
0200
0001
0000
0310
0000
0000
0000
0100
0000
0100
0000
0001
0010
0000
0001
0000
,
2000
0001
0000
3010
0000
0000
0000
0100
0000
0000
0100
0000
0000
0100
0000
0000
,
0001
0000
0100
0000
0010
0000
1000
0000
0001
1000
0001
0000
1000
0001
1000
0000
,
0100
0010
0100
0000
0010
0100
0010
0000
0001
1000
0001
0000
0100
0000
0010
0000
,
2002
0000
0000
3003
,
1000
0000
0010
0000
0001
0000
0010
0000
0100
0000
0000
0001
0000
1000
0000
0100
,
0000
0001
0000
0000
0000
0000
0000
0000
0000
0000
0000
0000
0000
0000
0000
0000
;

//--------------- dance-single - chronon ----------------
#NOTEDATA:;
#STEPSTYPE:dance-single;
#DESCRIPTION:chronon;
#DIFFICULTY:Hard;
#METER:15;
#RADARVALUES:0,0,0,0,0;
#NOTES:
0000
0000
0000
0000
,
0000
0000
0000
0000
,
0000
0000
0000
0000
,
2002
0000
0000
3003
,
1000
0000
0001
0100
0010
0100
0001
1000
0001
0010
0100
1000
0001
0000
0000
0000
,
0001
2000
0000
0100
0000
3001
1000
0002
0000
0100
0000
1003
0100
1000
0001
0010
,
0001
2000
0000
0010
0000
3001
1000
0002
0000
0010
0000
0103
1000
0100
0010
0100
,
0002
0100
0000
1003
0000
0100
2000
0100
0000
3001
0000
0100
0001
1000
0100
0010
,
0002
0010
0000
1003
0000
0010
1000
0010
0100
0001
1000
0001
0010
0100
0010
0001
,
1000
0002
0000
0100
0000
1003
0001
2000
0000
0100
0000
3001
0100
0001
1000
0010
,
1000
0002
0000
0010
0000
1003
0001
2000
0000
0010
0000
3100
0001
0100
0010
0100
,
2000
0100
0000
3001
0000
0100
0002
0100
0000
1003
0000
0100
1000
0001
0100
0010
,
2000
0010
0000
3001
0000
0010
0001
0010
0100
1000
0001
1000
0010
0100
0010
1000
,
0001
0000
0000
0000
0000
0000
0000
0000
0000
0000
0000
0000
1000
0100
0000
0020
,
0100
0000
0031
0000
1000
0010
0100
0010
2000
0001
0000
3010
0000
1000
0010
0200
,
0010
0000
0301
0000
1000
0000
0001
0010
0002
1000
0000
0013
0000
0001
2000
0001
,
0000
3010
0000
0100
0000
0010
1000
0001
2000
0100
0000
3001
0000
0010
0001
0000
,
0021
0000
0130
0000
2100
0000
3100
1000
0002
0010
0000
1003
0000
0001
1000
0000
,
0100
1000
0001
1000
0010
0100
0002
1000
0000
0013
0000
0100
1000
0000
0100
1000
,
0010
0000
0100
0001
0010
0000
0002
1000
0000
0103
0000
0010
1000
0000
0010
0000
,
0110
0000
1001
0000
1000
0100
0020
0001
0000
0130
0000
0010
0100
0000
1001
0000
,
0001
0100
0010
1000
0100
0010
0001
0100
0010
1000
0100
0010
,
0001
2000
0000
0100
0000
3001
1000
0002
0000
0100
0000
1003
0100
1000
0001
0010
,
0001
0000
0010
0000
0100
0000
0010
0100
1000
0001
1000
0010
0000
0010
0100
0000
,
0002
0100
0000
1003
0000
0100
2000
0100
0000
3001
0000
0100
0001
1000
0100
0010
,
0001
0100
0010
0100
1000
0100
0010
0100
0001
1000
0000
1001
0000
1100
0000
0100
,
0001
0000
0100
0010
0000
0001
0000
0100
0000
0010
0100
0000
0001
0100
0010
0100
,
1000
0000
0100
0010
0000
1000
0000
0100
0000
0010
0001
1000
0001
0100
0010
0000
,
0001
0000
0010
0100
0000
0001
0000
0010
0000
0100
0010
0000
0001
0010
0100
0010
,
1000
0010
0100
1000
0010
0100
0001
1000
0002
0000
0103
0001
0010
0000
0000
0000
,
0012
0000
1000
0000
0103
0000
0010
1000
0000
0100
0000
0010
0100
0000
1001
0000
,
2010
0000
3001
0000
1000
0001
0010
0000
0012
0000
1003
0000
2010
0000
3001
0000
,
1002
0000
0000
0103
0000
0000
0010
0000
2001
0000
0000
3100
0000
0000
0010
0000
,
2002
3003
0000
0000
,
0001
0100
0000
1000
0100
0000
0010
0100
0000
0001
1000
0000
0100
0000
0010
0000
,
0001
0010
0000
1000
0010
0000
0100
0010
0000
0001
1000
0000
0010
0000
0100
0000
,
0001
0010
0000
0010
0100
0000
1000
0010
0000
0010
0100
0000
0110
0000
1001
0000
,
1100
0000
0000
0110
0000
0000
0011
0000
0000
0101
0000
0100
0001
0100
0010
0000
,
1000
0010
0000
0001
0010
0000
0100
0010
0000
1000
0001
0000
0010
0000
0100
0000
,
1000
0100
0000
0001
0100
0000
0010
0100
0000
1000
0001
0000
0100
0000
1000
0000
,
1100
0000
1000
0100
0010
0000
1010
0000
1000
0100
0010
0000
0110
0000
1001
0000
,
0001
0100
0000
0010
0100
0001
1000
0100
0000
0010
0100
1000
0020
0000
0130
0001
,
0020
0000
0100
0000
1030
0000
0020
1000
0000
0230
0001
0000
0310
0100
0010
0001
,
0200
0000
0010
0000
1300
0000
0200
1000
0000
0320
0001
0000
0130
0001
1000
0100
,
0002
0000
0100
0000
1003
0000
0002
1000
0000
0203
0010
0000
1300
0100
1000
0001
,
0200
0000
0000
0010
0000
0000
2300
0000
0000
3100
0000
0000
0110
0000
1001
0000
,
1100
0000
1000
0100
0010
0000
0100
1000
0010
0000
0100
0001
0000
0100
0010
1000
,
0001
1000
0100
0010
0001
1000
0010
0100
0001
0100
0000
0101
0000
0110
0000
2002
,
0000
0000
0000
0000
3003
0000
0000
0000
1000
0001
0100
0010
1000
0001
0010
0100
,
0020
0100
0000
1030
0000
0010
0200
0010
0000
0301
0000
0100
1000
0001
1000
0010
,
0200
0010
0000
1300
0000
0100
0020
0100
0000
0031
0000
0010
0100
0001
0010
0100
,
0020
0001
0000
1030
0000
0010
0200
1000
0000
0301
0000
0100
1000
0001
1000
0010
,
0200
0001
0000
1300
0000
0100
0010
0100
1000
0100
0010
0100
0001
0010
0100
1000
,
0200
0010
0000
0301
0000
0100
0020
0100
0000
1030
0000
0010
0001
1000
0001
0100
,
0020
0100
0000
0031
0000
0010
0100
0010
0000
1001
0000
0001
0010
0100
1000
0100
,
0020
0001
0000
1030
0000
0010
0100
0010
0000
0000
0110
0000
0000
1001
0000
0000
,
1000
0001
0100
0010
0100
0001
1000
0100
0001
0100
0010
0100
1000
0010
0100
0010
,
0001
0010
0100
0010
1000
0100
0010
0100
0001
0100
0010
0100
1000
0010
0100
0000
,
2002
0000
0000
3003
,
1000
0010
0100
0010
0001
0010
0100
0010
1000
0001
0000
1001
0000
0011
0000
0001
,
0010
1000
0000
0000
0000
0000
0000
0000
0000
0000
0000
0000
0000
0000
0000
0000
;
