#VERSION:0.83;
#TITLE:GAYCORE;
#SUBTITLE:;
#ARTIST:mrsimon;
#TITLETRANSLIT:;
#SUBTITLETRANSLIT:;
#ARTISTTRANSLIT:;
#GENRE:;
#CREDIT:;
#MUSIC:GAYCORE.ogg;
#BANNER:GAYCORE-banner.png;
#BACKGROUND:GAYCORE-background.png;
#JACKET:GAYCORE-jacket.png;
#DISCIMAGE:;
#CDIMAGE:;
#SELECTABLE:YES;
#LYRICSPATH:;
#CDTITLE:scr-cdtitle.png;
#SAMPLESTART:0.000;
#SAMPLELENGTH:0.000;
#BPMS:0.000=154.000;
#STOPS:;
#WARPS:;
#DELAYS:;
#SPEEDS:2.000=0.100=2.000=0,
4.000=0.157=0.500=0,
5.000=0.212=0.500=0,
6.000=0.269=0.500=0,
7.000=0.325=0.500=0,
8.000=0.381=0.500=0,
9.000=0.438=0.500=0,
10.000=0.494=0.500=0,
11.000=0.550=0.500=0,
12.000=0.606=0.500=0,
13.000=0.662=0.500=0,
14.000=0.719=0.500=0,
15.000=0.775=0.500=0,
16.000=0.831=0.500=0,
17.000=0.888=0.500=0,
18.000=0.944=0.500=0,
19.000=1.000=0.500=0
;
#SCROLLS:4.000=0.100,
20.000=0.200,
20.063=1.000,
21.000=0.200,
21.063=1.000,
22.000=0.200,
22.063=1.000,
23.000=0.200,
23.063=1.000,
24.000=0.200,
24.063=1.000,
25.000=0.200,
25.063=1.000,
26.000=0.200,
26.063=1.000,
27.000=0.200,
27.063=1.000,
28.000=0.200,
28.063=1.000,
29.000=0.200,
29.063=1.000,
30.000=0.200,
30.063=1.000,
31.000=0.200,
31.063=1.000,
32.000=69.000,
32.063=0.500,
34.000=1.000,
36.000=0.200,
36.063=1.000,
40.000=0.200,
40.063=1.000,
44.000=0.200,
44.063=1.000,
48.000=0.200,
48.063=1.000,
52.000=0.200,
52.063=1.000,
56.000=0.200,
56.063=1.000,
60.000=0.200,
60.063=1.000,
64.000=0.200,
64.063=1.000,
68.000=0.200,
68.063=1.000,
69.000=0.200,
69.063=1.000,
70.000=0.200,
70.063=1.000,
71.000=0.200,
71.063=1.000,
72.000=0.200,
72.063=1.000,
73.000=0.200,
73.063=1.000,
74.000=0.200,
74.063=1.000,
76.000=0.200,
76.063=1.000,
77.000=0.200,
77.063=1.000,
78.000=0.200,
78.063=1.000,
79.000=0.200,
79.063=1.000,
80.000=0.200,
80.063=1.000,
81.000=0.200,
81.063=1.000,
82.000=0.200,
82.063=1.000,
84.000=0.200,
84.063=1.000,
85.000=0.200,
85.063=1.000,
86.000=0.200,
86.063=1.000,
87.000=0.200,
87.063=1.000,
88.000=0.200,
88.063=1.000,
89.000=0.200,
89.063=1.000,
90.000=0.200,
90.063=1.000,
100.000=0.200,
100.063=1.000,
108.000=0.200,
108.063=1.000,
116.000=0.200,
116.063=1.000,
124.000=0.200,
124.063=1.000,
128.000=0.750,
130.000=1.000,
140.000=0.200,
140.063=1.000,
144.500=0.200,
144.563=1.000,
145.500=0.200,
145.563=1.000,
146.500=0.200,
146.563=1.000,
148.000=0.200,
148.063=1.000,
152.000=0.200,
152.063=1.000,
156.000=0.200,
156.063=1.000,
164.000=0.500,
168.000=0.750,
172.000=1.000,
212.000=0.200,
212.063=1.000,
216.000=0.200,
216.063=1.000,
220.000=0.200,
220.063=1.000,
224.500=0.200,
224.563=1.000,
228.000=0.200,
228.063=1.000,
232.000=0.200,
232.063=1.000,
236.000=0.200,
236.063=1.000,
244.000=0.200,
244.063=1.000,
273.750=0.500,
276.000=0.200,
276.063=1.000,
284.000=0.200,
284.063=1.000,
288.500=0.200,
288.563=1.000,
289.500=0.200,
289.563=1.000,
290.500=0.200,
290.563=1.000,
291.500=0.200,
291.563=1.000,
292.000=0.200,
292.063=1.000,
300.000=0.200,
300.063=1.000,
307.000=69.000,
307.500=1.000
;
#TICKCOUNTS:;
#TIMESIGNATURES:;
#LABELS:;
#COMBOS:;
#FAKES:;
#BGCHANGES:;
#FGCHANGES:;
#ATTACKS:;

//---------------dance-single - [XMOD] JU, DS-, XO----------------
#NOTEDATA:;
#CHARTNAME:look at my air time;
#CHARTSTYLE:;
#CREDIT:Scrypts;
#STEPSTYPE:dance-single;
#DESCRIPTION:[XMOD] JU, DS-, XO-;
#DIFFICULTY:Hard;
#METER:13;
#METERF:13;
#RADARVALUES:0,0,0,0,0;
#NOTES:
// measure 0
0000
0000
0000
0000
,  // measure 1
0000
0000
0000
0000
,  // measure 2
0000
0000
0000
0000
,  // measure 3
0000
0000
0000
0000
,  // measure 4
0000
0000
0000
0000
,  // measure 5
1001
1100
1001
0101
,  // measure 6
1001
1010
1001
0011
,  // measure 7
1001
1100
1001
0101
,  // measure 8
1010
0000
0000
0000
1000
0100
0010
0001
,  // measure 9
1000
0000
0010
0000
0100
0000
0000
0001
0000
0000
0100
0000
0020
0000
0000
0000
,  // measure 10
1030
0000
0100
0000
0010
0000
0000
0001
0000
0000
0010
0000
0200
0000
0000
0000
,  // measure 11
1300
0000
0010
0000
0100
0000
0000
0001
0000
0000
0010
0000
0100
0000
1000
0000
,  // measure 12
0001
0000
1000
0000
0010
0000
0000
0100
0000
0000
0001
0000
0010
0000
0200
0000
,  // measure 13
1300
0000
0001
0000
0100
0000
0000
0010
0000
0000
1000
0000
0020
0000
0000
0000
,  // measure 14
0130
0000
0001
0000
1000
0000
0000
0100
0000
0000
0010
0000
0002
0000
0000
0000
,  // measure 15
1003
0000
0010
0000
0100
0000
0000
0001
0000
0000
1000
0000
0100
0000
0010
0000
,  // measure 16
0001
0000
1000
0000
0010
0000
0000
0100
0000
0001
1000
0000
0100
0010
0000
0000
,  // measure 17
0001
0100
0001
0010
0001
0100
0001
0010
,  // measure 18
0100
1000
0010
1000
0100
2000
0000
3000
,  // measure 19
1000
0100
1000
0010
1000
0100
1000
0010
,  // measure 20
0100
0001
0010
0001
0100
0002
0000
0003
,  // measure 21
0001
0010
0001
0100
0001
0010
0001
0100
,  // measure 22
0010
1000
0100
1000
0010
2000
0000
3000
,  // measure 23
0001
0000
0000
0101
0000
0000
1000
0000
0000
1100
0000
0000
0001
0000
0000
0011
,  // measure 24
0000
0000
1000
0000
0000
1010
0000
0001
1000
0000
0100
0000
0010
0000
0001
0000
,  // measure 25
1000
0000
0100
0000
0010
0000
0000
0010
0000
0000
0001
0000
1000
0100
1000
0000
,  // measure 26
0002
0000
0010
0000
2003
0000
0010
3001
,  // measure 27
1000
0000
0001
0000
0100
0000
0000
0100
0000
0000
0010
0000
1000
0000
0100
0000
,  // measure 28
0010
0001
1000
0001
0100
0001
1000
0001
,  // measure 29
0010
0000
0100
0000
1000
0000
0000
1000
0000
0000
0010
0000
0100
0000
0001
0000
,  // measure 30
2000
0000
0010
0000
3002
0000
0010
1003
,  // measure 31
0001
0000
1000
0000
0010
0000
0000
0010
0000
0000
0100
0000
0001
0000
1000
0000
,  // measure 32
0002
0023
0230
2300
,  // measure 33
3001
0000
0100
0000
0010
0000
1000
0010
0000
0100
0001
0000
1000
0000
0100
0000
,  // measure 34
1000
0010
0100
0000
0010
1000
0100
0010
,  // measure 35
0001
0000
1000
0000
0100
0000
0000
0100
0000
0000
1000
0000
0001
0000
0100
0000
,  // measure 36
0001
0011
0000
0110
0000
1100
0000
1001
,  // measure 37
1001
0000
1000
0000
0010
0000
0000
0010
0000
0000
0100
0000
0001
0000
1000
0000
,  // measure 38
0002
0000
0010
0000
2003
0000
0010
3001
,  // measure 39
1000
0010
0100
0010
1000
0100
0010
0001
,  // measure 40
0100
0010
1000
0010
0100
0001
0010
0100
,  // measure 41
1000
0000
0000
0001
0000
0000
0100
0000
0001
0000
1000
0000
0100
0000
0010
0000
,  // measure 42
0100
0000
0000
0100
0000
0000
1000
0000
0010
0000
0100
0000
0001
0000
1000
0000
,  // measure 43
0001
0010
0100
1000
0001
0100
0010
1000
,  // measure 44
0001
0100
1000
0100
0001
0010
1000
0010
,  // measure 45
0001
0100
0010
1000
0100
0010
0001
1000
,  // measure 46
0010
0000
0100
0000
0010
0000
1000
0000
0100
0000
0010
0000
0001
0000
1000
0001
,  // measure 47
1000
0100
0010
0001
1000
0010
0100
0001
,  // measure 48
1000
0100
0001
0100
1000
0010
0001
0010
,  // measure 49
1000
0100
0010
0001
0010
0100
1000
0001
,  // measure 50
0100
0010
1000
0010
0100
0001
1000
0100
,  // measure 51
0010
0001
1000
0010
,  // measure 52
0100
0001
0010
0001
0100
0001
0010
0001
,  // measure 53
2000
0000
0000
0000
3020
0000
0000
0000
0230
0000
0301
1000
0002
0000
0000
0000
,  // measure 54
1003
0000
0200
0000
0000
0000
0320
0000
0000
0000
0031
1000
0002
0000
0000
0000
,  // measure 55
2003
0000
0000
0000
3020
0000
0000
0000
0230
0000
0301
1000
0002
0000
0000
0000
,  // measure 56
0003
0000
0020
0000
0000
0000
0230
0000
0000
0000
1300
0001
2000
0000
3000
0000
,  // measure 57
0002
0000
0000
0000
0203
0000
0000
0000
0320
0000
1030
0001
2000
0000
0000
0000
,  // measure 58
3001
0000
0020
0000
0000
0000
0230
0000
0000
0000
1300
0001
2000
0000
0000
0000
,  // measure 59
3002
0000
0000
0000
0203
0000
0000
0000
0320
0000
1030
0001
2000
0000
3100
0000
,  // measure 60
0010
0100
0001
0100
1000
0010
0100
0001
,  // measure 61
1000
0000
0100
0000
0010
0000
0001
1000
0001
0000
0000
0001
1000
0000
0000
0000
,  // measure 62
1000
0000
0010
0000
0200
0000
0000
0301
0000
0010
0000
0100
0000
1000
0000
0000
,  // measure 63
0001
0000
0100
0000
0001
0000
1000
0100
1000
0000
0000
0000
1001
0000
0001
0000
,  // measure 64
1000
0000
0010
0000
0001
0000
0010
0100
0000
0001
0000
0000
1001
0000
0000
0000
,  // measure 65
1000
0000
0100
0000
0010
0000
0100
1000
0001
0000
0000
0001
1000
0000
0000
0000
,  // measure 66
0001
0000
0100
0000
0020
0000
0000
1030
0000
0100
0000
0010
0000
0001
0000
0000
,  // measure 67
1000
0000
0010
0000
0100
0000
0001
1000
0001
0000
0000
0000
1001
0000
1000
0000
,  // measure 68
0100
0000
1000
0010
1000
0000
0001
0020
0000
0000
0000
0000
0000
0000
0030
0000
,  // measure 69
1001
0101
1001
1100
,  // measure 70
1001
0101
1001
1100
,  // measure 71
1010
1001
0011
1001
,  // measure 72
1000
0010
0000
1010
0000
1001
0000
0011
,  // measure 73
0011
1001
0101
1001
,  // measure 74
1100
1001
1010
1001
,  // measure 75
0110
1001
1100
1001
,  // measure 76
0101
0000
1001
0000
2000
0010
0002
3003
;

//---------------dance-single - [XMOD] DS+, FS, HS?, XO----------------
#NOTEDATA:;
#CHARTNAME:on the dance flo!;
#CHARTSTYLE:;
#CREDIT:Scrypts;
#STEPSTYPE:dance-single;
#DESCRIPTION:[XMOD] DS+, FS, HS?, XO-;
#DIFFICULTY:Challenge;
#METER:17;
#METERF:17;
#RADARVALUES:0,0,0,0,0;
#NOTES:
// measure 0
0000
0000
0000
0000
,  // measure 1
0000
0000
0000
0000
,  // measure 2
0000
0000
0000
0000
,  // measure 3
0000
0000
0000
0000
,  // measure 4
0000
0000
0000
0000
,  // measure 5
1000
0100
1000
0001
1000
0010
1000
0001
,  // measure 6
0010
0001
1000
0001
0100
0001
1000
0001
,  // measure 7
0010
0100
1000
0100
0010
0001
0100
0001
,  // measure 8
2000
3000
0000
0000
0000
0000
0000
0000
0000
0000
0000
0000
0000
0000
0000
0000
0000
0000
0000
0000
0000
0000
0000
0000
0000
0000
0000
0000
0000
0000
0000
0000
0001
0000
0000
0000
0100
0000
0000
0000
0001
0000
0000
0000
0100
0000
0000
0000
0010
0000
0000
0000
1000
0000
0000
0000
0010
0000
0000
0000
1000
0000
0000
0000
,  // measure 9
0001
0000
0100
0000
0010
1000
0000
0200
0000
0310
0100
1000
0010
0000
0000
0000
,  // measure 10
1000
0000
0001
0000
0010
0001
0000
0200
0000
0310
0100
0001
0010
0000
0000
0000
,  // measure 11
0100
0000
1000
0000
0010
0100
0000
0002
0000
0103
0010
1000
0100
0000
1000
0000
,  // measure 12
0001
0000
1000
0000
0100
0010
0000
0002
0000
0013
0100
1000
0002
0000
0100
0000
,  // measure 13
1003
0000
0001
0000
0010
0001
0000
0200
0000
0310
0100
0001
0010
0000
0000
0000
,  // measure 14
0001
0000
1000
0000
0010
1000
0000
0200
0000
0310
0100
1000
0010
0000
0000
0000
,  // measure 15
1000
0000
0010
0000
0100
0001
0000
0200
0000
0310
1000
0001
1000
0000
0010
0000
,  // measure 16
1000
0000
0100
0000
0010
0001
0000
0020
0000
0130
1000
0001
0100
0010
0000
0000
,  // measure 17
2000
0100
3002
0010
2003
0100
3002
0010
,  // measure 18
2003
0000
0010
0000
3002
0000
0100
0000
2003
0000
0010
0000
3000
0000
0001
0010
,  // measure 19
0002
0100
2003
0010
3002
0100
2003
0010
,  // measure 20
3002
0000
0010
0000
2003
0000
0100
0000
3002
0000
0010
0000
0003
0000
1000
0010
,  // measure 21
2000
0100
3002
0010
2003
0100
3002
0010
,  // measure 22
2003
0000
0010
0000
3002
0000
0100
0000
2003
0000
0010
0000
3000
0000
0001
0010
,  // measure 23
0100
0000
0000
2001
0000
0000
3010
0000
0000
1002
0000
0000
0103
0000
0000
2010
,  // measure 24
0000
0000
3001
0000
0010
0100
1000
0100
0010
0001
0010
0100
1000
0100
0010
0001
,  // measure 25
1000
0000
1000
0000
0020
0000
0000
0230
0000
0000
0301
1000
0100
1000
0001
0000
,  // measure 26
0010
0000
0001
0000
0100
0000
0001
1000
0100
0000
1000
0000
0010
0000
1000
0001
,  // measure 27
0100
0000
0001
1000
0200
0000
0000
0320
0000
0000
0031
1000
0010
1000
0001
0000
,  // measure 28
0100
0000
0110
0000
0010
1000
0020
0000
0100
0000
2030
0000
0100
0000
3001
1000
,  // measure 29
0001
0000
1000
0000
0020
0000
0000
0230
0000
0000
0301
1000
0100
1000
0001
0000
,  // measure 30
0010
0000
0001
0000
0100
0000
0001
1000
0100
0000
1000
0000
0010
0000
0100
0001
,  // measure 31
1000
0000
1000
0000
0200
0000
0000
0320
0000
0000
0031
1000
0010
1000
0001
0000
,  // measure 32
0020
0000
0000
0000
0230
0000
0000
0000
1300
0001
1000
0001
0100
0010
0100
0010
,  // measure 33
1000
0000
0001
0010
0100
0000
0010
0200
0000
0000
1300
0001
0100
0001
1000
0000
,  // measure 34
0010
0000
0000
0000
1000
0000
0000
0000
0200
0300
0000
0000
0200
0300
0000
0000
0001
0000
0000
0000
0000
0000
0000
0000
0000
0000
0000
0000
0001
0000
0000
0000
0100
0000
0000
0000
0001
0000
0000
0000
0020
0030
0000
0000
0020
0030
0000
0000
1000
0000
0000
0000
0000
0000
0000
0000
1000
0000
0000
0000
0010
0000
0000
0000
,  // measure 35
0100
0000
0010
1000
0100
0000
0010
0200
0000
0000
1300
0010
0100
0001
0010
0000
,  // measure 36
0100
0000
1001
0000
0000
0000
0110
0000
0000
0000
1001
0000
0000
0000
1000
0001
,  // measure 37
1000
0000
1000
0000
0020
0000
0000
0230
0000
0000
0301
1000
0100
1000
0001
0000
,  // measure 38
0010
0000
0001
0000
0100
0000
0001
1000
0100
0000
1000
0000
0010
0000
1000
0001
,  // measure 39
1000
0000
1000
0000
0200
0000
0310
0002
0000
0013
0100
1000
0001
1000
0010
0000
,  // measure 40
0100
0000
0001
1000
0100
0000
1000
0010
0100
0000
0010
1000
0100
0000
0010
0000
,  // measure 41
0001
0000
0001
1000
0000
0000
0010
0000
0100
0000
0010
0000
1000
0000
0001
0010
,  // measure 42
0100
0000
0000
0100
0000
0000
1000
0000
0010
0000
0010
0000
1000
0001
1000
0001
,  // measure 43
1000
0000
0100
0010
0002
0000
0013
0100
0000
1000
0001
0100
0001
1000
0100
0000
,  // measure 44
0020
0000
0000
0000
0000
0000
0000
0000
0100
0000
0000
0000
1000
0000
0000
0030
0010
0000
0000
0000
0100
0000
0000
0000
0001
0000
0000
0000
1000
0000
0000
0000
0200
0000
0000
0000
0000
0000
0000
0000
0010
0000
0000
0000
0001
0000
0000
0300
0100
0000
0000
0000
0010
0000
0000
0000
1000
0000
0000
0000
0010
0000
0000
0000
,  // measure 45
0100
0000
0001
1000
0100
0000
0010
0100
0000
1000
0001
0100
0001
1000
0100
0000
,  // measure 46
0020
0000
0130
0000
1000
0000
0001
0010
0000
0010
0001
1000
0001
0100
0010
1000
,  // measure 47
0001
0000
1000
0010
0100
0000
0001
0100
0000
0010
1000
0001
0100
0001
1000
0100
,  // measure 48
0020
0000
0000
0000
0000
0000
0000
0000
0100
0000
0000
0000
1000
0000
0000
0030
0010
0000
0000
0000
0100
0000
0000
0000
0001
0000
0000
0000
1000
0000
0000
0000
0200
0000
0000
0000
0000
0000
0000
0000
0010
0000
0000
0000
0001
0000
0000
0300
0100
0000
0000
0000
0010
0000
0000
0000
1000
0000
0000
0000
0001
0000
0000
0000
,  // measure 49
0010
0000
0100
0010
0001
0000
0010
0100
0000
1000
0010
0100
0001
1000
0001
0000
,  // measure 50
0010
0100
1000
0000
0010
0100
0001
0000
0010
0100
1000
0000
0010
0100
0001
0000
,  // measure 51
0010
0001
0100
0001
1000
0010
0100
0010
,  // measure 52
1000
0001
1000
0001
1000
0100
1000
0100
,  // measure 53
2000
0000
0001
0000
3020
0000
0000
0230
0000
0301
1000
0100
0020
0000
0030
0000
,  // measure 54
0011
0000
0002
0000
1000
0000
0023
0100
0000
0031
0100
0010
2000
0000
3000
0000
,  // measure 55
0102
0000
1000
0000
0023
0000
0000
0130
0000
1000
0001
0100
0020
0000
0000
0000
,  // measure 56
0030
0000
2010
0000
0001
0000
3100
0010
0000
0001
1000
0010
2000
0000
3000
0000
,  // measure 57
0012
0000
1000
0000
0203
0000
0000
0320
0000
1030
0001
0010
0200
0000
0300
0000
,  // measure 58
1100
0000
2000
0000
0001
0000
3200
0010
0000
1300
0010
0100
0002
0000
0003
0000
,  // measure 59
2010
0000
0001
0000
3200
0000
0000
0310
0000
0001
1000
0010
0100
0000
0001
0000
,  // measure 60
0010
0000
0100
1000
0200
0000
0310
0100
1000
0010
0100
0001
1000
0100
0020
0030
,  // measure 61
0011
0000
0001
0000
1000
0000
0010
1000
0100
0000
0010
0001
0200
0000
0000
0000
,  // measure 62
0301
0000
1000
0000
0001
0100
0000
1000
0000
0100
0010
1000
0000
0001
0000
0000
,  // measure 63
1001
0000
1000
0000
0100
0000
0010
0001
0100
0000
0010
1000
0100
0000
0010
0001
,  // measure 64
1000
0001
0100
0001
1000
0000
0100
2000
0000
0010
0000
3001
1000
0000
0010
0100
,  // measure 65
0001
0000
1000
0000
0100
0000
1000
0010
0100
0000
0001
0010
0200
0000
0000
0000
,  // measure 66
1300
0000
0010
0000
1000
0100
0000
0001
0000
0100
0000
0010
0001
1000
0000
0000
,  // measure 67
0010
0000
0100
0000
0010
0000
1000
0001
0010
0000
0001
1000
0010
1000
0001
1000
,  // measure 68
0100
0010
0001
1000
0010
0000
0100
0002
0000
0000
0000
0000
0000
0000
0003
0000
,  // measure 69
1001
0001
1000
0001
0100
0001
1000
0001
,  // measure 70
0010
0100
1000
0001
1000
0010
1000
0001
,  // measure 71
1001
1000
0010
1000
0100
1000
0001
0100
,  // measure 72
0001
0011
0000
0110
0000
1100
0000
1001
,  // measure 73
1000
0010
1000
0001
1000
0100
0010
0001
,  // measure 74
1000
0001
0100
0001
1000
0100
0010
0001
,  // measure 75
1001
1000
0010
0100
0001
0100
0010
1000
,  // measure 76
0001
0010
0100
1000
0002
0100
2000
3003
;
