#VERSION:0.83;
#TITLE:GASHATT;
#SUBTITLE:;
#ARTIST:onoken;
#TITLETRANSLIT:;
#SUBTITLETRANSLIT:;
#ARTISTTRANSLIT:;
#GENRE:;
#CREDIT:;
#MUSIC:GASHATT.ogg;
#BANNER:GASHATT.png;
#BACKGROUND:GASHATT-bg.png;
#CDTITLE:;
#SAMPLESTART:11.957;
#SAMPLELENGTH:21.943;
#SELECTABLE:YES;
#OFFSET:0.386;
#BPMS:0.000=175.000;
#STOPS:;
#BGCHANGES:;
#FGCHANGES:;

//--------------- dance-single - chronon ----------------
#NOTEDATA:;
#STEPSTYPE:dance-single;
#DESCRIPTION:chronon;
#DIFFICULTY:Beginner;
#METER:4;
#RADARVALUES:0,0,0,0,0;
#NOTES:
0000
0000
0000
0000
,
0000
0000
0000
0000
,
0000
0000
0000
0000
,
0000
0000
0000
0000
,
0000
0000
0000
0000
,
1000
0000
0000
0000
,
0001
0000
0000
0000
,
1000
0000
0001
0000
,
2000
0000
0000
3000
,
0001
0000
0010
0000
,
0010
0000
0000
0000
,
0001
0000
1000
0000
,
1000
0000
0000
0000
,
0010
0000
1000
0000
,
0001
0000
0000
0000
,
1001
0000
0000
0000
,
1001
0000
0000
0000
,
1000
0000
0100
0000
,
0100
0000
0000
0000
,
1000
0000
0001
0000
,
0001
0000
0000
0000
,
0010
0000
0001
0000
,
1000
0000
0000
0000
,
1001
0000
0000
0000
,
1001
0000
0000
0000
,
1001
0000
0000
0000
,
0000
0000
0000
0000
,
0001
0000
0001
0000
,
0010
0000
0001
0000
,
0010
0000
0001
0000
,
1000
0000
0000
0000
,
1000
0000
1000
0000
,
0010
0000
1000
0000
,
0010
0000
1000
0000
,
0001
0000
0000
0000
,
1000
0000
0100
0000
,
0010
0000
0010
0000
,
0001
0000
0001
0000
,
1000
0000
0000
0000
,
0001
0000
0100
0000
,
0010
0000
0010
0000
,
1000
0000
0001
0000
,
1000
0000
0000
0000
,
0001
0010
0000
0000
,
0010
0100
0000
0000
,
0100
1000
0000
0000
,
1000
0001
0000
0000
,
1000
0010
0000
0000
,
0010
0100
0000
0000
,
0100
0000
0001
0000
,
1000
0001
1000
0000
,
0001
0000
0010
0000
,
0100
0100
0100
0000
,
1000
0000
0001
0000
,
1000
1000
1000
0000
,
0010
0000
0100
0000
,
0001
0001
0001
0000
,
1000
0001
1000
0000
,
0002
0000
0000
0003
,
1000
0000
0001
0000
,
1000
0000
0000
0000
,
0001
0000
1000
0000
,
1000
0000
0000
0000
,
0100
0000
1000
0000
,
0001
0000
0000
0000
,
1001
0000
0000
0000
,
1001
0000
0000
0000
,
1000
0000
0010
0000
,
0010
0000
0000
0000
,
1000
0000
0001
0000
,
0001
0000
0000
0000
,
0100
0000
0001
0000
,
1000
0000
0000
0000
,
1001
0000
0000
0000
,
1001
0000
0000
0000
,
1001
0000
0000
0000
,
0000
0000
0000
0000
,
0000
0000
0000
0000
,
0000
0000
0000
0000
,
0001
0000
0000
0000
,
1000
0000
0000
0000
,
0001
0000
1000
0000
,
0001
0000
0000
0000
,
0000
0000
0000
0000
,
1000
0000
0100
0000
,
0100
0000
0000
0000
,
1000
0000
0010
0000
,
0010
0000
0000
0000
,
1000
0000
0001
0000
,
0001
0000
0000
0000
,
0010
0000
0000
0000
,
0100
0000
0000
0000
,
1000
0000
0001
0000
,
1000
0000
0010
0000
,
1000
0000
0000
0000
,
0001
0000
1000
0000
,
0001
0000
0100
0000
,
0001
0000
1000
0000
,
0001
0000
0000
0000
,
2002
3003
0000
0000
;

//--------------- dance-single - chronon ----------------
#NOTEDATA:;
#STEPSTYPE:dance-single;
#DESCRIPTION:chronon;
#DIFFICULTY:Easy;
#METER:8;
#RADARVALUES:0,0,0,0,0;
#NOTES:
0000
0000
0000
0000
,
0000
0000
0000
0000
,
0000
0000
0000
0000
,
0000
0000
0000
0000
,
0000
0000
0000
0000
,
0001
0000
0010
0000
,
0100
0000
1000
0000
,
0001
0000
1000
0000
,
0010
1000
1000
0001
,
1000
0000
0100
0000
,
0010
0100
1000
0000
,
0001
0000
0100
0000
,
0010
0100
0001
0000
,
0100
0000
1000
0000
,
0100
0000
0010
0000
,
1000
0000
0001
0000
,
1000
0001
1000
0000
,
0001
0000
0010
0000
,
0100
0010
0001
0000
,
1000
0000
0010
0000
,
0100
0010
1000
0000
,
0001
0010
0010
0000
,
0001
1000
1000
0000
,
0001
0000
0010
0000
,
0100
1000
0001
0000
,
2002
0000
0000
0000
,
0000
0000
0000
3003
,
1000
0010
0100
0002
,
0010
1000
2003
0000
,
0100
0001
3002
0000
,
0010
1000
1000
0103
,
0001
0100
0010
2000
,
0100
0001
3002
0000
,
0100
1000
2003
0000
,
0100
0001
0001
3010
,
1000
0000
0010
1000
0010
0000
0200
0000
,
0010
0001
0301
0020
,
0100
0001
0031
0200
,
0001
0001
0310
1000
,
0001
0000
0010
0001
0010
0000
0200
0000
,
0010
1000
1300
0010
,
1000
0000
0001
0000
,
0010
0010
0010
0001
,
1000
0000
0001
0000
0000
1001
0000
0000
,
0001
0000
1000
0000
0000
1001
0000
0000
,
1000
0000
0100
0000
0000
1100
0000
0000
,
0001
0000
0100
0000
0000
0101
0000
0000
,
0001
0000
0100
0000
0000
0110
0000
0000
,
1000
0000
0100
0000
0000
0110
0000
0000
,
0000
1001
0000
0000
0000
1001
0000
0000
,
0001
0010
0100
1000
,
0001
1000
0010
0100
,
0001
0000
1000
0000
0001
1000
0001
0000
,
1000
0001
0010
0100
,
1000
0000
0001
1000
0001
0000
1000
0000
,
0010
0000
0100
0000
,
0001
0000
1000
0000
,
0001
0010
0100
1000
,
0002
0000
0000
0003
,
1000
1000
0000
0000
0001
0001
0000
0000
,
1000
0100
0010
0000
,
0010
0000
0001
0000
,
1000
0001
0100
0000
,
0010
0000
0001
0000
,
0010
0100
0010
0000
,
1000
0000
0001
0000
,
0010
0010
0010
0000
,
0001
0000
0010
0000
,
0001
0010
0100
0000
,
0100
0000
1000
0000
,
0001
1000
0010
0000
,
0100
0100
0100
0000
,
0001
0001
0001
0000
,
1000
0000
0100
0000
,
0010
0001
1000
0000
,
0001
0000
0000
1000
0000
0000
0000
0000
,
0100
0000
0010
0000
,
0001
0000
0000
1000
0000
0000
0000
0000
,
0010
0000
0100
0000
,
0001
1000
0001
0000
,
0010
0100
0010
0000
,
0001
1000
0001
0100
,
0001
0000
0100
0000
,
0020
0000
0000
0030
,
2000
0010
0010
3010
,
1000
0001
0010
0000
,
0002
0010
0010
0013
,
0001
1000
0010
0000
,
1000
0010
0100
0001
,
1000
0100
0010
0001
,
0100
0000
0001
0000
,
1000
0020
0000
0030
,
1000
0000
0010
0000
0100
0010
0100
0000
,
0001
0000
1000
0000
0001
1000
0001
0000
,
1000
0000
0100
0000
0010
0100
0010
0000
,
0001
0000
0000
0000
1000
0000
0000
0010
,
0000
0100
0001
0000
,
1000
0100
0010
0001
,
1000
0001
1000
0001
1000
0000
0000
0000
,
2002
3003
0000
0000
;

//--------------- dance-single - chronon ----------------
#NOTEDATA:;
#STEPSTYPE:dance-single;
#DESCRIPTION:chronon;
#DIFFICULTY:Medium;
#METER:12;
#RADARVALUES:0,0,0,0,0;
#NOTES:
0000
0000
0000
0000
,
0000
0000
0000
0000
,
0000
0000
0000
0000
,
0000
0000
0000
0000
,
0000
0000
0000
0000
,
1000
0001
0100
0100
,
0001
0000
1000
0000
0100
0010
0100
0000
,
1000
0000
0001
0000
0010
0100
0010
0001
,
0200
0001
0001
0310
,
1000
1010
0101
1001
,
0001
0000
0010
0200
0000
1300
0001
0000
,
2000
0001
0000
3010
2000
0001
0000
3100
,
1000
0000
0100
0020
0000
0031
1000
0000
,
0001
0000
0001
0100
2000
0000
3200
0000
,
0301
0000
0100
0020
0000
1030
0001
0000
,
1001
0000
1000
0100
0010
0000
0001
0000
,
1000
0000
0001
0100
0000
0001
0010
0000
,
0001
0011
1100
1001
,
1000
0000
0010
0200
0000
0301
1000
0000
,
0002
1000
0000
0013
0002
1000
0000
0103
,
0001
0000
0100
0020
0000
1030
0100
0000
,
1000
0100
1000
0000
0001
0100
0001
0000
,
1000
0000
0010
0200
0000
0301
1000
0000
,
1001
0000
0001
0100
0010
0000
1000
0000
,
0001
0000
1000
0100
0000
1000
0010
0000
,
2000
0010
0010
0010
,
0010
0000
3010
1000
0001
0000
0010
0000
,
0011
0000
0001
0010
0001
0000
2000
0000
,
0001
0010
3001
2000
,
0001
0100
3001
0200
,
0001
0010
0302
2003
,
3010
0000
1000
0010
1000
0000
0002
0000
,
1000
0010
1003
0002
,
1000
0100
1003
0200
,
1000
0010
2300
3001
,
0101
0000
0001
0100
0010
1000
0001
0000
,
1000
0200
0010
0000
1300
0000
0001
0000
,
1000
0200
0010
0000
1300
0000
0001
0200
,
0010
0001
0320
1030
,
0010
0000
1000
0010
0100
0001
1000
0000
,
0001
0020
0100
0000
0031
0000
1000
0000
,
0001
0010
0100
0000
1000
0010
0100
0000
,
0002
0023
0230
2300
,
3100
0000
1100
0000
0000
1001
0000
0000
,
0001
0000
0101
0000
0000
1001
0000
0000
,
1000
0000
1010
0000
0000
1001
0000
0000
,
0001
0000
0011
0000
0000
1001
0000
0000
,
1000
0100
1100
0000
1000
1001
0000
0000
,
0001
0100
0101
0000
0001
1001
0000
0000
,
1000
1100
0000
0100
0010
0110
0000
0010
,
0011
1100
1010
0101
,
0001
0100
0010
0100
0001
1000
0001
0000
,
0010
0100
0010
0000
0001
1000
0001
0000
,
1000
0010
0100
0010
1000
0001
1000
0000
,
0100
0010
0100
0000
1000
0001
1000
0000
,
0001
0100
0010
1000
0001
1000
0100
0000
,
1000
0100
0010
0001
1000
0001
0100
0000
,
0001
0100
0001
0100
0010
1000
0010
1000
,
0002
0000
0000
0000
,
1003
0001
0200
0000
0301
1000
0200
0000
,
1300
0100
0010
0002
0000
1003
0001
0000
,
0200
0001
0000
0310
0200
0001
0000
0310
,
1000
0010
0100
0002
0000
1003
0001
0000
,
1000
0000
1000
0100
0002
0000
0103
0000
,
0010
0000
0100
2000
0000
3001
1000
0000
,
1001
0000
0001
0010
0100
1000
0001
0000
,
1000
0010
0100
0002
0000
0013
0001
0000
,
0011
1100
1001
1010
,
1000
0010
0100
0002
0000
1003
0001
0000
,
0020
0100
0000
0031
0020
0100
0000
0031
,
0010
0100
1000
0002
0000
0103
0001
0000
,
0100
0010
0100
0000
0001
1000
0001
0010
,
0100
0000
0010
0002
0000
1003
0001
0000
,
1001
0000
1000
0010
0100
0001
1000
0000
,
0001
0010
0100
2000
0000
3010
1000
0000
,
0001
0000
0000
0001
0000
0000
0001
0000
0000
0000
0000
0000
0010
0000
0000
0000
,
0100
1000
0001
0000
,
1000
0000
0000
1000
0000
0000
1000
0000
0000
0000
0000
0000
0010
0000
0000
0000
,
0100
0001
1000
0000
,
0001
0010
0100
0000
1000
0000
0001
0000
,
1000
0010
0100
0000
0001
0000
1000
0000
,
0001
0010
0100
0000
1000
0010
0100
0000
,
0001
0100
0010
1000
0001
0100
0010
1000
,
0001
0000
0000
0010
0000
0000
0200
0000
0000
0000
1300
0000
0001
0000
0000
0000
,
1001
0000
1000
0001
1000
0001
1000
0100
,
1000
0000
0000
0100
0000
0000
0020
0000
0000
0000
0031
0000
1000
0000
0000
0000
,
1001
0000
0001
0100
0010
0100
0001
0100
,
0001
0000
0000
0100
0000
0000
0020
0000
0000
0000
1030
0000
0001
0000
0000
0000
,
1001
0000
1000
0100
1000
0100
0010
0000
,
2000
0000
3010
0100
0010
0000
0001
0000
,
1000
0000
0001
1000
0001
0000
1000
0000
,
0001
0200
0000
0000
,
0301
0100
0010
0100
0010
0100
0001
0000
,
1000
0100
0010
0100
0010
0100
1000
0000
,
0001
1000
0001
0100
0001
0000
0100
0000
,
0010
0000
0000
0010
0000
0000
0010
0000
1000
0000
0000
1000
0000
0000
1000
0000
,
0000
0001
1000
0100
0020
0000
0031
0000
,
1000
0001
1000
0010
1000
0001
1000
0100
,
0010
0100
0010
0001
1000
0001
0000
0000
,
2002
3003
0000
0000
;

//--------------- dance-single - chronon ----------------
#NOTEDATA:;
#STEPSTYPE:dance-single;
#DESCRIPTION:chronon;
#DIFFICULTY:Hard;
#METER:16;
#RADARVALUES:0,0,0,0,0;
#NOTES:
0000
0000
0000
0000
,
0000
0000
0000
0000
,
0000
0000
0000
0000
,
0000
0000
0000
0000
,
0000
0000
0000
0000
,
1001
1000
0010
0010
,
0100
0000
0100
0000
0001
1000
0001
0010
,
0001
0000
0010
0000
0100
0000
0010
0000
0001
1000
0001
0100
0010
1000
0001
1000
,
0200
0010
0310
1001
,
0001
1000
1100
0000
0101
0000
1100
1000
,
0001
0010
0001
0200
0000
0310
0100
0002
,
1000
0000
0013
0000
0100
0000
2000
0000
0001
0000
3010
0000
1000
0000
0010
0100
,
0001
0100
0001
0020
0000
0130
0010
0001
,
1000
0000
0001
0000
0100
0000
0010
0100
2000
0000
0000
0000
3100
0010
1000
0000
,
0010
0100
0001
0020
0000
0130
1000
0100
,
0110
0000
0010
0001
1000
0010
1000
0001
,
0100
0000
0100
0010
0100
0000
1002
0000
0000
0000
0013
0000
0100
0000
1000
0000
,
0001
0010
0011
0000
1010
0000
0011
0001
,
1000
0100
1000
0020
0000
1030
0010
0200
,
0010
0000
0301
0000
1000
0000
0200
0000
0010
0000
1300
0000
0001
0000
0100
0010
,
1000
0010
1000
0200
0000
0301
0100
0010
,
0100
0010
0001
0000
0100
0010
1000
0000
0001
0000
0010
0000
0100
0000
0010
0000
,
1000
0010
0001
0200
0000
0310
1000
0010
,
0110
0000
0100
0001
1000
0100
1000
0001
,
0010
0000
0010
0100
0010
0000
1002
0000
0000
0000
0103
0000
0010
0000
1000
0000
,
2001
0100
0100
0100
,
3100
1000
0001
1000
0010
0100
0110
0000
,
1002
0000
0000
0000
0013
0000
0010
0000
0001
0010
0001
0000
0010
0000
0002
0000
,
0010
0000
1000
0000
0103
0000
0100
0002
,
0100
0000
1000
0000
0013
0000
0010
0002
,
1000
0100
0010
1003
,
2001
0000
0000
0000
3010
0000
0010
0000
1000
0010
1000
0000
0010
0000
0200
0000
,
1000
0000
0010
0000
0301
0000
0010
0200
,
0001
0000
0010
0000
1300
0000
0010
0200
,
1000
0010
0302
0013
,
0011
0000
0010
0000
0100
0000
0100
0000
1000
0100
1000
0000
0100
0000
1000
0000
,
0010
0000
0100
0010
1000
0000
0001
0000
1000
0000
0200
0000
0010
0000
1300
0000
,
0010
0000
0100
0010
1000
0000
0001
0000
1000
0000
0200
0000
0010
0000
1300
0001
,
1000
0001
0010
0001
0100
0001
1000
0010
,
1000
0000
0010
0000
0100
0000
0100
0000
0001
0100
0001
0000
0100
0000
0010
0000
,
0001
0000
0010
0100
0001
0000
1000
0000
0001
0000
0010
0000
0100
0000
0010
0000
,
1000
0000
0010
0100
1000
0000
0100
0000
0001
0000
0100
0010
0001
0000
0100
0000
,
1000
0100
0010
1000
0100
0010
0001
0010
,
0100
0000
0100
0000
1001
0000
0000
0000
0010
0000
1001
0000
0000
0000
1000
0010
,
0100
0100
1001
0000
0010
1001
0000
0001
,
0010
0000
0010
0000
1001
0000
0000
0000
0100
0000
1001
0000
0000
0000
1000
0010
,
0100
0000
0010
0000
1000
0000
0001
0000
0000
0000
1100
0000
0000
0000
1000
0100
,
0010
0000
0010
0000
1002
0000
0103
0000
0010
0000
1001
0000
1000
0000
0001
0010
,
0100
0000
0100
0000
2001
0000
3010
0000
0100
0000
1001
0000
0001
0000
0010
0100
,
1000
0000
0011
0000
0001
0000
0010
0100
1000
0000
0011
0000
0001
0000
0100
0000
,
0101
0001
1001
1000
1100
0100
0110
0010
,
0001
0000
1000
0001
1000
0000
0010
0100
0010
0000
1000
0001
1000
0000
0100
0010
,
0100
0000
1000
0001
1000
0000
0010
0100
0001
0000
1000
0000
0001
0000
0010
0000
,
0001
0000
0010
0100
1000
0000
0100
1000
0001
0000
0100
0010
1000
0000
0010
1000
,
0001
0000
0010
0100
1000
0000
0100
0000
0001
0000
0100
0000
1000
0000
0001
0000
,
1000
0010
0100
0001
1000
0010
0100
0001
,
1000
0100
0010
0001
1000
0100
0010
0001
,
1000
0100
0010
0001
1000
0100
0010
0001
1000
0010
0100
0001
1000
0010
0100
0001
,
2000
0000
0000
0000
,
3001
1000
0110
0000
1000
0001
0110
0000
,
2001
3100
1000
0020
0000
0130
0001
0200
,
0010
0000
1300
0000
0100
0000
0020
0000
0100
0000
0031
0000
0010
0000
0100
0010
,
1000
0010
1000
0200
0000
0310
0100
0010
,
0001
0000
1000
0000
0100
0000
0010
0100
0002
0000
0000
0000
0103
0010
0001
0000
,
0100
0010
1000
0200
0000
0310
0001
0010
,
0110
0000
0100
1000
0001
0100
0001
1000
,
0010
0000
0010
0100
0010
0000
2001
0000
0000
0000
3001
1000
0001
0000
1000
0000
,
0001
0000
0100
0000
0102
0000
1003
0000
2100
0000
3001
0010
0100
0000
1000
0000
,
0001
0010
0001
0200
0000
0301
0100
0020
,
0100
0000
0031
0000
0010
0000
0200
0000
0010
0000
1300
0000
0100
0000
0010
0100
,
0001
0100
0001
0020
0000
1030
0010
0100
,
0010
0100
1000
0000
0010
0100
0001
0000
1000
0000
0100
0000
0010
0000
0100
0000
,
0001
0100
1000
0020
0000
0130
0001
0100
,
0110
0000
0010
1000
0001
0010
0001
1000
,
0100
0000
0100
0010
0100
0000
2001
0000
0000
0000
3001
1000
0001
0000
1000
0000
,
1001
0000
0000
1000
0000
0000
0100
0000
0000
0000
0000
0000
0010
0000
0100
0000
,
1000
0001
1000
0020
0000
0130
0000
0000
,
0001
0000
0000
0001
0000
0000
0100
0000
0000
0000
0000
0000
0010
0000
0100
0000
,
0001
1000
0001
0020
0000
0130
0000
0100
,
1000
1000
0100
0100
0010
0010
0001
1000
,
0001
0001
0100
0100
0010
0010
1000
0001
,
1000
0100
0010
0001
0010
0100
1000
0001
1000
0010
0100
0001
0100
0010
1000
0001
,
1000
0100
0010
0000
0001
0100
0010
0000
1000
0100
0010
0000
0001
0100
0010
0000
,
0100
0000
0000
0001
0000
0000
0010
0000
0000
0000
0001
0000
0010
0000
0100
0000
,
2001
0000
3100
0100
0100
0100
0100
1000
,
0100
0000
0000
1000
0000
0000
0010
0000
0000
0000
1000
0000
0010
0000
0100
0000
,
1002
0000
0000
0000
0013
0000
0010
0000
0100
0000
1000
0000
0001
0000
1000
0001
,
0100
0000
0000
0001
0000
0000
0010
0000
0000
0000
0001
0000
0010
0000
0100
0000
,
2001
0000
3010
0100
1000
0001
0010
0100
,
2000
0000
0000
0000
3100
0010
0100
0001
1000
0001
0010
0100
1000
0100
0010
0001
,
2000
0000
3001
1000
0010
0100
0010
1000
,
0001
0020
0000
0000
,
0031
0010
0100
1000
0001
1000
0010
0000
0100
0001
1000
0000
0010
1000
0001
0000
,
1000
0010
0100
0001
1000
0001
0010
0000
0100
1000
0001
0000
0010
0001
1000
0000
,
0001
0100
0010
1000
0001
1000
0100
0000
0010
0000
0100
1000
0001
1000
0010
0100
,
0001
0100
0000
0010
0100
0000
0001
0000
1000
0100
0000
0010
0100
0000
0020
0000
,
0000
0031
0010
0000
0001
0000
0100
0000
0020
0000
0000
1030
0010
0000
1000
0000
,
0100
0010
0100
1000
0001
0000
0100
0000
0010
0100
0010
1000
0001
0000
0010
0000
,
0100
0010
0001
1000
0001
0100
0010
1000
0001
0000
0200
0000
0000
0000
0310
0000
,
2002
3003
0000
0000
;
