#VERSION:0.83;
#TITLE:GAS GAS GAS;
#SUBTITLE:;
#ARTIST:MANUEL;
#TITLETRANSLIT:;
#SUBTITLETRANSLIT:;
#ARTISTTRANSLIT:;
#GENRE:SUPER EUROBEAT;
#ORIGIN:;
#CREDIT:;
#BANNER:GAS GAS GAS.png;
#BACKGROUND:GAS GAS GAS-bg.png;
#PREVIEWVID:;
#JACKET:GAS GAS GAS-jacket.png;
#CDIMAGE:;
#DISCIMAGE:;
#LYRICSPATH:;
#CDTITLE:;
#MUSIC:GAS GAS GAS.ogg;
#OFFSET:-0.003206;
#SAMPLESTART:62.335644;
#SAMPLELENGTH:15.420000;
#SELECTABLE:YES;
#BPMS:0.000=154.000;
#STOPS:;
#DELAYS:;
#WARPS:;
#TIMESIGNATURES:0.000=4=4;
#TICKCOUNTS:0.000=4;
#COMBOS:0.000=1;
#SPEEDS:0.000=1.000=0.000=0;
#SCROLLS:0.000=1.000;
#FAKES:;
#LABELS:0.000=Song Start;
#BGCHANGES:;
#KEYSOUNDS:;
#ATTACKS:
;

//---------------dance-single - ----------------
#NOTEDATA:;
#CHARTNAME:;
#STEPSTYPE:dance-single;
#DESCRIPTION:;
#CHARTSTYLE:;
#DIFFICULTY:Challenge;
#METER:14;
#RADARVALUES:0.692259,0.749856,0.153227,0.622486,0.608121,506.000000,490.000000,16.000000,65.000000,0.000000,0.000000,0.000000,0.000000,0.000000,0.692259,0.749856,0.153227,0.622486,0.608121,506.000000,490.000000,16.000000,65.000000,0.000000,0.000000,0.000000,0.000000,0.000000;
#CREDIT:BlindedVanguard573;
#NOTES:
// measure 0
0000
0000
0000
0000
,  // measure 1
0000
0000
0000
0000
,  // measure 2
0000
0000
0000
0000
,  // measure 3
0000
0000
0000
0000
,  // measure 4
1000
1000
0100
2000
0010
0000
3001
1000
,  // measure 5
0001
0100
0010
1000
0001
0010
0100
1000
,  // measure 6
0001
0001
0100
0002
0010
0000
1003
0001
,  // measure 7
0202
0303
2002
3003
,  // measure 8
1000
0200
0302
0203
1300
0010
0100
0001
,  // measure 9
1000
0002
0013
0200
0310
0001
0100
0010
,  // measure 10
1000
0200
0310
0002
0013
0100
1000
0001
,  // measure 11
0100
0000
0020
0000
1030
0000
0200
0000
1300
0010
0000
0100
0000
0100
0001
0000
,  // measure 12
1000
0000
0000
1000
0100
0000
0000
0100
0010
0000
0000
0010
0001
0000
1000
0000
,  // measure 13
0001
0100
0001
0000
2000
0000
0000
0000
0100
0000
0000
0000
3001
0000
1000
0000
,  // measure 14
0001
0000
0100
0010
1000
0000
0001
0000
0000
0000
1000
0000
0000
0000
1200
0000
,  // measure 15
0000
0302
0000
2003
0000
3020
0000
0030
,  // measure 16
0001
0000
0100
0010
0100
0000
0000
0001
0000
0001
0000
0000
0010
0100
0000
1000
,  // measure 17
0000
0010
1000
0000
0001
1000
0000
0000
0001
0000
0010
0001
0000
1000
0001
0000
,  // measure 18
1000
0000
0100
0010
0100
0000
0000
1000
0000
1000
0000
0000
0010
0100
0000
0001
,  // measure 19
0000
0010
0001
0000
1000
0001
0000
0000
1000
0010
0000
0100
0000
0001
1000
0001
,  // measure 20
0010
0000
0100
1000
0001
0000
0000
0100
0000
0100
0000
0000
0010
1000
0000
0001
,  // measure 21
0000
1000
0100
0000
1000
0001
0000
0000
0010
0000
0001
1000
0000
0001
0100
0000
,  // measure 22
0010
0000
1000
0001
0010
0000
0100
1000
0000
0001
0000
1000
0001
0100
0010
1000
,  // measure 23
0002
0003
2000
3000
,  // measure 24
0001
0010
0100
0001
0100
1000
0001
0010
,  // measure 25
0001
0100
0010
1000
0100
0001
0200
0000
,  // measure 26
1300
0000
0010
0000
0100
0000
1000
0000
0100
0010
0100
0000
0010
1000
0010
0000
,  // measure 27
2000
3001
0011
1100
,  // measure 28
1000
0010
0100
1000
0100
0001
1000
0010
,  // measure 29
1000
0100
0010
0001
0100
1000
0200
0000
,  // measure 30
0301
0010
0100
0001
0100
1000
0010
1000
,  // measure 31
0001
0010
0100
1000
0001
0000
0000
0000
1000
0010
0100
0001
1000
0000
0000
0000
,  // measure 32
0001
0000
0000
0001
0000
0000
1000
0000
0000
1000
0000
0000
0001
0000
0010
0000
,  // measure 33
2000
3002
0203
1300
,  // measure 34
0001
0000
0000
0001
0000
0000
1000
0000
0000
1000
0000
0000
0010
0000
0100
0000
,  // measure 35
0001
0000
0000
0001
0000
0000
1000
0000
0000
1000
0000
0000
0100
0000
0010
0000
,  // measure 36
0012
0103
2010
3200
,  // measure 37
0302
0103
1000
0001
,  // measure 38
1000
0000
0010
0000
0100
0000
0001
0000
1000
0000
0100
0010
0100
0010
0001
0000
,  // measure 39
0000
0101
0000
1010
0000
2002
0000
3003
,  // measure 40
2000
0100
3001
2000
0010
0001
3100
2000
,  // measure 41
3001
0000
0100
0010
1000
0000
0001
0000
1000
0100
1000
0100
0020
0000
0030
0000
,  // measure 42
0001
0100
0020
0230
0301
0010
0200
0320
,  // measure 43
0031
0100
0010
0100
0001
0000
1000
0000
0001
0010
0100
0010
0001
0000
1000
0000
,  // measure 44
0002
0100
1003
0002
0010
1000
0103
0002
,  // measure 45
1003
0100
0010
2000
0000
3010
0002
0000
,  // measure 46
1003
0000
0010
0100
0001
0000
1000
0000
0010
0100
0001
0000
1000
0000
0100
0010
,  // measure 47
0001
0100
0001
0000
1000
0010
1000
0000
0001
0010
0001
0000
1000
0100
1000
0000
,  // measure 48
0002
0100
1003
0002
0010
1000
0103
0002
,  // measure 49
1003
0000
0100
0010
0001
0000
1000
0000
0001
0100
0010
1000
0002
0000
0003
0000
,  // measure 50
1000
0100
0020
0230
1300
0010
0200
0320
,  // measure 51
1030
0100
0010
0001
1000
0000
0001
0000
1000
0010
0100
0001
1000
0000
0001
0000
,  // measure 52
2000
0100
3001
2000
0010
0001
3100
2000
,  // measure 53
3001
0000
0100
0000
0010
0000
0001
0000
0010
0000
1000
0100
0010
0100
1000
0000
,  // measure 54
0000
1010
0000
0101
0000
0011
0000
1100
,  // measure 55
2002
3003
0220
0330
,  // measure 56
0001
0000
0010
0100
1000
0000
0010
1000
0000
0001
1000
0000
0100
0010
0000
0001
,  // measure 57
0000
0100
0001
0000
1000
0001
0000
1000
0010
0000
1000
0001
0000
1000
0100
0010
,  // measure 58
0001
0000
0100
0010
1000
0000
0100
1000
0000
0001
1000
0000
0010
0100
0000
0001
,  // measure 59
0000
0010
0001
0000
1000
0001
0000
1000
0100
0000
1000
0001
0000
1000
0010
0100
,  // measure 60
0001
0000
1000
0100
0010
0000
0001
0100
0000
0001
1000
0000
0001
0010
0000
0100
,  // measure 61
0000
1000
0010
0000
0100
0001
0000
1000
0100
0000
0010
0001
0000
1000
0010
0100
,  // measure 62
0001
0000
1000
0100
0010
0000
0100
1000
0000
0001
0000
1000
0010
0100
0001
0010
,  // measure 63
0200
0300
0020
0030
,  // measure 64
0001
0100
0001
1000
0010
1000
0010
1000
0100
1000
0100
0010
0001
0010
0001
1000
,  // measure 65
0002
0003
0000
0000
;

//---------------dance-single - ----------------
#NOTEDATA:;
#CHARTNAME:;
#STEPSTYPE:dance-single;
#DESCRIPTION:;
#CHARTSTYLE:;
#DIFFICULTY:Hard;
#METER:12;
#RADARVALUES:0.537664,0.562392,0.287301,0.411799,0.201111,393.000000,363.000000,30.000000,43.000000,0.000000,0.000000,0.000000,0.000000,0.000000,0.537664,0.562392,0.287301,0.411799,0.201111,393.000000,363.000000,30.000000,43.000000,0.000000,0.000000,0.000000,0.000000,0.000000;
#CREDIT:BlindedVanguard573;
#NOTES:
// measure 0
0000
0000
0000
0000
,  // measure 1
0000
0000
0000
0000
,  // measure 2
0000
0000
0000
0000
,  // measure 3
0000
0000
0000
0000
,  // measure 4
0001
0100
0001
1000
0001
0000
1001
0000
,  // measure 5
1000
0010
0010
0100
0001
0001
1000
0001
,  // measure 6
1000
0100
1000
0001
1000
0000
0001
0100
,  // measure 7
0202
0303
2020
3030
,  // measure 8
1000
0100
0001
0100
0000
0010
0000
0001
,  // measure 9
0000
0101
0000
2010
0000
0010
0000
3001
,  // measure 10
0000
0011
0000
2100
0000
0100
0000
3001
,  // measure 11
0000
0101
0000
2010
0000
0010
0000
3001
,  // measure 12
1000
0000
0100
0000
0001
0000
0100
0100
,  // measure 13
0000
0010
0020
0000
0000
0000
0130
0000
,  // measure 14
1000
0000
0010
0010
0000
0100
0000
0001
,  // measure 15
0000
0010
0000
1000
0000
0020
0000
0030
,  // measure 16
0001
0000
0100
0000
0010
0000
0000
1000
0000
1000
0000
0000
0100
0000
0000
0010
,  // measure 17
0000
0000
0010
0000
0000
0010
0000
0000
0001
0000
0000
0001
0000
0000
0100
0000
,  // measure 18
0010
0000
1000
0000
0001
0000
0000
1000
0000
1000
0000
0000
0100
0000
0000
1000
,  // measure 19
0000
0001
0000
0000
0001
0000
0000
0000
0100
0000
0000
0100
0000
0000
0010
0000
,  // measure 20
1000
0000
0100
0000
0010
0000
0000
0001
0000
0001
0000
0000
0100
0000
0000
0010
,  // measure 21
0000
0000
0010
0000
0000
0010
0000
0000
1000
0000
0000
1000
0000
0000
0100
0000
,  // measure 22
0010
0000
0001
0000
1000
0000
0001
0000
0000
0100
0000
0000
0010
0000
1000
0000
,  // measure 23
2200
3300
0022
0033
,  // measure 24
1001
0000
1001
0000
0001
0100
0010
0100
,  // measure 25
0001
0010
0100
0010
0001
0100
1000
0100
,  // measure 26
0000
0100
0010
1000
0000
1000
0100
0020
,  // measure 27
0001
1030
1010
0011
,  // measure 28
1001
0000
1001
0000
1000
0100
0010
0100
,  // measure 29
1000
0010
0100
0010
1000
0100
0001
0100
,  // measure 30
0000
0010
0001
0100
0010
1000
0100
0000
,  // measure 31
1000
0001
0101
0000
0001
1000
1100
0000
,  // measure 32
1001
0000
0001
0100
0010
0100
0000
0100
,  // measure 33
0001
0000
1000
0100
0001
0100
1000
0000
,  // measure 34
0001
0000
1000
0010
0100
0010
0000
1000
,  // measure 35
0000
0001
0010
1000
0000
0020
0000
0031
,  // measure 36
1000
0010
0100
0100
0001
0100
0010
0010
,  // measure 37
0000
1000
0001
0200
0000
0010
0310
0000
,  // measure 38
1000
0100
0010
0001
1000
0010
0100
0001
,  // measure 39
0000
0101
0000
1010
0000
2002
0000
3003
,  // measure 40
2000
0000
3100
0020
0100
0000
0031
2000
,  // measure 41
3001
1000
0010
0001
0010
1000
0100
0010
,  // measure 42
0001
0000
2000
0010
3001
0000
0002
0010
,  // measure 43
1003
0001
0010
0100
0001
0100
0010
0000
,  // measure 44
0002
0000
0103
0020
0100
0000
1030
0002
,  // measure 45
1003
0001
0010
1000
0010
0001
0100
0010
,  // measure 46
0000
1000
0001
0010
0000
0100
0000
2000
,  // measure 47
0000
0100
0000
3002
0000
0100
0000
1003
,  // measure 48
2010
0000
3100
0020
0100
0000
0031
2000
,  // measure 49
3001
1000
0010
0001
0010
1000
0100
0001
,  // measure 50
0100
0000
2000
0010
3001
0000
0002
0010
,  // measure 51
1003
0001
0010
0100
0001
0100
0010
0000
,  // measure 52
0012
0000
0103
0020
0100
0000
1030
0002
,  // measure 53
1003
0001
0010
1000
0010
0001
0100
1000
,  // measure 54
0000
1100
0000
0101
0000
1001
0000
0001
,  // measure 55
2000
3000
0002
0003
,  // measure 56
1000
0000
0010
0000
0100
0000
0000
0001
0000
0001
0000
0000
0010
0001
0000
0100
,  // measure 57
0000
0000
0100
0000
0000
0100
0000
0000
0010
0000
1000
0010
0000
1000
0001
0000
,  // measure 58
1000
0000
0100
0000
0010
0000
0000
0001
0000
0001
0000
0000
0100
0001
0000
0010
,  // measure 59
0000
0100
1000
0000
0100
1000
0000
0000
0001
0100
0000
0001
0000
1000
0010
0000
,  // measure 60
1000
0000
0010
0000
0100
0000
0000
0001
0000
0001
0000
0000
0010
0001
0000
0100
,  // measure 61
0000
0000
0100
0000
0000
0100
0000
0000
0010
0000
1000
0010
0000
1000
0001
0000
,  // measure 62
1000
0000
0100
0000
0010
0000
0001
0100
0000
0010
0000
1000
0001
0000
1000
0000
,  // measure 63
2200
3300
0022
0033
,  // measure 64
0001
0100
0010
0100
1000
0100
0001
1000
,  // measure 65
0002
0003
0000
0000
;

//---------------dance-single - ----------------
#NOTEDATA:;
#CHARTNAME:;
#STEPSTYPE:dance-single;
#DESCRIPTION:;
#CHARTSTYLE:;
#DIFFICULTY:Medium;
#METER:10;
#RADARVALUES:0.439161,0.499904,0.229841,0.134074,0.000000,321.000000,297.000000,24.000000,14.000000,0.000000,0.000000,0.000000,0.000000,0.000000,0.439161,0.499904,0.229841,0.134074,0.000000,321.000000,297.000000,24.000000,14.000000,0.000000,0.000000,0.000000,0.000000,0.000000;
#CREDIT:BlindedVanguard573;
#NOTES:
// measure 0
0000
0000
0000
0000
,  // measure 1
0000
0000
0000
0000
,  // measure 2
0000
0000
0000
0000
,  // measure 3
0000
0000
0000
0000
,  // measure 4
1000
0100
1000
0100
0000
0000
0010
0000
,  // measure 5
0001
0100
1000
0100
,  // measure 6
0001
0010
0001
0010
0000
0000
0100
0000
,  // measure 7
1001
0000
0110
0000
,  // measure 8
1000
0010
1000
0010
0000
0100
0000
0001
,  // measure 9
0000
1000
0000
0100
0000
0010
0000
0001
,  // measure 10
0000
1000
0000
0010
0000
0100
0000
0001
,  // measure 11
0000
1000
0000
0100
0000
0010
0000
0001
,  // measure 12
1000
0000
0010
0000
0100
0000
0001
0001
,  // measure 13
0000
1000
2000
0000
0000
0000
3001
0000
,  // measure 14
1000
0000
0100
0100
0000
0001
0000
0100
,  // measure 15
0000
0010
0000
0001
0000
2000
0000
3000
,  // measure 16
0001
0100
0001
0000
1000
0010
1000
0000
,  // measure 17
0001
0010
0001
0000
1000
0100
1000
0001
,  // measure 18
1000
0010
1000
0000
0001
0100
0001
0000
,  // measure 19
1000
0100
1000
0000
0001
0010
0001
1000
,  // measure 20
0001
0100
0010
0000
1000
0010
0100
0000
,  // measure 21
0001
0010
0100
0000
1000
0100
0010
0001
,  // measure 22
1000
0010
0100
0000
0001
0100
0010
1000
,  // measure 23
0002
0003
2000
3000
,  // measure 24
1001
1001
0001
0100
,  // measure 25
0010
0000
0100
0000
0001
1000
0001
0000
,  // measure 26
1000
0100
0010
0100
,  // measure 27
2000
0010
3002
0010
,  // measure 28
1003
1001
0001
0100
,  // measure 29
0010
0000
0100
0000
0001
0010
0100
0000
,  // measure 30
1000
0010
0100
0001
,  // measure 31
0010
0010
0010
0000
0100
0100
0100
0000
,  // measure 32
1000
0010
0001
0010
,  // measure 33
0100
0100
0001
0001
,  // measure 34
1000
0100
0001
0100
,  // measure 35
0010
0001
1000
0100
,  // measure 36
1000
0010
1000
0000
0001
0010
0001
0000
,  // measure 37
1000
0010
0001
0010
,  // measure 38
0100
0000
0001
0000
1000
0000
0100
0100
,  // measure 39
0000
0010
0000
0001
0000
1000
0000
0000
,  // measure 40
0101
0000
0000
1010
0000
0000
0000
1001
,  // measure 41
0000
1000
0100
1000
0100
1000
0010
1000
,  // measure 42
0000
0000
0001
0010
0000
0000
0100
1000
,  // measure 43
0000
0001
0100
0001
1000
0010
1000
0000
,  // measure 44
1100
0000
0000
0011
0000
0000
0000
1001
,  // measure 45
0000
0001
0100
0001
0100
0010
0100
0001
,  // measure 46
0000
1000
0100
0010
0000
0100
0000
2000
,  // measure 47
0000
0100
0000
3002
0000
0100
0000
1003
,  // measure 48
1010
0000
0000
0101
0000
0000
0000
1001
,  // measure 49
0000
1000
0100
0010
0001
0010
0100
1000
,  // measure 50
0000
0000
0001
0100
0000
0000
0010
1000
,  // measure 51
0000
0001
0010
0100
1000
0100
0010
0000
,  // measure 52
0011
0000
0000
1100
0000
0000
0000
1001
,  // measure 53
0000
0001
0100
0010
1000
0010
0100
0001
,  // measure 54
0000
0101
0000
1000
0000
1100
0000
1000
,  // measure 55
0002
0003
2000
3000
,  // measure 56
0001
0100
0010
0000
0100
0010
1000
0000
,  // measure 57
0010
1000
0001
0000
1000
0100
0010
0001
,  // measure 58
1000
0010
0100
0000
0010
0100
0001
0000
,  // measure 59
0100
0001
1000
0000
0001
0010
0100
1000
,  // measure 60
0001
0100
0010
0000
1000
0010
0100
0000
,  // measure 61
0001
0010
0100
0000
1000
0100
0010
0001
,  // measure 62
0100
0010
1000
0001
0010
0100
1000
0001
,  // measure 63
0200
0300
0020
0030
,  // measure 64
1010
0101
0011
1100
,  // measure 65
2002
3003
0000
0000
;

//---------------dance-single - ----------------
#NOTEDATA:;
#CHARTNAME:;
#STEPSTYPE:dance-single;
#DESCRIPTION:;
#CHARTSTYLE:;
#DIFFICULTY:Easy;
#METER:6;
#RADARVALUES:0.311927,0.312440,0.057460,0.086190,0.000000,228.000000,222.000000,6.000000,9.000000,0.000000,0.000000,0.000000,0.000000,0.000000,0.311927,0.312440,0.057460,0.086190,0.000000,228.000000,222.000000,6.000000,9.000000,0.000000,0.000000,0.000000,0.000000,0.000000;
#CREDIT:BlindedVanguard573;
#NOTES:
// measure 0
0000
0000
0000
0000
,  // measure 1
0000
0000
0000
0000
,  // measure 2
0000
0000
0000
0000
,  // measure 3
0000
0000
0000
0000
,  // measure 4
1000
1000
0000
0001
,  // measure 5
0100
0010
0100
0001
,  // measure 6
0010
0010
0000
0100
,  // measure 7
1001
0000
1001
0000
,  // measure 8
0001
0100
0100
0010
,  // measure 9
0100
0001
0001
0010
,  // measure 10
0100
1000
1000
0010
,  // measure 11
0100
0001
0001
1000
,  // measure 12
0001
0001
0010
0010
,  // measure 13
0100
2000
3000
1000
,  // measure 14
0010
0100
0010
0100
,  // measure 15
0001
1000
0001
1000
,  // measure 16
0001
0000
0010
0000
,  // measure 17
0100
0100
1000
1000
,  // measure 18
0001
0000
0100
0000
,  // measure 19
0010
0010
1000
1000
,  // measure 20
0001
0000
0010
0000
,  // measure 21
0100
0100
1000
1000
,  // measure 22
0001
0100
0010
1000
,  // measure 23
0002
0003
2000
3000
,  // measure 24
0001
0010
0100
0010
,  // measure 25
0001
1000
0100
0000
,  // measure 26
1000
0010
0001
0010
,  // measure 27
2000
3000
0002
0003
,  // measure 28
1000
0100
0010
0100
,  // measure 29
1000
0001
0100
0000
,  // measure 30
0010
0100
0001
1000
,  // measure 31
0100
0100
0010
0010
,  // measure 32
0001
0100
0010
0100
,  // measure 33
0001
0001
1000
1000
,  // measure 34
0100
0010
0100
1000
,  // measure 35
0001
0100
0010
1000
,  // measure 36
0001
0001
0010
0010
,  // measure 37
1000
0010
0001
1000
,  // measure 38
0001
0100
0010
1000
,  // measure 39
0000
0100
0000
0010
0000
0001
0000
0000
,  // measure 40
1000
0010
1000
0100
,  // measure 41
1000
0001
0010
0100
,  // measure 42
1000
0001
0001
0100
,  // measure 43
0100
0010
1000
0001
,  // measure 44
1000
0100
1000
0001
,  // measure 45
1000
0010
0100
0001
,  // measure 46
1000
0100
0010
0001
,  // measure 47
1000
0001
1000
1001
,  // measure 48
0001
0100
0001
1000
,  // measure 49
0001
0010
0100
1000
,  // measure 50
0001
0001
0100
0100
,  // measure 51
0010
1000
0001
1000
,  // measure 52
0001
0010
0001
0100
,  // measure 53
0001
1000
0100
0010
,  // measure 54
0000
0001
0000
0001
0000
0001
0000
0000
,  // measure 55
1001
0000
1001
0000
,  // measure 56
0001
0100
0010
0100
,  // measure 57
0001
1000
0100
0010
,  // measure 58
0001
0010
0100
0010
,  // measure 59
0001
0100
0010
1000
,  // measure 60
0001
0010
1000
0010
,  // measure 61
0001
0100
0010
1000
,  // measure 62
0001
0100
1000
0100
,  // measure 63
0002
0003
2000
3000
,  // measure 64
0010
0010
0010
0010
,  // measure 65
2002
3003
0000
0000
;

//---------------dance-single - ----------------
#NOTEDATA:;
#CHARTNAME:;
#STEPSTYPE:dance-single;
#DESCRIPTION:;
#CHARTSTYLE:;
#DIFFICULTY:Beginner;
#METER:3;
#RADARVALUES:0.210688,0.248994,0.057460,0.000000,0.000000,154.000000,148.000000,6.000000,0.000000,0.000000,0.000000,0.000000,0.000000,0.000000,0.210688,0.248994,0.057460,0.000000,0.000000,154.000000,148.000000,6.000000,0.000000,0.000000,0.000000,0.000000,0.000000,0.000000;
#CREDIT:BlindedVanguard573;
#NOTES:
// measure 0
0000
0000
0000
0000
,  // measure 1
0000
0000
0000
0000
,  // measure 2
0000
0000
0000
0000
,  // measure 3
0000
0000
0000
0000
,  // measure 4
1000
1000
0000
0000
,  // measure 5
0001
0000
0010
0000
,  // measure 6
0100
0100
0000
0000
,  // measure 7
1001
0000
0000
0000
,  // measure 8
0000
0001
0001
0000
,  // measure 9
0000
0010
0010
0000
,  // measure 10
0000
0100
0100
0000
,  // measure 11
0000
1000
1000
0000
,  // measure 12
0001
0000
0100
0000
,  // measure 13
0010
0010
0000
0000
,  // measure 14
0100
0000
0001
0000
,  // measure 15
1000
1000
1000
0000
,  // measure 16
0001
0000
0010
0000
,  // measure 17
0100
0000
1000
1000
,  // measure 18
1000
0000
0010
0000
,  // measure 19
0100
0000
0001
0001
,  // measure 20
0001
0000
1000
0000
,  // measure 21
0100
0000
0010
0010
,  // measure 22
0010
0000
0100
0000
,  // measure 23
1001
0000
1001
0000
,  // measure 24
0001
0000
0100
0000
,  // measure 25
0010
0010
0010
0000
,  // measure 26
0100
0000
0001
0000
,  // measure 27
1000
0000
0100
0000
,  // measure 28
0010
0000
0100
0000
,  // measure 29
1000
1000
1000
0000
,  // measure 30
0001
0000
0100
0000
,  // measure 31
0010
0010
0010
0010
,  // measure 32
0010
0000
0100
0000
,  // measure 33
0001
0001
0001
0000
,  // measure 34
0010
0000
0100
0000
,  // measure 35
1000
1000
1000
0000
,  // measure 36
0001
0001
0001
0000
,  // measure 37
1000
1000
1000
0000
,  // measure 38
0010
0000
0100
0000
,  // measure 39
0001
0001
0001
0001
,  // measure 40
0001
0000
0010
0000
,  // measure 41
0100
0000
1000
1000
,  // measure 42
1000
0000
0010
0000
,  // measure 43
0100
0100
0100
0000
,  // measure 44
0010
0000
1000
0000
,  // measure 45
0001
0000
0010
0010
,  // measure 46
0010
0000
0100
0000
,  // measure 47
0010
0000
1001
0000
,  // measure 48
0001
0000
0100
0000
,  // measure 49
0010
0000
1000
1000
,  // measure 50
1000
0000
0100
0000
,  // measure 51
0001
0001
0001
0000
,  // measure 52
0100
0000
0010
0000
,  // measure 53
0001
0000
1000
1000
,  // measure 54
1000
0000
0010
0000
,  // measure 55
0100
0000
1001
0000
,  // measure 56
0001
0001
0001
0000
,  // measure 57
0010
0000
0100
0000
,  // measure 58
1000
1000
1000
0000
,  // measure 59
0010
0000
0100
0000
,  // measure 60
0001
0001
0001
0000
,  // measure 61
1000
0000
0100
0000
,  // measure 62
0010
0010
0010
0000
,  // measure 63
0100
0000
1001
0000
,  // measure 64
1000
1000
1000
1000
,  // measure 65
1000
0000
0000
0000
;
