#TITLE:GALAXY bREAkER;
#SUBTITLE:;
#ARTIST:KS -Evolved-;
#TITLETRANSLIT:;
#SUBTITLETRANSLIT:;
#ARTISTTRANSLIT:;
#GENRE:BROKEN RECORD;
#CREDIT:;
#MUSIC:GALAXY bREAkER.ogg;
#BANNER:GALAXY bREAkER.png;
#BACKGROUND:GALAXY bREAkER-bg.png;
#CDTITLE:cdtitle.png;
#SAMPLESTART:35.124;
#SAMPLELENGTH:10.000;
#SELECTABLE:YES;
#OFFSET:0.000;
#BPMS:0.000=132.000
,32.000=126.000
,34.000=123.000
,36.000=117.000
,38.000=112.000
,40.000=102.000
,42.000=91.200
,43.000=92.300
,44.000=164.000
,60.000=328.000
,60.500=164.000
,60.750=82.000
,61.000=164.000
,142.000=328.000
,142.500=164.000
,142.750=82.000
,143.000=328.000
,143.500=164.000
,143.750=82.000
,144.000=328.000
,144.500=164.000
,144.750=82.000
,145.000=164.000
,149.000=78.000
,157.000=82.000
,165.000=164.000
,181.000=170.000
,193.000=142.000
,194.000=110.000
,195.000=102.000
,196.000=85.600
,197.000=62.000
,199.000=163.600
,207.000=164.000
,231.000=167.000
,255.000=250.500
,258.000=334.000
,258.500=167.000
,258.750=83.500
,259.000=167.000
;
#STOPS:44.000=1.996
,255.000=0.040
,255.333=0.040
,255.667=0.040
,256.000=0.040
,256.333=0.040
,256.667=0.040
,257.000=0.040
,257.333=0.040
,257.667=0.040
;
#DISPLAYBPM:62.000:170.000;
#BGCHANGES:35.796=GALAXY bREAkER.avi=1.000=0=0=1===CrossFade_Fastest==,
263.000=GALAXY bREAkER-bg.png=1.000=0=0=1,
99999.000=-nosongbg-=1.000=0=0=0=StretchNoLoop====
;
#FGCHANGES:;

//--------------- dance-single - KAYSTAR ----------------
#NOTES:
     dance-single:
     KAYSTAR:
     Beginner:
     3:
     0,0,0,0,0:
0000
0000
0000
0000
,
0000
0000
0000
0000
,
0000
0000
0000
0000
,
0000
0000
0000
0000
,
0000
0000
0000
0000
,
0000
2000
3000
0000
,
0001
0001
0000
0000
,
0000
0200
0300
0000
,
0010
0010
0010
0000
,
2000
0000
3000
0000
,
0002
0000
0003
0000
,
1001
0000
0000
0000
,
0000
0000
0000
0000
,
0000
0020
0030
0200
,
0300
0020
0030
0000
,
0000
0000
0000
0000
,
0001
0000
0001
0000
,
0000
0000
1000
0000
,
1000
0000
0000
0000
,
0000
0100
0000
0100
,
0100
0000
0010
0000
,
0010
0000
0001
0000
,
0001
0000
0000
1000
,
1000
0000
0000
0010
,
0010
0000
0100
0000
,
0100
0000
0001
0000
,
0001
0000
1000
1000
,
1000
0000
0010
0000
,
0100
0000
0010
0000
,
0100
0000
0001
0000
,
1000
0000
0001
0000
,
1000
0000
0100
0100
,
0000
0000
0010
0010
,
0000
0002
0003
2000
,
3000
0002
0003
0000
,
0000
0000
0200
0000
,
0000
0300
0000
0000
,
0010
0020
0000
0000
,
0030
0000
0000
0000
,
1000
2000
0000
3000
,
0001
0002
0000
0003
,
0000
0020
0000
0030
,
0000
0001
0000
0001
,
0000
0200
0000
0300
,
0000
0010
0000
0010
,
0000
1000
1000
1000
,
0000
0001
0001
0001
,
0000
0010
0000
0010
,
0000
2002
0000
0000
,
0000
3003
0000
0000
,
0000
1000
1000
0000
,
0000
0001
0001
0000
,
0010
0000
0010
0010
,
0000
0100
0100
0000
,
1000
0000
1000
0000
,
0001
0000
0001
0000
,
0100
0100
0000
0010
,
0010
0010
0000
1000
,
0000
0100
0000
1000
,
0000
0001
0000
0100
,
0000
0001
0000
0010
,
0010
0010
0000
0001
,
0000
0100
0000
0001
,
0000
1000
0000
0200
,
0000
0000
0300
0000
,
0000
0010
0010
0020
,
0000
0000
0000
0000
,
0000
0000
0000
0030
;

//--------------- dance-single - KAYSTAR ----------------
#NOTES:
     dance-single:
     KAYSTAR:
     Easy:
     7:
     0,0,0,0,0:
0000
0000
0000
0000
,
0000
0000
0000
0000
,
0000
0000
0000
0000
,
0000
0000
0000
0000
,
0000
0000
0000
0000
,
1000
1000
0000
0001
,
0001
0000
0010
0000
,
0001
0001
0000
1000
,
1000
0000
0010
0000
,
0200
0000
0300
0000
,
0002
0000
0003
1000
,
2002
0000
0000
0000
,
0000
3003
0000
0000
,
0000
2000
3000
0200
,
0300
0020
0030
0002
,
0003
0000
1000
0000
,
1000
0000
0001
0200
,
0320
0030
1000
0000
,
1000
0002
0000
0013
,
0100
1000
0000
0010
,
0010
1000
0001
0020
,
0230
1300
0000
0001
,
0100
1000
0100
0010
,
0010
1000
0000
0100
,
0100
1000
0001
0200
,
0320
1030
0000
0001
,
0010
1000
0010
0100
,
0100
0000
1000
0000
,
1000
0000
0001
0100
,
0100
0000
0010
0000
,
0010
0000
1000
0001
,
0001
0000
0010
0100
,
1000
0000
0010
0100
,
0001
0020
0030
0002
,
0003
2000
3000
0000
,
0000
0000
0020
0000
,
0000
0030
1000
0100
,
0020
0031
0000
0000
,
0000
0000
0000
0000
,
1000
0010
0200
0000
0000
0000
0300
0001
,
0010
0100
2000
0000
0000
0000
3001
0000
,
1000
0020
0000
0000
,
0030
0010
1000
0001
,
0010
0200
0000
0000
,
0300
0100
1000
0001
,
0100
0010
0010
1000
,
0001
0010
0010
0001
,
1000
0200
0000
0310
,
0001
2002
0000
0000
,
0000
3003
0000
0000
,
0000
1000
1000
0001
,
0000
0100
0100
0010
,
1000
0100
0010
0001
,
0000
1000
1000
0001
,
0001
0200
0320
1030
,
0100
0010
0001
1000
,
1000
0020
0230
0301
,
0000
2002
3003
1000
,
0010
1000
0100
1000
,
0001
0010
0001
0100
,
0001
1000
0100
0010
,
0010
0010
0000
0001
,
0010
0100
1000
0010
,
0100
0001
0000
2000
,
0000
0000
3000
1000
,
0100
0010
0001
0200
,
0000
0000
0000
0000
,
0000
0000
0000
0300
;

//--------------- dance-single - KAYSTAR ----------------
#NOTES:
     dance-single:
     KAYSTAR:
     Medium:
     12:
     0,0,0,0,0:
0000
0000
0000
0000
,
0000
0000
0000
0000
,
0000
0000
0000
0000
,
0000
0000
0000
0000
,
0000
0000
0000
0000
,
1000
0000
1100
0000
0100
1000
0001
0000
,
0100
0010
0100
0001
0000
0010
0100
1000
,
0001
0000
0101
0000
0100
0001
1000
0000
,
0010
0100
0010
1000
0100
0001
0100
1000
,
0002
0023
0230
0300
,
2000
3020
0230
0300
,
2002
0000
0000
0000
,
0000
3003
0000
0000
,
0000
0002
0003
2000
,
3000
0000
0002
0000
0003
0000
0100
0100
,
0002
0003
0000
0000
1001
0000
0000
0000
0000
0000
0000
0000
0000
0000
1000
0000
,
0100
0000
1000
1000
0001
0000
0000
0100
,
0001
0000
0100
0100
0010
0000
0000
1000
,
0001
0000
0020
0000
0230
0000
1300
0010
,
0100
0001
1001
0000
1000
0001
0010
0001
,
0100
0000
0010
0010
1000
1000
0001
0100
,
0010
0000
0110
0000
0100
0001
1000
0100
,
0010
0001
0000
1000
0010
1000
0100
1000
,
0001
0000
1001
0000
1000
0001
0100
0001
,
0010
0000
0100
0100
1000
1000
0001
0010
,
0100
0000
0110
0000
0010
0001
0100
0010
,
1000
0100
0010
0000
0001
0001
1000
1000
,
0020
0000
0130
0001
0100
0010
1000
0100
,
0001
0100
1000
0000
0010
0100
0001
0000
,
1001
0000
0000
1000
0100
0010
0001
0100
,
1000
0100
0001
0000
0010
0100
1000
0000
,
1001
0000
0001
0100
0010
0100
0001
1000
,
0100
0010
0001
1000
0010
0100
0010
1000
,
0001
0000
0000
1000
0000
0000
0001
0000
0000
0000
0000
0000
0010
0000
0000
0100
0000
0000
1000
0000
0000
0000
1000
0000
,
0001
0000
0001
0100
0000
0100
0010
0000
0000
0000
0000
0000
,
0000
0000
0000
0000
0000
0000
0000
0000
2002
3003
0000
0000
2002
3003
0000
0000
,
2002
3003
0000
0000
1000
0000
0000
0000
0010
0000
0000
0000
0100
0000
0001
0000
,
0010
0100
1000
0000
0000
0000
0000
0000
,
0000
0000
0000
0000
0001
0000
0010
0001
0010
0000
0100
0000
1000
0100
1000
0000
,
0010
0000
1000
0010
1000
0000
0001
0000
0010
0001
1000
0000
0001
0000
0010
0001
,
1000
0000
1000
0000
0100
1000
0001
0000
1000
0000
0100
1000
0001
0000
1000
0000
,
0010
0100
0001
0000
2000
0000
3000
0000
0100
0000
0001
0000
0000
0000
0100
0000
,
0110
0000
0010
0001
1000
0000
0010
1000
,
0001
0000
1000
0000
0010
0001
0000
0010
,
0110
0000
0100
0001
1000
0000
0100
0010
,
0001
0000
1000
0010
1000
0010
0100
0001
,
0010
0100
1000
0001
0100
0001
0100
0010
,
1000
0001
0020
0000
0000
0000
1000
0000
,
0001
0200
0000
0000
,
0000
0330
0000
1001
,
0001
0100
0010
0000
0110
0000
1001
0000
,
1000
0100
0010
0000
0110
0000
1001
0001
,
0100
0010
1000
0100
0010
0000
0002
0000
,
0103
0001
1000
0100
1000
0000
0010
0100
,
0001
0100
0010
1000
0100
0000
0001
0100
,
1000
0010
0100
0001
0010
0000
0001
1000
,
0100
1000
0001
0100
1000
0000
0100
0000
,
0101
0000
1010
0000
1001
0000
1000
0100
,
0001
0100
1000
0001
0010
0000
0001
0100
,
1000
0100
0001
1000
0010
0000
1000
0100
,
0010
0001
1000
0010
0100
0001
0011
0000
,
1001
0000
1010
0000
2002
3003
1000
0010
,
0001
0010
1000
0001
0100
0000
0001
0010
,
1000
0000
0000
0010
0000
0000
0001
0000
0000
0000
0000
0000
0000
0000
0000
0000
0000
0000
1000
0000
0100
0000
1000
0000
,
0100
0010
0100
0010
0001
0010
0002
0000
0000
1003
0000
0000
,
0100
0010
0001
0100
1000
0100
0020
0000
,
0000
0000
0000
0000
,
0000
0000
0000
0030
;

//--------------- dance-single - KAYSTAR ----------------
#NOTES:
     dance-single:
     KAYSTAR:
     Hard:
     15:
     0,0,0,0,0:
0000
0000
0000
0000
,
0000
0000
0000
0000
,
0000
0000
0000
0000
,
0000
0000
0000
0000
,
0000
0000
0000
0000
,
1000
0000
0000
1000
0100
0000
0000
0000
0010
0000
0001
0000
0100
0000
0000
0000
,
0010
0000
0001
0000
0010
0000
0100
0001
0000
0000
0010
0000
0100
0000
1000
0000
,
0010
0000
0000
0010
0100
0000
0000
0000
0001
0000
1000
0000
0100
0000
0000
0000
,
0010
1000
0010
0200
0000
0301
0100
1000
,
0001
0100
0010
0000
0000
0000
2000
0000
,
3100
0010
0001
0000
0100
0000
0010
0000
,
2002
0000
0000
0003
,
0000
0000
0010
0000
0100
0000
0001
3001
,
0000
0000
0102
0000
0010
0000
1000
1003
,
0000
0000
0000
0000
0001
0000
0100
0000
0010
0000
1000
0000
0100
0010
0100
0010
,
0002
0000
1003
0000
1001
0000
0001
1000
,
0100
0000
0000
0000
0010
0001
0010
0000
0001
0000
0000
0000
0200
0000
0000
0000
,
0320
0000
0030
0000
1001
0000
1000
0001
,
0100
0000
0000
0000
0001
0010
0001
0000
1000
0010
1000
0000
0001
0010
0100
1000
,
0001
0000
0100
0010
0200
0000
0000
0000
0301
0000
1000
0100
0010
0000
0001
0000
,
0100
0000
0010
1000
0001
0000
0100
0000
2000
0000
0000
0000
3100
0000
0001
0000
,
2000
0000
3001
0000
1001
1000
0100
0001
,
0100
0000
0010
0000
0001
0000
0100
0001
1000
0000
0010
0001
0000
0010
1000
0000
,
0001
0100
0001
0100
0020
0000
0000
0000
1030
0000
0001
0010
0100
0000
1000
0000
,
0010
0000
0100
0001
1000
0000
0100
0000
0002
0000
0000
0000
0103
0000
1000
0000
,
0002
0000
1003
0000
1001
0001
0010
1000
,
0010
0000
0100
0000
1000
0000
0001
0100
0010
1000
0010
1000
0001
0000
1000
0000
,
2002
0000
3003
0000
0001
0000
0010
0100
0010
0100
1000
0000
0002
0000
0103
0000
,
2000
0000
3100
0000
0010
0100
0010
0000
1000
0000
0100
0010
0001
0000
1000
0000
,
1001
0000
0001
0000
0000
0000
0100
0010
0100
0010
1000
0000
0002
0000
0013
0000
,
2000
0000
3010
0000
0100
0010
0100
0000
1000
0000
0010
0100
0001
0000
0001
0000
,
1000
0100
0000
0010
0001
0000
0100
0010
1000
0010
0100
0000
0002
0003
0020
0030
,
0200
0300
2000
3000
0010
0000
0100
0001
1000
0001
0100
0000
0002
0000
0010
0000
,
2003
0000
0000
0000
0000
0000
0100
0000
0000
0000
0000
0000
3010
0000
0000
0000
0000
0000
1000
0000
0000
0001
0000
0000
0100
0000
0000
0010
0000
0000
0100
0000
0000
0001
0000
0000
1000
0000
0000
0000
0001
0000
0000
0000
0010
0000
0000
0000
,
0100
0000
1000
0000
0010
0000
0001
0000
0010
0000
0100
0000
0002
0000
0000
0000
0000
0000
1003
0000
0000
0100
0000
0000
,
0010
0000
0001
0100
0120
0030
0120
0030
,
0120
0000
0030
0000
1000
0010
0000
0100
0000
0100
0000
0001
0000
0010
0100
0000
,
4000
3001
0000
0000
,
0000
0000
0000
0000
0001
0000
0100
0001
1000
0000
0001
0000
0100
0001
1000
0000
,
0200
0000
0320
0000
0031
0000
1000
0000
0010
1000
0001
0000
1000
0000
0010
1000
,
0001
0000
0010
0100
1000
0100
0010
0000
0001
0000
1000
0010
0100
0000
0001
0000
,
0010
0000
0000
0000
1000
0000
0000
0000
0010
0000
0000
0000
0001
0000
0000
0000
2000
0000
0000
0000
0000
0000
0000
0000
0000
0000
0000
0000
0000
0000
0000
3000
0100
0000
0000
0000
1000
0000
0000
0000
0001
0000
0000
0000
0000
0000
0000
0000
0100
0000
0000
0000
0001
0000
0000
0000
0100
0000
0000
0000
0001
0000
0000
0000
,
1000
0000
0001
0100
2000
0000
3001
0010
,
2000
0000
0000
0000
0000
0000
0000
0000
0000
0000
0000
0000
3001
0000
0000
0000
0000
0000
1000
0000
0000
0001
0000
0000
0010
0000
0000
0000
0000
0000
0001
0000
0000
0000
0000
0000
1000
0000
0010
0000
1000
0000
0000
0000
0000
0000
0000
0000
,
0001
1001
1000
0100
0002
0000
1003
0010
,
0002
0000
0000
0000
1003
0000
0100
1000
0100
1000
0001
0000
0100
0010
1000
0000
,
0010
0100
0001
0000
0010
0001
0010
0001
1000
0000
0001
0000
1000
0100
0010
0000
,
0001
0010
0100
0000
1000
0001
1000
0001
1000
0001
1000
0001
0400
0000
0000
0000
,
0310
2002
0000
0000
,
0000
3003
0000
1001
,
0101
0000
0100
0000
0010
0000
0000
1000
0100
0000
1000
0000
1001
0000
0000
0000
,
1100
0000
0000
0000
0000
0000
0100
0000
0000
0000
0000
0000
0010
0000
0000
0000
0000
0000
0000
0000
0000
0001
0000
0000
0100
0000
0000
0000
0000
0000
0110
0000
0000
0000
0000
0000
0010
0000
0000
0000
1000
0000
0000
0000
0001
0000
0000
0000
,
0100
0000
0010
0000
1000
0000
0100
0000
0001
0000
0100
0000
1000
0000
0000
0000
0000
0000
2002
0000
0000
3003
0000
0000
,
0001
0000
1000
0000
0100
1000
0001
0000
0100
0010
1000
0010
1000
0000
0100
0010
,
0002
0000
0103
1000
0002
0000
0013
1000
,
0001
0000
0000
0000
0000
0000
0100
0000
0001
0000
0100
0000
0000
0000
0000
0001
0000
0000
1000
0000
0000
0100
0000
0000
0010
0000
0000
0001
0000
0000
1000
0000
0000
0000
0000
0000
0001
0000
0000
0000
0000
0000
0100
0000
0000
0010
0000
0000
,
2000
0000
3001
0010
1000
0002
0000
0103
,
0101
0000
0000
0000
1100
0000
0000
0100
1000
0000
0001
0000
1001
0000
1000
0100
,
1000
0000
0010
0000
0001
0010
0000
0100
0002
0000
0010
0000
1003
0000
0001
0100
,
0001
0000
0010
0000
1000
0010
0000
0100
2000
0000
0010
0000
3001
0000
1000
0100
,
0010
0000
0001
0000
0100
0000
1000
0100
0010
0000
0001
0000
0011
0000
0000
0000
,
1010
0000
0000
0000
0110
0000
0000
0000
2002
0000
3003
0000
1000
0000
0001
0100
,
0010
0000
1000
0000
0100
0001
0000
0100
2000
0000
0010
0000
3001
0000
1000
0100
,
0010
0000
0000
0001
0000
0000
0010
0000
0000
0100
0000
0000
1000
0000
0000
0000
0000
0000
0000
0000
0000
0000
0000
0000
1001
0000
0000
0000
0000
0000
0000
0000
0000
0000
0000
0000
0001
0000
0000
0000
1000
0000
0000
0000
0010
0000
0000
0000
,
0100
0000
0000
0000
0010
0000
0000
0000
1000
0000
0000
0000
0100
0000
0000
0000
0010
0000
0000
0000
0001
0000
0000
0000
0400
0000
0000
0000
0000
0000
0000
0000
0000
0000
0000
0000
0310
0000
0000
0000
0000
0000
0100
0000
0000
0001
0000
0000
,
1000
0010
0100
0010
1000
0001
0010
0100
1000
0001
0010
0100
2000
0000
0000
0000
,
0000
0002
0000
0000
,
0000
0000
0000
3003
;

//--------------- dance-double - KAYSTAR ----------------
#NOTES:
     dance-double:
     KAYSTAR:
     Easy:
     7:
     0,0,0,0,0:
00000000
00000000
00000000
00000000
,
00000000
00000000
00000000
00000000
,
00000000
00000000
00000000
00000000
,
00000000
00000000
00000000
00000000
,
00000000
00000000
00000000
00000000
,
00010000
00010000
00000000
00001000
,
00001000
00100000
00010000
00100000
,
00001000
00001000
00000000
00010000
,
00010000
00000010
00001000
00000010
,
00000200
00000000
00000000
00000000
00000000
00000000
00000000
00000000
00000000
00000000
00000000
00000000
00000000
00000000
00000000
00000000
00000000
00000000
00000000
00000000
00000000
00000000
00000000
00000000
00000000
00000000
00000000
00000000
00000000
00000000
00000000
00000000
00000000
00000000
00000000
00000000
00000000
00000000
00000000
00000000
00000000
00000000
00000000
00000000
00000000
00000000
00000000
00000000
00000000
00000300
00000000
00000000
00000000
00000000
00000000
00000000
00000000
00000000
00000000
00000000
00000000
00000000
00000000
00000000
00000000
00000000
00000000
00000000
00000000
00000000
00000000
00000000
00000001
00000000
00000000
00000000
00000000
00000000
00000000
00000000
00000000
00000000
00000000
00000000
00000000
00000000
00000000
00000000
00000000
00000000
00000000
00000000
00000000
00000000
00000000
00000000
,
00000020
00000000
00000030
00001000
,
00020000
00000000
00000000
00000000
,
00000000
00030000
00000000
00000000
,
00000000
02000000
03000000
20000000
,
30000000
00020000
00030000
00200000
,
00300000
00000000
00001000
00000000
,
00001000
00000000
00010000
00000000
,
00010000
00000000
00001000
00000000
,
00001000
00010000
00000010
00001000
,
00001000
00000001
00000000
00000010
,
00000100
00001000
00000000
00000010
,
00000100
00000001
00000000
00001000
,
00000100
00010000
00001000
01000000
,
00010000
10000000
00000000
00100000
,
01000000
00010000
00000000
10000000
,
01000000
00100000
00000000
00010000
,
01000000
00001000
00010000
00000100
,
00001000
00000001
00000000
00000100
,
00000100
00001000
00000000
00010000
,
00010000
00000000
00000000
00100000
,
00100000
10000000
00000000
00010000
,
00010000
00100000
00000000
00001000
,
00010000
00000100
00000000
00010000
,
00001000
02000000
03000000
00200000
,
00300000
00000000
00010000
00010000
,
00001000
00000000
00020000
00000000
,
00030000
00000000
00001000
00010000
,
00010000
00000020
00000000
00000030
,
00000000
00001000
00001000
00000001
,
00000001
00000010
00000200
00000000
00000000
00000000
00000300
00001000
,
00000100
00010000
00002000
00000000
00000000
00000000
01003000
00000000
,
00100000
20000000
00000000
30000000
,
00000000
00010000
00010000
00100000
,
00100000
00002000
00000000
00003000
,
00000000
00010000
00010000
00000010
,
00000000
00001000
00000001
00000100
,
00000010
00001000
00000100
00010000
,
00001000
00200000
00000000
00300000
,
00000000
20020000
00000000
00000000
,
00000000
30030000
00000000
00000000
,
10000000
00000000
10000000
00000000
,
00010000
00000000
00010000
01000000
,
00100000
10000000
01000000
00100000
,
00000000
00001000
00001000
00010000
,
00000100
00000000
00001000
00001000
,
00000001
00000100
00000010
00001000
,
00001000
00000000
00000010
00010000
,
00001000
01000000
01000000
00010000
,
10000000
01000000
00000000
00100000
,
00001000
00010000
00000000
00000010
,
00001000
00000001
00000010
00000100
,
00010000
00011000
00000000
00001000
,
00000100
00000010
00000000
00001000
,
00000010
00010000
00000000
00002000
,
00000000
00000000
00003000
00001000
,
00010000
01000000
00100000
00020000
,
00000000
20000000
00000000
00000000
,
00000000
00000000
00000000
30030000
;

//--------------- dance-double - KAYSTAR ----------------
#NOTES:
     dance-double:
     KAYSTAR:
     Medium:
     12:
     0,0,0,0,0:
00000000
00000000
00000000
00000000
,
00000000
00000000
00000000
00000000
,
00000000
00000000
00000000
00000000
,
00000000
00000000
00000000
00000000
,
00000000
00000000
00000000
00000000
,
10000000
00000000
10100000
00000000
00100000
10000000
00010000
00000000
,
00100000
00001000
00010000
00000100
00001000
00000000
00000001
00000000
,
00000100
00000000
00000101
00000000
00000001
00001000
00000100
00000000
,
00010000
00001000
00100000
00001000
00010000
00000010
00010000
00000000
,
00002000
00203000
00320000
20030000
,
30020000
02030000
03001000
00010010
,
00022000
00000000
00000000
00033000
,
00000000
00000000
00000000
00010000
,
00000100
00002000
00003000
00000002
,
00000003
00000000
00000200
00000000
00000300
00000000
00001000
00001000
,
00020000
00030000
00000000
00000000
00000000
00000000
00000000
00000000
00011000
00000000
00000000
00000000
00001000
00000000
00100000
00000000
,
00010000
10000000
01000000
00010000
,
00011000
00000000
00010000
00000000
00000010
00000000
00001000
00000001
,
00000100
00000000
00000010
00001000
00000100
00000010
00000001
00000000
,
00000100
00000000
00000002
00000000
00000013
00000100
00002000
00000000
,
00003001
00000000
00000100
00001000
00010000
00000000
00021000
00000000
,
00130000
00000000
00012000
00000000
01003000
00010000
00100000
01000000
,
10000000
00010000
00000000
01000000
00001000
00010000
00000010
00010000
,
00001000
00100000
00020000
00000000
01030000
00100000
20000000
00000000
,
30010000
00000000
00100000
01000000
00010000
00000000
00012000
00000000
,
00003010
00000000
00021000
00000000
00030100
00001000
00000010
00000100
,
00000001
00001000
00000000
00000100
00000100
00000010
00000010
00000000
,
00001001
00000000
00000001
00000100
00000010
00010000
00001000
01000000
,
00010000
01000000
00001000
00100000
00010000
10000000
01000000
00010000
,
01000000
10000000
00000000
00010000
01000000
00001000
00010000
00000010
,
00001000
00000010
00010000
00000100
00001000
00000001
00000010
00001000
,
00000010
00000001
00002000
00000000
00003100
00000000
00010000
00001000
,
00000100
00001000
00020000
00000000
00130000
00000000
10000000
01000000
,
00010000
00000000
00000000
01000000
00000000
00000000
10000000
00000000
00000000
00010000
00000000
00000000
01000000
00000000
00000000
00001000
00000000
00000000
00010000
00000000
00000000
00000000
00010000
00000000
,
00000010
00000000
00000000
00000000
00000010
00000000
00001000
00000000
00000000
00000000
00001000
00000000
00000001
00000000
00000000
00000000
00000000
00000000
00000010
00000000
00000000
00000010
00000000
00000000
,
00000010
00000000
00000000
00000000
00000000
00000000
00000000
00000000
00002002
00003003
00000000
00000000
00002002
00003003
00000000
00000000
,
00002002
00003003
00000000
00000000
00010000
00000000
00000000
00000000
00001000
00000000
00000000
00000000
01000000
00000000
00010000
00000000
,
00100000
01000000
10000000
00000000
00000000
00000000
00000000
00000000
,
00000000
00000000
00000000
00000000
00010000
00000000
01000000
00100000
01000000
00000000
00010000
00000000
01000000
00100000
01000000
00000000
,
00010000
00000000
00100000
00000000
00001000
00000000
00010000
00000000
00000010
00000100
00000010
00000000
00001000
00000000
00000010
00000100
,
00000010
00000000
00001000
00000000
00000001
00000010
00000100
00000000
00010000
00000000
00001000
00010000
00000100
00000000
00010000
00000000
,
00001000
01000000
00010000
00000000
20000000
00000000
00000000
00000000
31000000
00000000
00200000
00000000
00000000
00000000
00310000
00000000
,
10000000
00100000
00010000
00001000
,
00000100
00000000
00000002
00000000
00000013
00000200
00000000
00001300
,
00000001
00000100
00001000
00010000
,
00011000
00000000
00001000
00100000
00010000
10000000
01000000
10000000
,
00010000
00100000
00001000
00010000
00000010
00001000
00000001
00000100
,
00000001
00001000
00000020
00000000
00020030
00000000
00032000
00000000
,
00103000
20020000
00000000
00000000
,
00000000
30030000
00000000
20010000
,
31000000
00000000
10000000
00000000
00010000
00000000
00000000
00010000
00100000
00000000
00001000
00000000
00020000
00000000
00000000
00000000
,
00030010
00001000
00000001
00000010
00000100
00001000
00001002
00000000
,
00001003
00000010
00000100
00000001
00000010
00000000
00000200
00000000
,
00010300
00000000
00001000
00000000
00000010
00000000
00001000
00000000
00010000
00000000
00000000
00000000
00011000
00000000
00000000
00001000
,
01000000
00010000
10000000
00100000
00020000
00000000
00031000
01000000
,
00010000
00000000
10000000
00000000
01000000
00000000
00010000
00000000
00001000
00000000
00000000
00000000
00011000
00000000
00000000
00010000
,
00000100
00001000
00000001
00000100
00001000
00020000
00000000
00031000
,
00000010
00000001
00000100
00000010
00002000
00000000
00003001
00000010
,
00000100
00001000
00010000
00100000
01000000
00000000
10000000
00100000
,
01000000
00010000
00001000
00000010
00000100
00000000
00000001
00001000
,
00000100
00010000
00000010
00001000
00010000
01000000
00100000
00000000
,
10100000
00000000
10010000
00000000
00110000
00000000
10000000
01000000
,
00100000
00010000
00001000
00000100
00000010
00000000
00000001
00000100
,
00000010
00000000
00000000
00010000
00000000
00000000
00001000
00000000
00000000
00000000
00000000
00000000
00011000
00000000
00000000
00000000
00000000
00000000
00010000
00000000
00001000
00000000
00100000
00000000
,
00010000
00000000
00100000
00000000
00001000
00000000
00010000
00000000
00001000
00000000
00100000
00000000
00020000
00000000
00000000
00000000
00000000
00000000
10030000
00000000
00000000
00100000
00000000
00000000
,
00010000
00001000
00000100
00000001
00000010
00000100
00002000
00000000
,
00000000
00000002
00000000
00000000
,
00000000
00000000
00000000
00003003
;

//--------------- dance-double - KAYSTAR ----------------
#NOTES:
     dance-double:
     KAYSTAR:
     Hard:
     15:
     0,0,0,0,0:
00000000
00000000
00000000
00000000
,
00000000
00000000
00000000
00000000
,
00000000
00000000
00000000
00000000
,
00000000
00000000
00000000
00000000
,
00000000
00000000
00000000
00000000
,
00011000
00000000
00000000
00010000
00001000
00000000
00000000
00000000
00100000
00000000
00010000
00000000
10000000
00000000
00000000
00000000
,
00100000
00010000
00001000
00000100
00000000
00000010
00001000
00000100
,
00010000
00000000
00000000
00001000
00010000
00000000
00000000
00000000
00000010
00000000
00001000
00000000
00000001
00000000
00000000
00000000
,
00000010
00001000
00010000
01000000
10000000
00100000
00020000
00000000
,
00031000
01000000
00010000
00000000
00200000
00000000
00301000
00000000
,
00010000
00000100
00001000
00000000
00000020
00000000
00010030
00000000
,
00022000
00000000
00000000
00030000
,
00000000
00000000
00013000
00000000
00001000
00000000
00100000
00100000
,
00000000
00000000
00010000
00000000
10000000
00000000
00100000
00100000
,
00000000
00000000
00000000
00000000
01000000
00000000
00000000
00000000
00001000
00000000
00000000
00000000
00010000
00000010
00010000
00000010
,
00002000
00000000
00003001
00000000
00001001
00000000
00001000
00000100
,
00010000
00000000
00000000
00000000
00001000
00100000
00001000
00000000
00010000
00000000
00000000
00000000
00000020
00000000
00000000
00000000
,
00000230
00000000
00001300
00000000
00011000
00000000
01000000
00010000
,
10000000
00000000
00000000
00000000
00010000
00100000
00010000
00000000
10000000
01000000
10000000
00000000
00100000
10000000
00010000
10000000
,
00010000
00000000
00000000
00000000
20010000
00000000
00000000
00000000
31000000
00000000
10000000
00010000
00100000
00000000
00001000
00000000
,
00010000
00000010
00001000
00000001
00000100
00010000
00002000
00000000
,
00003010
00000000
00000000
00000000
00001000
00000000
00000001
00001000
00000100
00000000
00020000
00000000
00032000
00000000
00003020
00000000
,
00002030
00000000
00023000
00000000
00030000
00000000
00001000
00000000
00101000
00000000
00100000
00010000
10000000
00000000
00100000
00000000
,
01000000
00010000
10000000
00010000
20000000
00000000
00000000
00000000
30100000
00000000
10000000
00010000
01000000
00000000
00001000
00000000
,
00010000
00000100
00001000
00000001
00000010
00010000
00002000
00000000
,
00003100
00000000
00000000
00000000
00001000
00000000
00000001
00001000
00000010
00000000
00020000
00000000
00032000
00000000
00003200
00000000
,
00002300
00000000
00023000
00000000
00030000
00000000
00001000
00100000
00001000
00100000
00010000
00000000
01000000
00000000
00001000
00000000
,
00011000
00000000
00000000
00000000
00010000
00000000
01000000
10000000
00010000
00000000
01000000
00000000
00200000
00000000
00310000
00000000
,
00200000
00000000
10300000
00000000
00100000
00000000
01000000
00010000
10000000
00000000
01000000
00000000
00010000
00000000
00000000
00000000
,
00011000
00000000
00000000
00000000
00001000
00000000
00000100
00000001
00001000
00000000
00000100
00000000
00000020
00000000
00001030
00000000
,
00000020
00000000
00000031
00000000
00000010
00000000
00000100
00001000
00000001
00000000
00000100
00000000
00001000
00000000
00010000
00000000
,
00100000
10000000
00000000
00010000
02000000
00000000
00000000
00000000
03010000
10000000
01000000
00000000
20000000
00000000
30100000
00000000
,
00020000
00000000
00031000
00000000
00000100
00000001
00001000
00000000
00000010
00000000
00000100
00000000
00000002
00000000
00000013
00000000
,
00002000
00000000
00000000
00000000
00000000
00000000
00013000
00000000
00000000
00000000
00000000
00000000
01000000
00000000
00000000
00000000
00000000
00000000
00100000
00000000
00000000
00010000
00000000
00000000
10000000
00000000
00000000
00010000
00000000
00000000
10000000
00000000
00000000
00000000
00000000
00000000
00100000
00000000
00000000
00000000
01000000
00000000
00000000
00000000
00010000
00000000
00000000
00000000
,
01000000
00000000
00001000
00000000
00010000
00000000
00000010
00000000
00010000
00000000
00001000
00000000
00000000
00000000
00000000
00000000
00000000
00000000
00011000
00000000
00000000
00010000
00000000
00000000
,
00011000
00000000
00001000
00000010
00000200
00000300
00000210
00000300
,
00000210
00000000
00000300
00000000
00000010
00000001
00000000
00001000
00000000
00000010
00000000
00000010
00000000
00000100
00001000
00000000
,
00040000
00031000
00000000
00000000
,
00000000
00000000
00000000
00000000
00010000
00000000
00001000
00100000
00010000
00000000
01000000
00000000
00010000
01000000
00001000
00000000
,
00020000
00000000
00031000
00000000
00011000
00000000
00010000
00000000
00001000
00010000
00000010
00000000
00001000
00000000
00000100
00010000
,
00001000
00000000
00010000
01000000
00100000
00010000
10000000
00000000
00100000
00000000
00010000
00001000
00000100
00000000
00000001
00000000
,
00000010
00001000
00010000
00000000
00012000
00000000
00000000
00000000
00103000
00000000
00210000
00000000
00000000
00000000
00301000
00000000
,
00011000
00000000
00010000
01000000
10000000
00100000
00010000
00001000
,
00000100
00001000
00021000
00000000
00030010
00001020
00000000
00010030
,
00011000
00000000
00001000
00000100
00000001
00000010
00001000
00010000
,
02000000
00000000
00000000
00000000
13000000
00000000
01000000
10000000
01000000
00000000
10000000
00010000
10000000
00000000
00100000
10000000
,
00010000
00000000
01000000
00000000
00001000
00000000
00010000
00000010
00001000
00000000
00000001
00001000
00000001
00000000
00001000
00000100
,
00001000
00000100
00020000
00000000
02030000
00000000
23000000
00000000
,
30200000
00320000
00000000
00000000
,
00000000
00030000
00000000
00021000
,
01030000
00000000
10000000
00000000
00010000
00000000
00000000
00100000
00001000
00000000
00010000
00000000
00012000
00000000
00000000
00000000
,
00003100
00000000
00000000
00000000
00000000
00000000
00000001
00000000
00000000
00000000
00000000
00000000
00001000
00000000
00000000
00000000
00000000
00000000
00000000
00000000
00000000
00000010
00000000
00000000
00010000
00000000
00000000
00000000
00000000
00000000
00011000
00000000
00000000
00000000
00000000
00000000
00001000
00000000
00000000
00000000
01000000
00000000
00000000
00000000
00010000
00000000
00000000
00000000
,
00100000
00000000
00001000
00000000
00010000
00000000
00000100
00000000
00001000
00000000
00000010
00000000
00010000
00000000
00000000
00000000
00000000
00000000
00022000
00000000
00000000
00033000
00000000
00000000
,
00001000
00000000
01000000
00000000
00010000
00000000
00001000
00000000
00200000
00000000
00000000
00000000
10300000
00000000
00010000
01000000
,
00010000
00000000
10000000
00000000
01000000
00000000
00001000
00000000
00020000
00000000
00000000
00000000
00130000
00000000
00001000
00010000
,
00001000
00000000
00010000
00000100
00001000
00000000
00000001
00001000
00000001
00000000
00000010
00000000
00000001
00000000
00001000
00000100
,
00001000
00000000
00000001
00000000
00000100
00000000
00010000
00000000
00002000
00000000
00000000
00000000
00003010
00000000
00010000
00001000
,
01000000
00000000
00001000
00100000
00010000
00000000
00001000
00000100
00000010
00000000
00000010
00000000
00000001
00000000
00001000
00000010
,
00010000
00000000
00001000
00100000
00010000
00000000
10000000
00000000
02000000
00000000
00000000
00000000
03010000
00000000
00001000
00010000
,
00000100
00000000
00010000
00001000
01000000
00000000
00010000
00000000
00000200
00000000
00000000
00000000
00000310
00000000
00001000
00000001
,
00000100
00000000
00001000
00000000
00010000
00000000
01000000
10000000
00010000
00000000
00100000
00000000
00101000
00000000
00000000
00000000
,
00011000
00000000
00000000
00000000
00010010
00000000
00000000
00000000
00011000
00000000
00000000
00000000
00000001
00000000
00001000
00000100
,
00010000
00000000
00001000
01000000
00010000
00000000
10000000
00000000
00200000
00000000
00000000
00000000
00310000
00000000
00001000
00010000
,
00000100
00000000
00000000
00000000
00000000
00000000
00010000
00000000
00000000
00001000
00000000
00000000
00000010
00000000
00000000
00000000
00000000
00000000
00000000
00000000
00000000
00000000
00000000
00000000
00000000
00000000
00000000
00000000
00000000
00000000
00000000
00000000
00000000
00000000
00000000
00000000
00000001
00000000
00000000
00000000
00000100
00000000
00000000
00000000
00001000
00000000
00000000
00000000
,
00010000
00000000
00000000
00000000
01000000
00000000
00000000
00000000
10000000
00000000
00000000
00000000
00100000
00000000
00000000
00000000
00010000
00000000
00000000
00000000
00002000
00000000
00000000
00000000
01000000
00000000
00000000
00000000
00000000
00000000
00000000
00000000
00000000
00000000
00000000
00000000
00013000
00000000
00000000
00000000
00000000
00000000
00000010
00000000
00000000
00001000
00000000
00000000
,
00000001
00000000
00000010
00001000
00010000
00000000
00001000
00010000
00100000
00000000
20000000
00000000
00020000
00000000
00000000
00000000
,
00000000
00000000
00000000
00000000
,
00000000
00000000
00000000
30030000
;
