#TITLE:FREEDOM DiVE↓;
#SUBTITLE:;
#ARTIST:xi;
#MUSIC:Freedom Dive.ogg;
#BANNER:;
#BACKGROUND:;
#LYRICSPATH:;
#CDTITLE:;
#SAMPLESTART:63.719;
#SAMPLELENGTH:17.279999999999994;
#OFFSET:-0.001;
#BPMS:0.000=222.222;
#STOPS:;
#TIMESIGNATURES:;
#BGCHANGES:;
#FGCHANGES:;
#ATTACKS:;

//---------------dance-single - ---------------
#NOTES:
     dance-single:
     :
     Beginner:
     6:
     0,0,0,0,0:
// measure 0
0000
0000
0000
0000
,  // measure 1
0000
0000
0000
0000
,  // measure 2
0000
0000
0000
0000
,  // measure 3
0000
0000
0000
0000
,  // measure 4
0000
0000
0000
0000
,  // measure 5
0000
0000
0000
0000
,  // measure 6
0000
0000
0000
0000
,  // measure 7
0000
0000
0000
0000
,  // measure 8
0000
0000
0000
0000
,  // measure 9
1000
0000
0000
0000
,  // measure 10
0001
0000
0000
0000
,  // measure 11
0010
0000
0000
0000
,  // measure 12
0100
0000
0000
0000
,  // measure 13
0010
0000
0000
0000
,  // measure 14
0001
0000
0000
0000
,  // measure 15
1000
0000
0001
0000
,  // measure 16
1000
0001
1000
0000
,  // measure 17
0001
0000
0000
0000
,  // measure 18
0100
0000
0000
0000
,  // measure 19
0010
0000
0000
0000
,  // measure 20
1000
0000
0000
0000
,  // measure 21
0100
0000
0000
0000
,  // measure 22
0010
0000
0000
0000
,  // measure 23
0001
0000
0001
0000
,  // measure 24
1000
0000
1000
0000
,  // measure 25
2002
0000
0000
0000
,  // measure 26
0000
0000
0000
0000
,  // measure 27
0000
0000
0000
0000
,  // measure 28
0000
0000
3003
0000
,  // measure 29
0001
0000
0000
0000
,  // measure 30
0010
0000
0000
0000
,  // measure 31
0100
0000
0000
0000
,  // measure 32
0010
0000
0000
0000
,  // measure 33
1001
0000
0000
0000
,  // measure 34
0000
0000
0000
0000
,  // measure 35
0110
0000
0000
0000
,  // measure 36
0000
0000
0000
0000
,  // measure 37
1001
0000
0000
0000
,  // measure 38
1001
0000
1001
0000
,  // measure 39
1001
0000
1000
0001
,  // measure 40
1000
0000
0000
0000
,  // measure 41
0010
0000
0000
0000
,  // measure 42
0100
0000
0100
0000
,  // measure 43
0001
0000
1000
0000
,  // measure 44
0010
0000
1000
0000
,  // measure 45
0001
0000
0010
0000
,  // measure 46
0100
0000
0010
0000
,  // measure 47
0001
0000
0100
0000
,  // measure 48
0010
0000
0100
0000
,  // measure 49
0001
0000
1000
0000
,  // measure 50
0100
0000
0110
0000
,  // measure 51
0010
0000
0001
0000
,  // measure 52
1000
0000
0010
0000
,  // measure 53
0100
0000
0010
0000
,  // measure 54
1000
0000
0001
0000
,  // measure 55
0010
0000
0100
0000
,  // measure 56
1000
0000
0001
0000
,  // measure 57
0100
0000
0010
0000
,  // measure 58
1000
0001
1000
0001
,  // measure 59
2000
0000
3200
0000
,  // measure 60
0320
0000
0032
0000
,  // measure 61
2003
0000
3020
0000
,  // measure 62
0230
0000
0301
1000
,  // measure 63
0002
0000
0013
0000
,  // measure 64
0001
0001
1000
0000
,  // measure 65
0001
0001
1000
0000
,  // measure 66
0010
0000
0110
0000
,  // measure 67
0100
0000
0001
0000
,  // measure 68
0010
0010
0010
0000
,  // measure 69
0001
0000
1000
0000
,  // measure 70
0010
0010
0100
0000
,  // measure 71
0002
0000
0013
0000
,  // measure 72
0001
0000
2000
0000
,  // measure 73
3020
0000
0230
0000
,  // measure 74
0310
0100
0010
0000
,  // measure 75
2002
0000
0000
0000
,  // measure 76
0000
0000
3003
0000
,  // measure 77
1000
0000
0000
0000
,  // measure 78
0100
0000
0000
0000
,  // measure 79
1000
0000
0000
0000
,  // measure 80
0001
0000
0000
0000
,  // measure 81
0100
0000
0000
0000
,  // measure 82
0010
0000
1000
1000
,  // measure 83
0001
0000
0001
0000
,  // measure 84
0010
0000
0010
0000
,  // measure 85
1000
0000
1000
0000
,  // measure 86
0100
0000
0100
0000
,  // measure 87
0001
0000
0000
0000
,  // measure 88
0100
0000
0010
0000
,  // measure 89
1000
0000
1000
0000
,  // measure 90
0002
0000
0000
0000
,  // measure 91
0023
0000
0000
0000
,  // measure 92
0230
0000
0000
0000
,  // measure 93
2300
0000
0000
0000
,  // measure 94
3001
0000
1000
0000
,  // measure 95
0010
0000
0100
0000
,  // measure 96
0001
0000
1000
0000
,  // measure 97
0100
0000
0010
0000
,  // measure 98
2002
0000
3003
1001
,  // measure 99
0002
0000
0203
0000
,  // measure 100
2300
0000
3200
0000
,  // measure 101
0302
0000
2003
0000
,  // measure 102
3200
0000
0310
0010
,  // measure 103
0002
0000
1003
0010
,  // measure 104
0100
0100
0001
0000
,  // measure 105
1000
1000
0010
0000
,  // measure 106
1000
0100
0100
0100
,  // measure 107
0010
0000
0001
0000
,  // measure 108
1000
1000
1000
0000
,  // measure 109
0010
0000
0100
0000
,  // measure 110
0001
0001
1000
0000
,  // measure 111
0200
0000
0310
0000
,  // measure 112
0001
0001
2000
0000
,  // measure 113
3020
0000
2030
0000
,  // measure 114
3100
0100
0100
0100
,  // measure 115
2000
0000
3200
0000
,  // measure 116
0302
0000
0203
0000
,  // measure 117
2300
0000
3002
0000
,  // measure 118
0203
0000
0310
0010
,  // measure 119
2000
0000
3001
0010
,  // measure 120
0100
0100
1000
0000
,  // measure 121
0001
0001
0010
0000
,  // measure 122
0001
0100
0100
0100
,  // measure 123
0010
0000
1000
0000
,  // measure 124
0001
0001
0001
0000
,  // measure 125
0010
0000
0100
0000
,  // measure 126
1000
1000
0001
0000
,  // measure 127
0200
0000
0310
0000
,  // measure 128
1000
1000
0002
0000
,  // measure 129
0023
0000
0032
0000
,  // measure 130
0103
0100
0100
0100
,  // measure 131
0010
0000
0000
0000
,  // measure 132
1000
0000
0000
0000
,  // measure 133
0001
0000
0001
0000
,  // measure 134
0100
0100
0100
0100
,  // measure 135
0200
0000
0000
0000
,  // measure 136
0000
0000
0000
0000
,  // measure 137
0300
0000
0000
0000
;

//---------------dance-single - ---------------
#NOTES:
     dance-single:
     :
     Easy:
     11:
     0,0,0,0,0:
// measure 0
0000
0000
0000
0000
,  // measure 1
0000
0000
0000
0000
,  // measure 2
0000
0000
0000
0000
,  // measure 3
0000
0000
0000
0000
,  // measure 4
0000
0000
0000
0000
,  // measure 5
0000
0000
0000
0000
,  // measure 6
0000
0000
0000
0000
,  // measure 7
0000
0000
0000
0000
,  // measure 8
0000
0000
0000
0000
,  // measure 9
1000
0100
1000
0010
,  // measure 10
0100
0000
0001
0000
0010
0000
0001
1000
,  // measure 11
0001
0010
0100
0010
,  // measure 12
0001
0000
0000
0000
1000
0000
0000
0000
0010
0000
0000
0100
0000
0000
0010
0000
,  // measure 13
0100
0000
0001
0000
1000
0000
0100
0010
,  // measure 14
0000
0100
1000
0001
,  // measure 15
1001
0000
0110
0000
,  // measure 16
0001
0010
0100
1000
,  // measure 17
0001
0100
0001
0010
,  // measure 18
0100
0000
1000
0000
0010
0000
1000
0001
,  // measure 19
1000
0100
0010
0001
,  // measure 20
1000
0000
0000
0000
0010
0000
0000
0000
0100
0000
0000
0001
0000
0000
0100
0000
,  // measure 21
0001
0000
1000
0000
0100
0000
0010
0001
,  // measure 22
0000
1000
0010
0100
,  // measure 23
0001
0001
1000
1000
,  // measure 24
0100
0100
0010
0010
,  // measure 25
0002
0000
0000
0000
,  // measure 26
0000
0000
0000
0000
,  // measure 27
2003
0000
0000
0000
,  // measure 28
0000
0000
0000
0000
,  // measure 29
3020
0000
0230
0000
,  // measure 30
2300
0000
3200
0000
,  // measure 31
0320
0000
2030
0000
,  // measure 32
3200
0000
0320
0000
,  // measure 33
0031
0000
1000
0000
,  // measure 34
0001
1000
0001
1000
0000
0000
0100
0000
0000
0000
0000
0000
,  // measure 35
0010
0001
0010
0000
,  // measure 36
0001
1000
0001
0000
,  // measure 37
0101
0000
0000
0000
,  // measure 38
1010
0000
1001
0000
,  // measure 39
0011
0000
0010
0100
,  // measure 40
2000
3020
0230
0302
,  // measure 41
1003
0000
0100
0000
,  // measure 42
0010
0001
1000
0010
,  // measure 43
0200
0010
0302
0010
,  // measure 44
2003
0100
3020
0100
,  // measure 45
2030
0100
3002
0010
,  // measure 46
0203
0010
0302
0010
,  // measure 47
2003
0010
3200
0010
,  // measure 48
2300
0010
3002
0100
,  // measure 49
0013
0001
1000
0010
,  // measure 50
0100
0110
0110
0110
,  // measure 51
0002
0010
2003
0100
,  // measure 52
3020
0100
2030
0100
,  // measure 53
3002
0010
0203
0010
,  // measure 54
0302
1000
0023
0100
,  // measure 55
0032
0100
2003
0100
,  // measure 56
3020
0100
2030
0100
,  // measure 57
3001
0010
0100
1000
,  // measure 58
0001
0100
0010
1000
,  // measure 59
0001
0001
0010
0010
,  // measure 60
1000
1000
0010
0010
,  // measure 61
0001
1000
0010
0000
,  // measure 62
1000
0000
0001
0000
0010
0000
0100
0010
,  // measure 63
0100
0000
1000
0010
,  // measure 64
0100
0010
0100
0000
0001
0100
0001
0000
,  // measure 65
1000
0001
1000
0000
0100
1000
0100
0000
,  // measure 66
0010
0001
1000
0001
,  // measure 67
0100
0100
0010
0010
,  // measure 68
0100
0010
0100
0010
0000
0000
1000
0000
0000
0000
0000
0000
,  // measure 69
0001
0010
0100
0000
,  // measure 70
1000
0010
0100
0000
,  // measure 71
0001
0000
0000
0010
0000
0000
0001
0000
0000
0000
0000
0000
0000
0000
1000
0000
,  // measure 72
0010
0000
0000
0000
1000
0000
0000
0000
0100
0000
0000
0010
0000
0000
0100
0000
,  // measure 73
1000
1000
0010
0010
,  // measure 74
0100
0001
0010
0100
,  // measure 75
2000
0000
0000
0000
,  // measure 76
0000
0000
0000
3000
,  // measure 77
0001
0000
0100
0000
,  // measure 78
0010
0000
1000
0000
,  // measure 79
0100
0000
1000
0000
,  // measure 80
0001
0000
0010
0000
,  // measure 81
0001
0000
0100
0000
,  // measure 82
0010
0000
1000
1000
,  // measure 83
1001
0000
0001
0010
,  // measure 84
0001
0000
1000
0010
,  // measure 85
1010
0000
1000
0100
,  // measure 86
0010
0000
0001
1000
,  // measure 87
1001
0000
1000
0100
,  // measure 88
1100
0000
0110
0000
,  // measure 89
0011
0001
1000
0010
,  // measure 90
0200
0000
0000
0000
,  // measure 91
0302
0000
0000
0000
,  // measure 92
2003
0000
0000
0000
,  // measure 93
3200
0000
0000
0000
,  // measure 94
0310
0001
0001
1000
,  // measure 95
1000
0010
0010
0100
,  // measure 96
0100
0000
0001
1000
0001
0000
1000
0001
,  // measure 97
1000
0010
0100
0010
,  // measure 98
2002
0000
3003
1001
,  // measure 99
1000
1000
0010
0010
,  // measure 100
0001
0001
0010
0010
,  // measure 101
0100
0001
1000
0001
,  // measure 102
0010
0000
0100
0000
1000
0000
0001
1000
,  // measure 103
0001
0001
0100
0010
,  // measure 104
1000
0010
1000
0000
0001
1000
0001
0000
,  // measure 105
0010
0001
0010
0000
0100
0010
0100
0000
,  // measure 106
1000
1001
1001
1001
,  // measure 107
0001
0001
0100
0100
,  // measure 108
0010
0100
0010
0100
0000
0000
0010
0000
0000
1000
0000
0000
,  // measure 109
0001
0001
0010
0010
,  // measure 110
1000
1000
0010
0010
,  // measure 111
0001
0000
0000
1000
0000
0000
0001
0000
1000
0000
0000
0000
0010
0000
1000
0000
,  // measure 112
0010
0000
0000
0000
0010
0000
0000
0000
0100
0000
0000
0001
0000
0000
0100
0000
,  // measure 113
0010
0010
1000
1000
,  // measure 114
0001
1001
1001
1001
,  // measure 115
0001
0001
0100
0100
,  // measure 116
1000
1000
0100
0100
,  // measure 117
0010
1000
0001
1000
,  // measure 118
0100
0000
0010
0000
0001
0000
1000
0001
,  // measure 119
1000
1000
0010
0100
,  // measure 120
0001
0100
0001
0000
1000
0001
1000
0000
,  // measure 121
0100
1000
0100
0000
0010
0100
0010
0000
,  // measure 122
0001
1001
1001
1001
,  // measure 123
1000
1000
0010
0010
,  // measure 124
0100
0010
0100
0010
0000
0000
0100
0000
0000
0001
0000
0000
,  // measure 125
1000
1000
0100
0100
,  // measure 126
0001
0001
0100
0100
,  // measure 127
1000
0000
0000
0001
0000
0000
1000
0000
0001
0000
0000
0000
0100
0000
0001
0000
,  // measure 128
0100
0000
0000
0000
0100
0000
0000
0000
0010
0000
0000
1000
0000
0000
0010
0000
,  // measure 129
1000
1000
0100
0100
,  // measure 130
0010
0110
0110
0110
,  // measure 131
0100
1000
0010
0010
,  // measure 132
0100
0001
0010
0010
,  // measure 133
0001
1000
0010
0010
,  // measure 134
0100
0001
0010
0100
,  // measure 135
2000
0000
0000
0000
,  // measure 136
0000
0000
0000
0000
,  // measure 137
3000
0000
0000
0000
;

//---------------dance-single - ---------------
#NOTES:
     dance-single:
     :
     Medium:
     14:
     0,0,0,0,0:
// measure 0
0000
0000
0000
0000
,  // measure 1
0000
0000
0000
0000
,  // measure 2
0000
0000
0000
0000
,  // measure 3
0000
0000
0000
0000
,  // measure 4
0000
0000
0000
0000
,  // measure 5
0000
0000
0000
0000
,  // measure 6
0000
0000
0000
0000
,  // measure 7
0000
0000
0000
0000
,  // measure 8
0000
0000
0000
0000
,  // measure 9
1000
0100
0010
0000
0001
1000
0010
0000
,  // measure 10
0100
0001
1000
0000
0100
0010
0100
0010
,  // measure 11
0100
1000
0001
0000
0100
0010
1000
0000
,  // measure 12
0001
0000
0010
0000
0100
0000
0000
0000
1000
0000
0000
0010
0000
0000
1000
0000
,  // measure 13
0001
0010
0100
0000
0010
0001
1000
0010
,  // measure 14
0000
0100
0010
0000
0110
0000
1001
0000
,  // measure 15
1000
0000
0100
0010
0001
0000
0100
0001
,  // measure 16
0010
0000
0110
0000
0100
1000
0010
0100
,  // measure 17
0001
1000
0100
0000
1000
0010
0100
0000
,  // measure 18
0001
1000
0100
0000
0010
0001
0010
0001
,  // measure 19
0010
0100
1000
0000
0001
0100
0010
0000
,  // measure 20
1000
0000
0001
0000
0100
0000
0000
0000
0010
0000
0000
1000
0000
0000
0001
0000
,  // measure 21
0010
0001
0100
0000
0010
1000
0001
0010
,  // measure 22
0000
0100
0010
0000
0011
0000
1100
0000
,  // measure 23
1000
0010
0100
0001
,  // measure 24
1000
0100
0010
0001
,  // measure 25
0020
0000
0000
0000
,  // measure 26
0000
0000
0000
0000
,  // measure 27
0032
0000
0000
0000
,  // measure 28
0000
0000
0000
0000
,  // measure 29
1003
0000
0010
0100
,  // measure 30
0001
1000
0100
0010
,  // measure 31
0001
0010
0100
1000
,  // measure 32
0001
0000
0100
0000
,  // measure 33
0110
0010
1000
0001
,  // measure 34
0010
0100
0010
0100
0000
0000
1000
0000
0000
0001
0000
0000
,  // measure 35
0101
0100
0010
1000
,  // measure 36
0100
1000
0001
0100
,  // measure 37
0010
0000
0000
1000
0000
0000
0010
0000
0000
0000
0000
0000
0000
0000
1000
0000
,  // measure 38
0001
0000
0000
0000
0010
0000
0000
0000
0100
0000
0000
1000
0000
0000
0001
0000
,  // measure 39
0100
0000
0000
0010
0000
0000
0100
0000
0001
0000
0000
0000
0010
0000
0000
0000
,  // measure 40
0200
2300
3020
0230
,  // measure 41
0301
0001
1000
1000
,  // measure 42
0010
0100
0001
1000
,  // measure 43
1010
1010
0011
0011
,  // measure 44
1010
0110
0101
1001
,  // measure 45
1100
1100
0101
0101
,  // measure 46
1100
0110
0011
1001
,  // measure 47
1010
1010
1100
1100
,  // measure 48
0011
0011
0101
0101
,  // measure 49
1001
0000
1000
0100
0010
0000
0001
0100
,  // measure 50
0010
1001
0110
1001
,  // measure 51
1100
0101
1100
0101
,  // measure 52
0011
0110
1100
1001
,  // measure 53
0011
1010
0011
1010
,  // measure 54
0110
0101
1100
0110
,  // measure 55
1100
0101
1100
0101
,  // measure 56
1010
0110
0101
0011
,  // measure 57
0001
0010
0001
0000
1000
0010
1000
0000
,  // measure 58
0001
1000
0001
1000
0001
1000
0001
0000
,  // measure 59
0010
0000
0000
0001
0000
0000
1000
0000
0000
0010
0000
0000
0100
0000
0001
0000
,  // measure 60
0010
0000
0000
0100
0000
0000
1000
0000
0000
0001
0000
0000
0100
0000
0001
0000
,  // measure 61
1000
0000
0000
0100
0000
0000
1000
0000
0000
0001
0000
0000
0100
0000
0010
0000
,  // measure 62
1000
0000
0000
0100
0000
0000
1000
0000
0100
0000
1000
0000
0001
0000
0010
0000
,  // measure 63
0100
0000
0000
1000
0000
0000
0010
0000
0100
0000
0001
0000
0100
0000
0000
0000
,  // measure 64
0001
0010
0100
1000
0001
0100
0010
0000
,  // measure 65
1000
0100
0010
0001
1000
0010
0100
0000
,  // measure 66
0001
0101
1001
1100
,  // measure 67
1000
0100
1000
0000
0001
0010
0001
0000
,  // measure 68
1000
0000
0001
0000
1000
0000
0001
0000
0000
0000
0000
0000
0100
0000
0000
0000
0000
0000
0010
0000
0000
1000
0000
0000
,  // measure 69
0100
0000
0010
0100
0010
0000
0001
0000
,  // measure 70
1000
0010
0100
0001
1000
0100
0010
0000
,  // measure 71
0001
0000
0000
0100
0000
0000
0001
0000
1000
0000
0000
0000
0100
0000
1000
0000
,  // measure 72
0001
0000
0100
0000
0010
0000
0000
0000
1000
0000
0000
0100
0000
0000
0010
0000
,  // measure 73
0001
0000
0000
1000
0000
0000
0010
0000
0000
0100
0000
0000
0001
0000
1000
0000
,  // measure 74
1001
0110
1001
0110
,  // measure 75
2002
0000
0000
0000
,  // measure 76
0000
0000
0000
3003
,  // measure 77
1000
0100
1000
0000
,  // measure 78
0010
0100
0001
0000
,  // measure 79
0010
0001
1000
0000
,  // measure 80
0100
1000
0010
0000
,  // measure 81
0100
0001
1000
0000
,  // measure 82
0100
0010
0011
1100
,  // measure 83
1000
0010
0100
0001
,  // measure 84
1000
0100
0010
0100
,  // measure 85
1000
0010
0100
0001
,  // measure 86
0010
0001
1000
0010
,  // measure 87
0100
0001
1000
0010
,  // measure 88
0100
0010
1000
0100
,  // measure 89
0010
0010
0001
0001
,  // measure 90
2002
0000
0000
0003
,  // measure 91
0020
0000
0000
3000
,  // measure 92
0200
0000
0000
0030
,  // measure 93
0002
0000
0000
0300
,  // measure 94
1003
0000
0100
1000
0100
0000
1000
0010
,  // measure 95
1000
0000
0010
0100
0010
0000
0100
0001
,  // measure 96
0100
0000
0001
0010
0001
0000
1000
0100
,  // measure 97
0010
0000
0001
1000
0010
0000
0100
0000
,  // measure 98
2002
0000
3003
1001
,  // measure 99
0001
0000
0000
0100
0000
0000
0010
0000
1000
0001
0000
0000
0010
0000
0100
0000
,  // measure 100
1000
0000
0000
0100
0000
0000
1000
0000
0001
0100
0000
0000
0010
0000
1000
0000
,  // measure 101
0100
0000
0000
1000
0000
0000
0001
0000
0100
0010
0000
0000
1000
0000
0001
0000
,  // measure 102
0010
0000
0000
0100
0000
0000
0010
0000
0001
0000
1000
0000
0001
0000
0100
0000
,  // measure 103
0010
0000
0000
1000
0000
0000
0001
0000
0010
0000
0100
0000
0010
0000
0000
0000
,  // measure 104
0001
0100
0010
1000
0001
0010
0100
0000
,  // measure 105
1000
0010
0100
0001
1000
0100
0010
0000
,  // measure 106
0001
0101
1100
0101
,  // measure 107
0100
0010
1000
0000
0001
0010
0100
0000
,  // measure 108
1000
0000
0000
0000
0001
0000
0000
0000
1000
0000
0000
0000
0001
0000
0000
0000
0000
0000
0000
0000
0000
0000
0000
0000
0100
0000
0000
0000
0000
0000
0000
0000
0000
0010
0000
0000
0100
0000
0000
0000
0000
0000
0001
0000
0000
0000
0000
0000
,  // measure 109
1000
0100
1000
0000
0001
0010
0001
0000
,  // measure 110
1000
0010
0100
0001
1000
0100
0010
0000
,  // measure 111
0001
0000
0000
0100
0000
0000
0001
0000
1000
0000
0000
0000
0010
0000
1000
0000
,  // measure 112
0100
0000
0010
0000
0100
0000
0000
0000
1000
0000
0000
0010
0000
0000
0100
0000
,  // measure 113
0001
0000
0000
1000
0000
0000
0100
0000
0010
0001
0000
0000
1000
0000
0010
0000
,  // measure 114
0110
1001
0110
1001
,  // measure 115
1000
0000
0000
0010
0000
0000
0100
0000
0001
1000
0000
0000
0100
0000
0010
0000
,  // measure 116
0001
0000
0000
0010
0000
0000
0001
0000
1000
0010
0000
0000
0100
0000
0001
0000
,  // measure 117
0010
0000
0000
0001
0000
0000
1000
0000
0010
0100
0000
0000
0001
0000
1000
0000
,  // measure 118
0100
0000
0000
0010
0000
0000
0100
0000
1000
0000
0001
0000
1000
0000
0010
0000
,  // measure 119
0100
0000
0000
0001
0000
0000
1000
0000
0100
0000
0010
0000
0100
0000
0000
0000
,  // measure 120
1000
0010
0100
0001
1000
0100
0010
0000
,  // measure 121
0001
0100
0010
1000
0001
0010
0100
0000
,  // measure 122
1000
1010
0011
1010
,  // measure 123
0010
0100
0001
0000
1000
0100
0010
0000
,  // measure 124
0001
0000
0000
0000
1000
0000
0000
0000
0001
0000
0000
0000
1000
0000
0000
0000
0000
0000
0000
0000
0000
0000
0000
0000
0010
0000
0000
0000
0000
0000
0000
0000
0000
0100
0000
0000
0010
0000
0000
0000
0000
0000
1000
0000
0000
0000
0000
0000
,  // measure 125
0001
0010
0001
0000
1000
0100
1000
0000
,  // measure 126
0001
0100
0010
1000
0001
0010
0100
0000
,  // measure 127
1000
0000
0000
0010
0000
0000
1000
0000
0001
0000
0000
0000
0100
0000
0001
0000
,  // measure 128
0010
0000
0100
0000
0010
0000
0000
0000
0001
0000
0000
0100
0000
0000
0010
0000
,  // measure 129
1000
0000
0000
0001
0000
0000
0010
0000
0100
1000
0000
0000
0001
0000
0100
0000
,  // measure 130
0110
1001
0110
1001
,  // measure 131
1000
0100
0010
0001
,  // measure 132
1000
0010
0100
0001
,  // measure 133
1000
0100
0010
0000
0001
0100
0010
0000
,  // measure 134
1000
0001
0010
0001
1000
0010
1000
0200
,  // measure 135
0020
0000
0000
0000
,  // measure 136
0000
0000
0000
0000
,  // measure 137
0330
0000
0000
0000
;

//---------------dance-single - ---------------
#NOTES:
     dance-single:
     :
     Hard:
     17:
     0,0,0,0,0:
// measure 0
0000
0000
0000
0000
,  // measure 1
0000
0000
0000
0000
,  // measure 2
0000
0000
0000
0000
,  // measure 3
0000
0000
0000
0000
,  // measure 4
0000
0000
0000
0000
,  // measure 5
0000
0000
0000
0000
,  // measure 6
0000
0000
0000
0000
,  // measure 7
0000
0000
0000
0000
,  // measure 8
0000
0000
0000
0000
,  // measure 9
1000
0010
0100
0001
1000
0100
0010
0000
,  // measure 10
0001
1000
0010
0100
0001
0010
0100
0000
,  // measure 11
0010
0001
1000
0010
0100
0001
1000
0000
,  // measure 12
0100
0000
1000
0000
1001
0000
0000
0000
0011
0000
0000
1001
0000
0000
1010
0000
,  // measure 13
0010
0100
0001
0010
0001
1000
0010
0010
,  // measure 14
0000
1000
0001
0010
0100
0010
0011
0000
,  // measure 15
0001
0000
1000
0010
0100
0000
0001
1000
,  // measure 16
0100
0000
0000
0000
0010
0000
0000
0000
0001
1000
0001
0000
1000
0001
1000
0000
,  // measure 17
0010
0100
0001
0010
0100
1000
0001
0000
,  // measure 18
1000
0010
1000
0100
0010
0001
1000
0000
,  // measure 19
0010
0100
0001
0100
0010
1000
0100
0000
,  // measure 20
0010
0000
0001
0000
1001
0000
0000
0000
1010
0000
0000
0110
0000
0000
0101
0000
,  // measure 21
0001
1000
0100
0010
0001
1000
0010
0010
,  // measure 22
0000
0100
0001
1000
0100
0010
0011
0000
,  // measure 23
0001
0000
0000
0100
0010
0000
0000
0100
1000
0000
0000
0100
0010
0000
1000
0000
,  // measure 24
0001
0000
0000
0010
0100
0000
0000
0010
1000
0000
0000
0010
0100
0000
1000
0000
,  // measure 25
0002
0000
0000
0000
,  // measure 26
0000
0000
0000
0000
,  // measure 27
0203
0000
0000
0000
,  // measure 28
0310
0000
0000
0010
0000
0000
1000
0000
0001
0000
0010
0000
0100
0000
1000
0000
,  // measure 29
0001
0000
0000
0100
0000
0000
0001
0000
1000
0000
0000
0000
0100
0000
0000
0000
,  // measure 30
0001
0100
0010
0001
1000
0010
0100
0000
,  // measure 31
1000
0100
0010
1000
0001
0010
0100
0000
,  // measure 32
1000
0000
0000
0010
0000
0000
0100
0000
0001
0000
0000
0000
0000
0000
1000
0001
,  // measure 33
1000
0001
0010
0100
,  // measure 34
1000
0000
0000
0000
0010
0000
0000
0000
0100
0000
0000
0000
0001
0000
0000
0000
0000
0000
0000
0000
0000
0000
0000
0000
1000
0000
0000
0000
0000
0000
0000
0000
0000
0100
0000
0000
1000
0000
0000
0000
0000
0000
0010
0000
0000
0000
0000
0000
,  // measure 35
0100
0001
1000
0100
0010
0100
0001
0000
,  // measure 36
0100
1000
0001
0100
0010
0100
1000
0000
,  // measure 37
0100
0000
0000
0010
0000
0000
0100
0000
0000
0000
0000
0000
0000
0000
0001
0000
,  // measure 38
1000
0000
0001
0000
0010
0000
0000
0000
0100
0000
0000
1000
0000
0000
0001
0000
,  // measure 39
0100
0000
0000
0100
0000
0000
0100
0000
0010
0000
0000
0000
1000
0000
0001
0000
,  // measure 40
0020
2030
3020
0032
,  // measure 41
1003
0010
0100
0001
,  // measure 42
0011
1001
1010
1001
,  // measure 43
0001
0000
0010
0000
0100
1000
0010
0000
,  // measure 44
1000
0000
0001
0100
0010
0001
0010
0000
,  // measure 45
1000
0000
0100
0000
0010
0001
1000
0000
,  // measure 46
0010
0000
1000
0100
0010
1000
0010
0000
,  // measure 47
0100
0000
1000
0000
0001
0100
0010
0000
,  // measure 48
0100
0000
0001
0010
0100
0001
0100
0000
,  // measure 49
0010
0000
0001
1000
0010
0000
1000
0001
,  // measure 50
0010
0011
0110
1100
,  // measure 51
1000
0001
0100
0010
1000
0001
0010
0000
,  // measure 52
0001
0100
0010
1000
0100
1000
0010
0000
,  // measure 53
1000
0100
0010
0001
0100
0010
1000
0000
,  // measure 54
0001
0010
0100
0001
0100
1000
0001
0000
,  // measure 55
0100
0010
1000
0001
0100
0001
0010
0000
,  // measure 56
0100
0010
1000
0010
0100
1000
0001
0000
,  // measure 57
1000
0010
0100
0001
1000
0100
0010
0001
,  // measure 58
0100
0010
0001
0010
1000
0100
0001
0100
,  // measure 59
0010
0000
0000
0001
0000
0000
1000
0000
0010
0100
0000
0000
0001
0000
1000
0000
,  // measure 60
0100
0000
0000
0010
0000
0000
0001
0000
1000
0010
0000
0000
0100
0000
1000
0000
,  // measure 61
0100
0000
0000
0010
0000
0000
1000
0000
0001
0010
0000
0000
0100
0000
0001
0000
,  // measure 62
0100
0000
0000
1000
0000
0000
0001
0000
0100
0000
0010
0000
1000
0000
0001
0000
,  // measure 63
0010
0000
0000
0100
0000
0000
0010
0000
0001
0000
1000
0000
0010
0000
0100
0000
,  // measure 64
1000
0100
0010
0100
0001
1000
0100
0010
,  // measure 65
1000
0000
0010
0000
0100
0000
1000
0000
0001
0000
0100
0000
0010
0000
1000
0010
,  // measure 66
1000
1010
1001
0011
,  // measure 67
0001
0100
0010
0100
0001
0010
0100
1000
,  // measure 68
0010
0000
0000
0000
1000
0000
0000
0000
0001
0000
0000
0000
0010
0000
0000
0000
0000
0000
0100
0000
0000
0000
0000
0000
1000
0000
0000
0000
0000
0000
0000
0000
0000
0001
0000
0000
0100
0000
0000
0000
0000
0000
0010
0000
0000
0000
0000
0000
,  // measure 69
0100
0001
1000
0100
0010
0100
0001
0100
,  // measure 70
0010
0001
1000
0010
0100
0010
0001
0010
,  // measure 71
0100
0000
0000
0001
0000
0000
1000
0000
0100
0010
0100
0000
1000
0000
0001
0000
,  // measure 72
0100
0000
0100
0000
0001
1000
0001
0000
0010
0000
0000
0100
0000
0000
1000
0000
,  // measure 73
0001
0000
0000
0100
0000
0000
0001
0000
1000
0100
0000
0000
0010
0000
0100
0000
,  // measure 74
1100
1001
0101
0110
,  // measure 75
2002
0000
0000
0000
,  // measure 76
0000
0000
0000
3003
,  // measure 77
1000
0100
0010
0001
,  // measure 78
0100
0010
0001
0010
,  // measure 79
1000
0001
0010
0100
,  // measure 80
1000
0010
0100
1000
,  // measure 81
0100
0010
1000
0100
,  // measure 82
0010
0001
0011
1100
,  // measure 83
1000
0001
0000
0100
0000
0010
0000
0001
,  // measure 84
0000
0010
0000
0100
0000
0001
0000
1000
,  // measure 85
0100
0010
0000
0100
0000
0001
0000
0100
,  // measure 86
0000
0010
0000
0001
0000
0100
0000
0010
,  // measure 87
1000
0100
0000
0010
0000
1000
0000
0010
,  // measure 88
0100
0000
1000
0000
0000
0000
0001
0000
0100
0000
0010
0000
0000
0000
1000
0001
,  // measure 89
1000
0000
0100
0000
0010
0000
0001
0100
,  // measure 90
0002
0010
0010
0010
,  // measure 91
2003
0010
0010
0010
,  // measure 92
3002
0100
0100
0100
,  // measure 93
2003
0100
0100
0100
,  // measure 94
3001
0000
0000
0010
0001
0000
1000
0000
0010
0000
0000
0100
0010
0000
1000
0000
,  // measure 95
0001
0000
0000
0010
0001
0000
1000
0000
0100
0000
0000
0010
0100
0000
1000
0000
,  // measure 96
0010
0100
1000
0100
0010
1000
0001
0010
,  // measure 97
0100
0001
0100
1000
0001
0100
0010
1000
,  // measure 98
2002
0000
3003
1001
,  // measure 99
0001
0000
0000
0010
0000
0000
0100
0000
0010
0001
0000
0000
0100
0000
0010
0000
,  // measure 100
1000
0000
0000
0001
0000
0000
0010
0000
0100
0010
0000
0000
0001
0000
1000
0000
,  // measure 101
0010
0000
0000
0100
0000
0000
0001
0000
1000
0100
0000
0000
1000
0000
0001
0000
,  // measure 102
0100
0000
0001
1000
0001
0000
0010
0000
0100
0000
1000
0000
0010
0000
0100
0000
,  // measure 103
0001
0000
0000
0010
0000
0000
0001
0000
0100
0000
0010
0000
1000
0000
0100
0000
,  // measure 104
0001
0100
0010
0001
1000
0010
0100
0010
,  // measure 105
0001
0000
0010
0000
0100
0000
0001
0000
1000
0000
0100
0000
0010
0000
0001
1000
,  // measure 106
0001
0101
1100
0101
,  // measure 107
0001
0010
0001
0100
0010
1000
0100
0010
,  // measure 108
0001
0000
0000
0000
0100
0000
0000
0000
0010
0000
0000
0000
1000
0000
0000
0000
0000
0000
0001
0000
0000
0000
0000
0000
0010
0000
0000
0000
0000
0000
0000
0000
0000
0001
0000
0000
1000
0000
0000
0000
0000
0000
0001
0000
0000
0000
0000
0000
,  // measure 109
0100
0010
1000
0001
0010
0100
0001
0100
,  // measure 110
0010
0100
1000
0001
0100
0010
0001
0010
,  // measure 111
0100
0000
0000
0001
0000
0000
1000
0000
0100
0010
0100
0000
1000
0000
0010
0000
,  // measure 112
0100
0000
0001
0000
1000
0100
1000
0000
0010
0000
0000
0001
0000
0000
0010
0000
,  // measure 113
0100
0000
0000
0001
0000
0000
0010
0000
0001
1000
0000
0000
0010
0000
0100
0000
,  // measure 114
0110
0101
0011
1010
,  // measure 115
1000
0000
0000
0100
0000
0000
0010
0000
0100
1000
0000
0000
0010
0000
0100
0000
,  // measure 116
0001
0000
0000
1000
0000
0000
0100
0000
0010
0100
0000
0000
1000
0000
0001
0000
,  // measure 117
0100
0000
0000
0010
0000
0000
1000
0000
0001
0010
0000
0000
0001
0000
1000
0000
,  // measure 118
0010
0000
1000
0001
1000
0000
0100
0000
0010
0000
0001
0000
0100
0000
0010
0000
,  // measure 119
1000
0000
0000
0100
0000
0000
1000
0000
0010
0000
0100
0000
0001
0000
0010
0000
,  // measure 120
1000
0010
0100
1000
0001
0100
0010
0100
,  // measure 121
1000
0000
0100
0000
0010
0000
1000
0000
0001
0000
0010
0000
0100
0000
1000
0001
,  // measure 122
1000
1010
0011
1010
,  // measure 123
1000
0100
1000
0010
0100
0001
0010
0100
,  // measure 124
1000
0000
0000
0000
0010
0000
0000
0000
0100
0000
0000
0000
0001
0000
0000
0000
0000
0000
1000
0000
0000
0000
0000
0000
0100
0000
0000
0000
0000
0000
0000
0000
0000
1000
0000
0000
0001
0000
0000
0000
0000
0000
1000
0000
0000
0000
0000
0000
,  // measure 125
0010
0100
0001
1000
0100
0010
1000
0010
,  // measure 126
0100
0010
0001
1000
0010
0100
1000
0100
,  // measure 127
0010
0000
0000
1000
0000
0000
0001
0000
0010
0100
0010
0000
0001
0000
0100
0000
,  // measure 128
0010
0000
1000
0000
0001
0010
0001
0000
0100
0000
0000
1000
0000
0000
0100
0000
,  // measure 129
0001
0000
0000
0010
0000
0000
0100
0000
1000
0001
0000
0000
0100
0000
0001
0000
,  // measure 130
0011
0101
1010
1100
,  // measure 131
0100
0010
0001
0000
1000
0010
0100
0000
,  // measure 132
1000
0100
0001
0000
1000
0100
0010
0000
,  // measure 133
1000
0010
0100
1000
0001
0100
0010
1000
,  // measure 134
0001
0000
0010
0001
0010
0000
0001
0000
1000
0000
0010
1000
0010
0000
0100
0000
,  // measure 135
2002
0000
0000
0000
,  // measure 136
0000
0000
0000
0000
,  // measure 137
3003
0000
0000
0000
;

//---------------dance-single - ---------------
#NOTES:
     dance-single:
     :
     Challenge:
     19:
     0,0,0,0,0:
// measure 0
0000
0000
0000
0000
,  // measure 1
0000
0000
0000
0000
,  // measure 2
0000
0000
0000
0000
,  // measure 3
0000
0000
0000
0000
,  // measure 4
0000
0000
0000
0000
,  // measure 5
0000
0000
0000
0000
,  // measure 6
0000
0000
0000
0000
,  // measure 7
0000
0000
0000
0000
,  // measure 8
0000
0000
0000
0000
,  // measure 9
1000
0010
0100
0001
0010
0001
1000
0010
,  // measure 10
0100
0001
0010
0100
0001
0100
0010
0001
,  // measure 11
1001
0000
1000
0010
1000
0100
0010
1000
,  // measure 12
0010
0000
0100
0000
1100
0000
0000
0000
1001
0000
0000
0101
0000
0000
0110
0000
,  // measure 13
0010
1000
0100
0010
0001
1000
0010
0010
,  // measure 14
0000
0100
0100
0001
0001
0010
0011
0000
,  // measure 15
0001
1000
0010
0100
0101
0000
0001
0010
,  // measure 16
0110
0000
0000
0000
1001
0000
0000
0000
1000
0100
0010
0001
1000
0100
0010
0001
,  // measure 17
1000
0010
0100
0010
1000
0001
0010
0100
,  // measure 18
1000
0010
0100
0010
0001
0010
0100
0001
,  // measure 19
1000
0100
0010
0001
0100
0010
0100
1000
,  // measure 20
0100
0000
0010
0000
1010
0000
0000
0000
1001
0000
0000
0011
0000
0000
0110
0000
,  // measure 21
0100
1000
0010
1000
0100
0010
0001
0001
,  // measure 22
0000
0100
0100
0010
0010
1000
1010
0000
,  // measure 23
0001
0000
0010
0000
0100
0000
0010
0001
1000
0000
0010
0000
0100
0000
0010
1000
,  // measure 24
0001
0000
0010
0000
0100
0000
1000
0001
0100
0000
0010
0000
1000
0000
0001
0010
,  // measure 25
0100
0000
0000
0100
0000
0000
0100
0000
1000
0001
0000
0000
0001
0000
0001
0000
,  // measure 26
0100
0000
0000
0100
0000
0000
0100
0000
0010
1000
0000
0000
1000
0000
1000
0000
,  // measure 27
0100
0000
0000
0100
0000
0000
0100
0000
1000
0001
0000
0000
0001
0000
0001
0000
,  // measure 28
0100
0000
0000
0100
0000
0000
0100
0000
0001
0000
0010
0000
0100
0000
1000
0000
,  // measure 29
0010
0000
0000
0010
0000
0000
0010
0000
1000
0001
0000
0000
0010
0000
0100
0000
,  // measure 30
1000
1000
0001
0001
0100
0100
0010
1000
,  // measure 31
0100
0100
1000
1000
0001
0001
0100
0010
,  // measure 32
1000
0000
0000
1000
0000
0000
1000
0000
0001
0100
0000
0000
0100
0000
0100
0000
,  // measure 33
0010
1000
0001
0010
0100
0010
0001
1000
,  // measure 34
0010
0000
0000
0000
0100
0000
0000
0000
0001
0000
0000
0000
1000
0000
0000
0000
0000
0000
1000
0000
0000
0000
0000
0000
0100
0000
0000
0000
0000
0000
0000
0000
0000
0100
0000
0000
0010
0000
0000
0000
0000
0000
0001
0000
0000
0000
0000
0000
,  // measure 35
0100
0001
1000
0100
1000
0010
0100
0001
,  // measure 36
0010
0010
0100
0100
1000
1000
0010
0010
,  // measure 37
0100
0000
0000
0100
0000
0000
0100
0000
0001
0000
0010
0000
0010
0000
0001
0100
,  // measure 38
0010
0000
0010
0000
1000
0000
1000
0000
0100
0000
0000
0100
0000
0000
0100
0000
,  // measure 39
1000
0000
0000
1000
0000
0000
1000
0000
0010
0100
0000
0000
0100
0000
0001
0000
,  // measure 40
0020
2030
3020
0032
,  // measure 41
1003
0000
0010
0000
1000
0000
0100
0010
0001
0000
0100
0000
0001
0000
0010
0100
,  // measure 42
1000
0000
0010
0000
1000
0000
0100
0010
0001
0000
0100
0010
1000
0001
0010
0000
,  // measure 43
0100
0000
1100
0000
1000
0010
0110
0000
,  // measure 44
0100
0001
0010
0001
1000
0000
1010
0010
,  // measure 45
0100
0000
0101
0000
0001
0010
0110
0000
,  // measure 46
0100
1000
0010
1000
0100
0000
0110
0010
,  // measure 47
0001
0000
1001
0000
1000
0010
0110
0000
,  // measure 48
0100
0001
1000
0100
0010
0000
0011
0001
,  // measure 49
1000
0000
1010
1000
0100
0000
0110
0010
,  // measure 50
0001
0000
1000
0010
1000
0000
0001
0100
0001
0000
0010
0100
0010
0000
0001
0000
,  // measure 51
1000
0100
1000
0010
0100
0001
0011
0000
,  // measure 52
0001
0010
0100
0010
0001
1000
1010
0000
,  // measure 53
1000
0100
0010
0100
1000
0010
0110
0000
,  // measure 54
0100
0001
1000
0100
0010
0001
0011
0000
,  // measure 55
0001
0100
0010
0001
0010
0100
0110
0000
,  // measure 56
0010
1000
0100
0010
1000
0010
0110
0000
,  // measure 57
0010
0000
0001
0000
0100
0000
0010
0000
1000
0000
0010
0100
0010
0000
1000
0001
,  // measure 58
1000
0000
0100
0010
0001
0000
1000
0010
0100
0010
1000
0000
0001
0000
0010
0000
,  // measure 59
0001
1000
0000
0010
0100
0000
0001
1000
0100
0010
0000
0000
0001
0000
0001
0000
,  // measure 60
1000
0010
0000
0100
0001
0000
1000
0100
0010
0001
0000
0000
1000
0000
1000
0000
,  // measure 61
0001
0100
0000
0010
1000
0000
0001
0000
1000
0100
0000
0010
0001
0000
0001
0000
,  // measure 62
0100
0010
0000
1000
0001
0000
0010
0100
0010
0000
0001
0000
0100
0000
0010
0000
,  // measure 63
1000
0001
0000
0010
0001
0000
1000
0010
0100
0000
0100
0000
0001
0000
0001
0000
,  // measure 64
1000
0100
1000
0000
0010
1000
0010
0000
0100
0010
0100
0000
0001
0100
0001
0000
,  // measure 65
0010
0001
0010
0000
0001
1000
0001
0000
0100
0010
0100
0000
0010
1000
0010
0000
,  // measure 66
1000
0000
0000
0100
0010
0000
0001
0000
1000
0010
0100
0000
0001
0000
0001
0000
,  // measure 67
1000
0100
0010
0000
0100
0000
0100
0000
1000
0000
0010
1000
0001
0000
0100
0000
,  // measure 68
0001
0000
0000
0000
0010
0000
0000
0000
0100
0000
0000
0000
1000
0000
0000
0000
0000
0000
0010
0000
0000
0000
0000
0000
0100
0000
0000
0000
0000
0000
0000
0000
0000
0001
0000
0000
0010
0000
0000
0000
0000
0000
0001
0000
0000
0000
0000
0000
,  // measure 69
1000
1000
0010
1000
0001
0001
0010
0100
,  // measure 70
1000
0010
1000
0000
0001
0100
0001
0000
1000
0100
1000
0000
0001
0010
0001
0000
,  // measure 71
1000
0010
0000
0100
0001
0000
1000
0100
0010
0100
1000
0000
0001
0000
0100
0000
,  // measure 72
0010
0000
0010
0000
1000
0001
1000
0000
0100
0010
0000
0001
0100
0000
0010
0000
,  // measure 73
1000
0001
0000
0010
0001
0000
0100
0000
0010
1000
0001
0000
0010
0000
0100
0000
,  // measure 74
1000
0000
0001
0100
0001
0000
1000
0010
1000
0000
0100
0010
0100
0000
1000
0002
,  // measure 75
2000
0000
0000
0000
,  // measure 76
0000
0000
0000
3003
,  // measure 77
0001
0000
0100
0000
0001
0000
1000
0100
,  // measure 78
0010
0000
1000
0010
0001
0000
1000
0010
,  // measure 79
0100
0000
0010
0000
1000
0000
0001
0010
,  // measure 80
0100
0000
0001
0100
1000
0000
0001
0100
,  // measure 81
0010
0000
1000
0000
0100
1000
0001
0000
,  // measure 82
0100
0010
1000
0001
0010
0000
0110
0000
,  // measure 83
1001
1000
0010
0100
0001
0010
0100
1000
,  // measure 84
0010
0100
1000
0100
0001
1000
0100
0010
,  // measure 85
0011
0001
1000
0010
0001
0010
0100
0001
,  // measure 86
1000
0100
0010
1000
0010
0100
0010
0001
,  // measure 87
1001
1000
0010
0100
1000
0100
0010
1000
,  // measure 88
1001
0000
0001
0000
0010
0000
0100
0000
0110
0000
0010
0000
0001
0000
1000
0010
,  // measure 89
0100
0010
0001
0010
1000
0001
0010
0100
,  // measure 90
2000
0100
0100
0100
,  // measure 91
3002
0100
0100
0100
,  // measure 92
2003
0010
0010
0010
,  // measure 93
3002
0000
0010
0000
0010
0000
0010
0010
,  // measure 94
0013
0000
0000
0001
1000
0000
0010
0000
0100
0000
0100
0000
0001
0000
1000
0000
,  // measure 95
0100
0000
0000
1000
0010
0000
0100
0000
0001
0000
0001
0000
1000
0000
0100
0000
,  // measure 96
0010
0000
0001
1000
0010
0000
1000
0001
0010
0000
0001
0000
0100
0000
0001
1000
,  // measure 97
0100
0000
0100
0000
0010
0000
0010
0001
0010
0000
0100
1000
0001
0100
0010
2000
,  // measure 98
0002
0000
3003
1001
,  // measure 99
1000
0100
0000
0010
0001
0000
1000
0010
0100
0001
0000
0000
0010
0000
0010
0000
,  // measure 100
0001
1000
0000
0010
0100
0000
0001
1000
0100
0010
0000
0000
0001
0000
0001
0000
,  // measure 101
0100
0010
0000
1000
0100
0000
1000
0000
0010
0100
0000
0001
0010
0000
0010
0000
,  // measure 102
0100
1000
0000
0001
0100
0000
0010
1000
0001
0000
0010
0000
0100
0000
1000
0000
,  // measure 103
0010
1000
0000
0001
0010
0000
0100
0000
1000
0000
1000
0000
0010
0000
0010
0000
,  // measure 104
0100
0001
0100
0000
0001
1000
0001
0000
0010
0100
0010
0000
0001
0100
0001
0000
,  // measure 105
1000
0100
1000
0000
0010
0100
0010
0000
1000
0001
1000
0000
0100
0010
0100
0000
,  // measure 106
1000
0000
0001
0010
0000
0100
1000
0000
0001
0100
0010
0100
0001
0000
0010
0000
,  // measure 107
0100
1000
0001
0000
0100
0000
0100
0000
0001
0000
0001
1000
0010
0000
0010
0000
,  // measure 108
0100
0000
0000
0000
0001
0000
0000
0000
0010
0000
0000
0000
0100
0000
0000
0000
0000
0000
1000
0000
0000
0000
0000
0000
1000
0000
0000
0000
0000
0000
0000
0000
0000
0001
0000
0000
0100
0000
0000
0000
0000
0000
0010
0000
0000
0000
0000
0000
,  // measure 109
1000
0000
1000
0000
0100
0010
0100
0000
1000
0000
1000
0000
0010
0100
0010
0000
,  // measure 110
0100
0001
1000
0000
0100
1000
0001
0000
0010
0001
1000
0000
0010
1000
0001
0000
,  // measure 111
0010
0100
0000
1000
0010
0000
0100
0001
1000
0100
0010
0001
1000
0000
0010
0000
,  // measure 112
0010
0100
0010
0000
1000
0000
0001
0000
0010
0000
0100
1000
0000
0001
0100
0000
,  // measure 113
0010
0000
1000
0001
0010
0000
0100
0000
1000
0001
0100
0010
1000
0000
0100
0000
,  // measure 114
0010
0000
0010
0001
1000
0000
1000
0010
0100
0001
0100
0010
1000
0100
0010
0001
,  // measure 115
1000
0100
0000
0010
0001
0000
1000
0010
0100
0001
0000
0000
0010
0000
0010
0000
,  // measure 116
0001
1000
0000
0010
0100
0000
0001
1000
0100
0010
0000
0000
0001
0000
0001
0000
,  // measure 117
0100
0010
0000
1000
0100
0000
1000
0000
0010
0100
0000
0001
0010
0000
0010
0000
,  // measure 118
0100
1000
0000
0001
0100
0000
0010
1000
0001
0000
0010
0000
0100
0000
1000
0000
,  // measure 119
0010
1000
0000
0001
0010
0000
0100
0000
1000
0000
1000
0000
0001
0000
0001
0000
,  // measure 120
0100
0001
0100
0000
0001
1000
0001
0000
0010
0100
0010
0000
0001
0100
0001
0000
,  // measure 121
1000
0100
1000
0000
0010
0100
0010
0000
1000
0001
1000
0000
0100
0010
0100
0000
,  // measure 122
1000
0000
0001
0010
0000
0100
1000
0000
0001
0100
0010
0100
0001
0000
0010
0000
,  // measure 123
0100
1000
0001
0000
0100
0000
0100
0000
0001
0000
0001
1000
0010
0000
0010
0000
,  // measure 124
0100
0000
0000
0000
0001
0000
0000
0000
0010
0000
0000
0000
0100
0000
0000
0000
0000
0000
1000
0000
0000
0000
0000
0000
1000
0000
0000
0000
0000
0000
0000
0000
0000
0001
0000
0000
0100
0000
0000
0000
0000
0000
0010
0000
0000
0000
0000
0000
,  // measure 125
1000
0000
1000
0000
0100
0010
0100
0000
1000
0000
1000
0000
0010
0100
0010
0000
,  // measure 126
0100
0001
1000
0000
0100
1000
0001
0000
0010
0001
1000
0000
0010
1000
0001
0000
,  // measure 127
0010
0100
0000
1000
0010
0000
0100
0001
1000
0100
0010
0001
1000
0000
0010
0000
,  // measure 128
0010
0100
0010
0000
1000
0000
0001
0000
0010
0000
0100
1000
0000
0001
0100
0000
,  // measure 129
0010
0000
1000
0001
0000
0010
0100
0000
1000
0010
1000
0000
0001
0000
0010
0000
,  // measure 130
0100
0000
0100
1000
0001
0000
0001
0100
0010
0000
0010
0000
1000
0001
0010
0100
,  // measure 131
1000
0100
1000
0010
0100
1000
0100
0001
,  // measure 132
0010
0100
0001
0100
0010
0001
1000
0010
,  // measure 133
0100
0001
0100
0000
0001
1000
0001
0000
1000
0100
1000
0000
0001
0010
0001
0000
,  // measure 134
1000
0010
0100
0001
1000
0100
1000
0001
0100
0001
0010
0100
1000
0001
0100
0010
,  // measure 135
2000
0000
0000
0000
,  // measure 136
0000
0000
0000
0000
,  // measure 137
3000
0000
0000
0000
;
2000
0000
0000
0000
,  // measure 136
0000
0000
0000
0000
,  // measure 137
3000
0000
0000
0000
;
