#VERSION:0.83;
#TITLE:Forged In Darkest Abyss;
#SUBTITLE:;
#ARTIST:Codly;
#TITLETRANSLIT:;
#SUBTITLETRANSLIT:;
#ARTISTTRANSLIT:;
#GENRE:;
#ORIGIN:;
#CREDIT:;
#BANNER:bn.png;
#BACKGROUND:bg.png;
#PREVIEWVID:;
#JACKET:jkt.png;
#CDIMAGE:;
#DISCIMAGE:black.png;
#LYRICSPATH:;
#CDTITLE:;
#MUSIC:audio.ogg;
#OFFSET:0.000000;
#SAMPLESTART:35.917000;
#SAMPLELENGTH:12.000000;
#SELECTABLE:YES;
#BPMS:0.000=167.000;
#STOPS:;
#DELAYS:;
#WARPS:;
#TIMESIGNATURES:0.000=4=4;
#TICKCOUNTS:0.000=4;
#COMBOS:0.000=1;
#SPEEDS:0.000=0.500=0.000=0,
2.000=0.504=0.250=0,
2.250=0.531=0.250=0,
2.500=0.605=0.250=0,
2.750=0.750=0.250=0,
3.000=0.895=0.250=0,
3.250=0.969=0.250=0,
3.500=0.996=0.250=0,
3.750=1.000=0.250=0,
60.000=0.999=0.500=0,
60.500=0.988=0.500=0,
61.000=0.960=0.500=0,
61.500=0.906=0.500=0,
62.000=0.817=0.500=0,
62.500=0.684=0.500=0,
63.000=0.498=0.500=0,
63.500=0.250=0.500=0,
64.000=0.498=0.500=0,
64.500=0.684=0.500=0,
65.000=0.817=0.500=0,
65.500=0.906=0.500=0,
66.000=0.960=0.500=0,
66.500=0.988=0.500=0,
67.000=0.999=0.500=0,
67.500=1.000=0.500=0,
80.000=1.000=0.125=0,
80.125=0.997=0.125=0,
80.250=0.989=0.125=0,
80.375=0.975=0.125=0,
80.500=0.951=0.125=0,
80.625=0.916=0.125=0,
80.750=0.866=0.125=0,
80.875=0.800=0.125=0,
81.000=0.734=0.125=0,
81.125=0.684=0.125=0,
81.250=0.649=0.125=0,
81.375=0.625=0.125=0,
81.500=0.611=0.125=0,
81.625=0.603=0.125=0,
81.750=0.600=0.125=0,
83.500=0.603=0.125=0,
83.625=0.625=0.125=0,
83.750=0.684=0.125=0,
83.875=0.800=0.125=0,
84.000=0.916=0.125=0,
84.125=0.975=0.125=0,
84.250=0.997=0.125=0,
84.375=1.000=0.125=0,
154.000=0.894=0.125=0,
154.125=0.802=0.125=0,
154.250=0.722=0.125=0,
154.375=0.653=0.125=0,
154.500=0.595=0.125=0,
154.625=0.546=0.125=0,
154.750=0.507=0.125=0,
154.875=0.475=0.125=0,
155.000=0.450=0.125=0,
155.125=0.432=0.125=0,
155.250=0.418=0.125=0,
155.375=0.409=0.125=0,
155.500=0.404=0.125=0,
155.625=0.401=0.125=0,
155.750=0.400=0.125=0,
156.833=0.611=0.062=0,
156.896=0.748=0.062=0,
156.958=0.837=0.062=0,
157.021=0.894=0.062=0,
157.083=0.932=0.062=0,
157.146=0.956=0.062=0,
157.208=0.972=0.062=0,
157.271=0.982=0.062=0,
157.333=0.988=0.062=0,
157.396=0.993=0.062=0,
157.458=0.995=0.062=0,
157.521=0.997=0.062=0,
157.583=0.998=0.062=0,
157.646=0.999=0.062=0,
157.708=1.000=0.062=0,
196.000=0.999=0.375=0,
196.375=0.995=0.375=0,
196.750=0.984=0.375=0,
197.125=0.962=0.375=0,
197.500=0.927=0.375=0,
197.875=0.873=0.375=0,
198.250=0.799=0.375=0,
198.625=0.700=0.375=0,
199.000=0.601=0.375=0,
199.375=0.527=0.375=0,
199.750=0.473=0.375=0,
200.125=0.438=0.375=0,
200.500=0.416=0.375=0,
200.875=0.405=0.375=0,
201.250=0.401=0.375=0,
201.625=0.400=0.375=0,
264.000=0.550=1.000=0,
265.000=0.700=1.000=0,
266.000=0.850=1.000=0,
267.000=1.000=1.000=0,
298.000=0.900=0.250=0,
298.250=0.800=0.250=0,
298.500=0.700=0.250=0,
298.750=0.600=0.250=0,
299.000=0.500=0.250=0,
299.250=0.400=0.250=0,
299.500=0.300=0.250=0,
299.750=0.200=0.250=0,
300.000=0.241=0.188=0,
300.188=0.281=0.188=0,
300.375=0.322=0.188=0,
300.562=0.363=0.188=0,
300.750=0.403=0.188=0,
300.938=0.444=0.188=0,
301.125=0.484=0.188=0,
301.312=0.525=0.188=0,
301.500=0.566=0.188=0,
301.688=0.606=0.188=0,
301.875=0.647=0.188=0,
302.062=0.688=0.188=0,
302.250=0.728=0.188=0,
302.438=0.769=0.188=0,
302.625=0.809=0.188=0,
302.812=0.850=0.188=0,
303.000=0.891=0.188=0,
303.188=0.931=0.188=0,
303.375=0.972=0.188=0,
303.562=1.013=0.188=0,
303.750=1.053=0.188=0,
303.938=1.094=0.188=0,
304.125=1.134=0.188=0,
304.312=1.175=0.188=0,
304.500=1.216=0.188=0,
304.688=1.256=0.188=0,
304.875=1.297=0.188=0,
305.062=1.337=0.188=0,
305.250=1.378=0.188=0,
305.438=1.419=0.188=0,
305.625=1.459=0.188=0,
305.812=1.500=0.188=0,
306.000=1.250=0.062=0,
306.062=1.000=0.062=0,
306.125=0.750=0.062=0,
306.188=0.500=0.062=0,
306.250=0.545=0.086=0,
306.333=0.588=0.086=0,
306.417=0.628=0.086=0,
306.500=0.665=0.086=0,
306.583=0.700=0.086=0,
306.688=0.732=0.086=0,
306.771=0.762=0.086=0,
306.854=0.789=0.086=0,
306.938=0.814=0.086=0,
307.021=0.838=0.086=0,
307.104=0.859=0.086=0,
307.188=0.878=0.086=0,
307.292=0.895=0.086=0,
307.375=0.911=0.086=0,
307.458=0.925=0.086=0,
307.542=0.938=0.086=0,
307.625=0.949=0.086=0,
307.708=0.958=0.086=0,
307.792=0.966=0.086=0,
307.875=0.974=0.086=0,
307.958=0.980=0.086=0,
308.062=0.985=0.086=0,
308.146=0.989=0.086=0,
308.229=0.992=0.086=0,
308.312=0.995=0.086=0,
308.396=0.997=0.086=0,
308.479=0.998=0.086=0,
308.562=0.999=0.086=0,
308.667=1.000=0.086=0,
312.000=0.752=0.125=0,
312.125=0.566=0.125=0,
312.250=0.433=0.125=0,
312.375=0.344=0.125=0,
312.500=0.290=0.125=0,
312.625=0.262=0.125=0,
312.750=0.251=0.125=0,
312.875=0.250=0.125=0,
313.000=0.250=0.250=0,
313.250=0.253=0.250=0,
313.500=0.262=0.250=0,
313.750=0.278=0.250=0,
314.000=0.304=0.250=0,
314.250=0.344=0.250=0,
314.500=0.399=0.250=0,
314.750=0.472=0.250=0,
315.000=0.566=0.250=0,
315.250=0.684=0.250=0,
315.500=0.828=0.250=0,
315.750=1.000=0.250=0,
380.000=0.973=1.000=0,
381.000=0.947=1.000=0,
382.000=0.923=1.000=0,
383.000=0.901=1.000=0,
384.000=0.880=1.000=0,
385.000=0.861=1.000=0,
386.000=0.843=1.000=0,
387.000=0.827=1.000=0,
388.000=0.811=1.000=0,
389.000=0.797=1.000=0,
390.000=0.785=1.000=0,
391.000=0.773=1.000=0,
392.000=0.763=1.000=0,
393.000=0.753=1.000=0,
394.000=0.745=1.000=0,
395.000=0.738=1.000=0,
396.000=0.731=1.000=0,
397.000=0.725=1.000=0,
398.000=0.720=1.000=0,
399.000=0.716=1.000=0,
400.000=0.712=1.000=0,
401.000=0.709=1.000=0,
402.000=0.707=1.000=0,
403.000=0.705=1.000=0,
404.000=0.703=1.000=0,
405.000=0.702=1.000=0,
406.000=0.701=1.000=0,
408.000=0.700=1.000=0;
#SCROLLS:0.000=1.000;
#FAKES:;
#LABELS:0.000=Song Start;
#BGCHANGES:62.000=stars.png=1.000=1=0=1===CrossFade==,
316.000=bg.png=1.000=1=0=1===CrossFade==,
379.000=stars.png=1.000=1=0=1===CrossFade==,
99999=-nosongbg-=1.000=0=0=0 // don't automatically add -songbackground-
;
#FGCHANGES:0.000=lua=1.000=0=0=1=====,
;
#KEYSOUNDS:;
#ATTACKS:
;

//---------------dance-single - TaroNuke----------------
#NOTEDATA:;
#CHARTNAME:TaroNuke;
#STEPSTYPE:dance-single;
#DESCRIPTION:TaroNuke;
#CHARTSTYLE:;
#DIFFICULTY:Beginner;
#METER:8;
#RADARVALUES:0.290575,0.377337,0.246751,0.233413,0.046683,305.000000,268.000000,37.000000,35.000000,0.000000,0.000000,0.000000,0.000000,0.000000,0.290575,0.377337,0.246751,0.233413,0.046683,305.000000,268.000000,37.000000,35.000000,0.000000,0.000000,0.000000,0.000000,0.000000;
#CREDIT:TaroNuke;
#NOTES:
0000
0000
0000
0000
,
1100
0000
0001
0000
,
1000
0000
0001
0000
,
0101
0000
1000
0000
,
0001
0000
1000
0000
,
1010
0000
1000
0000
,
0001
0000
1000
0000
,
0011
0000
0001
0000
,
2000
0000
3000
0000
,
1001
0000
0000
0000
0001
0000
0000
0000
1000
0000
0000
0100
0000
0000
0010
0000
,
0001
1000
0001
0000
,
1001
0000
0000
0000
1000
0000
0000
0000
0001
0000
0000
0100
0000
0000
0010
0000
,
1000
0001
1000
0000
,
0001
0001
0100
0100
,
1000
1000
0010
0010
,
0002
0000
0000
0000
,
0003
0000
0000
0000
,
1100
0000
1000
0000
0000
0001
0000
0000
,
0101
0000
0100
0000
0000
0010
0000
0000
,
1010
0000
1000
0000
0000
0001
0000
0000
,
0011
0010
0000
0000
,
0011
0000
0001
0000
0000
1000
0000
0000
,
1010
0000
0010
0000
0000
0100
0000
0000
,
0101
0000
0001
0000
0000
1000
0000
0000
,
1100
0000
0100
0000
0000
1001
0000
0000
,
1000
1000
0001
0001
,
0010
0000
0100
0000
1000
0001
1000
0000
,
0001
0001
1000
1000
,
0010
0100
0001
0000
,
1000
0100
0001
0100
,
1000
0000
0001
0000
1000
0100
1000
0000
,
0001
0100
1000
0100
,
0001
0000
1000
0000
0001
0100
0001
0000
,
1001
0000
0000
0000
0000
0000
0000
0000
1000
0000
0000
0100
0000
0000
1000
0000
,
0000
0100
0000
0000
0000
0000
0000
0000
2002
0000
0000
0000
3003
0000
0000
0000
,
2000
0000
0000
0000
3000
0000
0000
0000
0001
0000
0000
0100
0000
0000
0001
0000
,
0000
0100
0000
0000
0000
0000
0000
0000
2002
0000
0000
0000
3003
0000
0000
0000
,
0001
1000
0001
0000
0011
0000
0000
0010
,
0000
0001
0000
0000
2020
0000
0000
0000
,
3030
0000
1000
0000
,
0001
0010
0200
0300
,
1001
0000
0000
0000
0000
0000
0000
0000
1000
0000
0000
0100
0000
0000
1000
0000
,
0000
0100
0000
0000
2000
0000
0000
0000
3001
0000
0000
0000
0000
0000
0000
0000
,
1001
0000
0000
0000
0000
0000
0000
0000
0001
0000
0000
0010
0000
0000
0001
0000
,
0000
0010
0000
0000
0002
0000
0000
0000
1003
0000
0000
0000
0000
0000
0000
0000
,
1001
0000
0000
0000
0000
0000
0000
0000
1000
0000
0000
0010
0000
0000
1000
0000
,
0000
0010
0000
0000
2000
0000
0000
0000
3001
0000
0000
0000
0000
0000
0000
0000
,
1001
0000
0000
0000
0000
0000
0000
0000
0001
0000
0000
0010
0000
0000
0100
0000
,
0000
1000
0000
0000
0002
0000
0000
0000
0103
0000
0000
0000
0000
0000
0000
0000
,
2002
0000
0000
0000
,
0000
0000
3003
0000
,
2000
0000
0000
0000
,
0000
0000
0000
0000
,
3020
0000
0000
0000
,
0000
0000
0000
0000
,
0230
0000
0000
0000
,
0000
0000
0000
0000
,
0302
0000
0000
0000
,
0000
0000
0000
0000
,
0023
0000
0000
0000
,
0230
0000
0000
0000
,
2300
0000
0000
0000
,
3002
0000
0000
0000
,
0203
0000
0000
0000
,
0320
0000
0000
0000
,
2030
0000
0000
0000
,
3002
0000
0000
0000
,
1003
0100
0010
0001
,
1000
0010
0100
0010
,
1000
0001
0010
0100
,
1000
0000
0000
0000
,
0201
0000
0310
0000
,
1200
0000
0310
0000
,
0021
0000
0130
0000
,
1020
0000
0130
0000
,
2002
0000
0000
0000
,
0000
0000
3003
0000
,
0100
0000
0000
0000
,
0010
0000
0000
0000
,
1001
1000
0010
0100
,
0001
0010
0100
0000
,
1001
0001
0010
0100
,
1000
0010
0100
0000
,
0101
0100
0010
1000
,
0001
0010
0100
0000
,
1100
0100
0010
0001
,
0100
0000
0010
0000
1000
0001
1000
0000
,
0001
0001
1000
1000
,
0010
0000
0100
0000
0001
1000
0001
0000
,
1000
1000
0001
0001
,
0010
0000
0100
0000
1000
0001
1000
0000
,
0001
0100
1000
0100
,
0001
0000
1000
0000
0100
0010
0100
0000
,
1000
0010
0001
0010
,
1000
0000
0001
0000
0010
0100
0010
0100
,
1000
0000
0001
0000
,
1000
0000
0001
0000
,
1100
0000
1000
0000
,
0001
0000
1000
0000
,
0011
0000
0001
0000
,
1000
0000
0001
0000
,
1010
0000
1000
0000
,
0001
0000
0000
0000
2000
0000
0000
3000
;

//---------------dance-single - TaroNuke----------------
#NOTEDATA:;
#CHARTNAME:TaroNuke;
#STEPSTYPE:dance-single;
#DESCRIPTION:TaroNuke;
#CHARTSTYLE:;
#DIFFICULTY:Easy;
#METER:12;
#RADARVALUES:0.469683,0.624212,0.380129,0.546853,0.070024,493.000000,436.000000,57.000000,82.000000,0.000000,0.000000,0.000000,0.000000,0.000000,0.469683,0.624212,0.380129,0.546853,0.070024,493.000000,436.000000,57.000000,82.000000,0.000000,0.000000,0.000000,0.000000,0.000000;
#CREDIT:TaroNuke;
#NOTES:
0000
0000
0000
0000
,
2001
0000
0000
0100
0001
0000
0000
0100
,
0001
0000
0000
0100
3001
0000
0000
0000
,
1002
0000
0000
0100
1000
0000
0000
0100
,
1000
0000
0000
0100
1003
0000
0000
0000
,
1200
0000
0000
0010
1000
0000
0000
0010
,
1000
0000
0000
0010
1300
0000
0000
0000
,
0201
0000
0000
0010
0001
0000
0000
0010
,
0302
0000
0003
0000
,
1100
0000
0000
0000
0101
0000
0000
0000
1100
0000
0000
0100
0000
0000
0010
0000
,
0001
0000
1010
0000
0011
0000
0001
0100
,
0001
0000
0000
0000
1100
0000
0000
0000
0101
0000
0000
0100
0000
0000
0010
0000
,
1000
0000
0011
0000
1010
0000
1000
0010
,
0100
0001
0100
0001
1000
0100
1000
0100
,
0010
0001
0010
0001
1000
0010
1000
0010
,
0200
0000
0000
0000
,
0300
0000
0000
0000
,
0201
0000
0010
0000
0000
0310
0000
0000
,
1200
0000
0010
0000
0000
0301
0000
0000
,
0021
0000
0100
0000
0000
0130
0000
0000
,
1020
0130
0000
0000
,
1020
0000
0100
0000
0000
0130
0000
0000
,
0021
0000
0100
0000
0000
1030
0000
0000
,
1200
0000
0010
0000
0000
0310
0000
0000
,
0201
0000
0010
0000
0000
0302
0000
0000
,
1003
0100
0010
0001
0100
0010
0100
0010
,
1000
0100
0010
0001
1000
0020
0000
1030
,
0001
0100
0010
1000
0100
0010
0100
0010
,
0001
0100
0010
1000
0001
0010
0001
0000
,
1000
0100
0001
0100
1000
0010
0001
0010
,
0100
0001
0010
0100
1000
0200
0000
1300
,
0001
0100
1000
0100
0001
0010
1000
0010
,
0100
1000
0001
0100
0010
1000
0001
0000
,
0101
0000
0000
0000
0101
0000
0000
0000
1200
0000
0000
0010
0000
0000
1000
0000
,
0000
0010
0000
0000
1300
0000
0000
0000
2002
0000
0000
0000
3003
0000
0000
0000
,
1000
0100
1000
0100
1000
0000
0000
0000
0201
0000
0000
0010
0000
0000
0001
0000
,
0000
0010
0000
0000
0301
0000
0000
0000
2002
0000
0000
0000
3003
0000
0000
0000
,
1000
0100
0001
0100
1000
0000
0001
0200
,
0000
0310
0000
2000
3200
0000
0000
0000
,
0000
0000
0000
0000
0000
0000
0000
0000
0000
0000
0002
0000
0000
0003
0000
0000
0000
0000
0000
0000
0000
0000
0000
0000
1300
0000
0000
0000
0000
0000
0000
0000
0000
0001
0000
0000
0000
0000
0000
0000
0000
0000
0100
0000
0000
0000
0000
0000
,
0010
0000
1000
0001
2002
0000
3003
0000
,
1100
0000
0000
0000
0101
0000
0000
0000
1200
0000
0000
0001
0000
0000
1000
0000
,
0000
0001
0000
0000
0310
0000
0000
0000
2002
0000
0000
0000
3003
0000
0000
0000
,
0101
0000
0000
0000
1100
0000
0000
0000
0201
0000
0000
1000
0000
0000
0001
0000
,
0000
1000
0000
0000
0310
0000
0000
0000
2002
0000
0000
0000
3003
0000
0000
0000
,
0011
0000
0000
0000
1010
0000
0000
0000
0021
0000
0000
1000
0000
0000
0001
0000
,
0000
1000
0000
0000
0130
0000
0000
0000
2002
0000
0000
0000
3003
0000
0000
0000
,
1010
0000
0000
0000
0011
0000
0000
0000
1020
0000
0000
0001
0000
0000
1000
0000
,
0000
0001
0000
0000
0130
0000
0000
0000
2002
0000
0000
0000
3003
0000
0000
0000
,
0220
0000
0000
0000
,
0000
0000
0330
0000
,
2000
0000
0100
0000
,
0100
0000
0100
0000
,
3002
0000
0100
0000
,
0100
0000
0100
0000
,
0203
0000
0001
0000
,
0010
0000
0001
0000
,
0320
0000
1000
0000
,
0100
0000
1000
0000
,
0230
0000
0302
0000
,
0023
0000
0230
0000
,
2300
0000
3200
0000
,
0320
0000
0032
0000
,
2003
0000
3020
0000
,
0230
0000
0302
0000
,
0023
0000
0000
0000
,
0230
0000
0000
0000
,
1300
0001
1000
0010
0100
0001
0010
0000
,
0001
1000
0001
0010
0100
1000
0010
0000
,
1000
0001
1000
0001
0010
0100
0010
0100
,
1000
0000
0000
0020
0030
0000
0002
0003
0000
0200
0300
0000
2000
3000
0000
0000
,
2001
0000
0000
0000
0100
0000
0000
0000
3001
0000
0000
0010
0000
0000
0100
0000
,
2001
0000
0100
0000
3020
0030
0000
0000
,
1002
0000
0100
0000
0013
0100
0001
0100
,
0020
0032
2003
3002
0203
0000
0000
0000
,
0320
0000
0000
0000
,
0000
0000
0000
0000
0200
0300
0000
0000
,
2030
0000
0000
0000
,
3001
0000
0000
0000
,
1001
0000
1000
0100
0001
0100
1000
0000
,
0001
0100
1000
0100
0001
0000
0010
0000
,
1001
0000
0001
0010
1000
0010
0001
0000
,
1000
0010
0001
0010
1000
0000
0100
0000
,
1001
0000
1000
0010
0001
0010
0100
0001
,
0010
1000
0010
0100
1000
0000
0010
0000
,
1001
0000
0001
0010
1000
0010
0100
1000
,
0001
0100
1000
0001
0010
0100
0001
0000
,
1000
0100
0010
0100
0001
0100
0010
0001
,
1000
0010
0100
0010
0001
0010
1000
0000
,
0001
0100
0010
0100
1000
0100
0010
1000
,
0001
0010
1000
0010
0001
0000
1001
0000
,
1000
0010
0001
0010
1000
0100
0001
0100
,
0010
0001
1000
0010
0100
0001
1000
0000
,
0001
0010
1000
0010
0001
0100
1000
0100
,
0010
1000
0100
0010
0001
0100
0010
1000
,
1002
0000
0000
0010
1000
0000
0000
0010
,
1000
0000
0000
0010
1003
0000
0000
0000
,
2001
0000
0000
0010
0001
0000
0000
0010
,
0001
0000
0000
0010
3001
0000
0000
0000
,
0021
0000
0000
0100
0001
0000
0000
0100
,
0001
0000
0000
0100
0031
0000
0000
0000
,
1020
0000
0000
0100
1000
0000
0000
0100
,
1000
0000
0000
0100
1000
0000
0000
0200
,
0000
0000
0000
0000
,
0330
0000
0000
0000
;

//---------------dance-single - TaroNuke----------------
#NOTEDATA:;
#CHARTNAME:TaroNuke;
#STEPSTYPE:dance-single;
#DESCRIPTION:TaroNuke;
#CHARTSTYLE:;
#DIFFICULTY:Medium;
#METER:15;
#RADARVALUES:0.654508,0.970997,0.566859,0.733583,0.446819,687.000000,602.000000,85.000000,110.000000,0.000000,0.000000,0.000000,0.000000,0.000000,0.654508,0.970997,0.566859,0.733583,0.446819,687.000000,602.000000,85.000000,110.000000,0.000000,0.000000,0.000000,0.000000,0.000000;
#CREDIT:TaroNuke;
#NOTES:
0000
0000
0000
0000
,
2002
0000
0000
0000
3003
0000
1000
0100
0010
0000
0000
0010
0000
0000
0001
0100
,
0010
0000
0000
0010
0000
0000
1000
0100
0010
0000
0000
0010
0000
0000
0000
0000
,
2002
0000
0000
0000
3003
0000
0001
0010
0100
0000
0000
0100
0000
0000
1000
0010
,
0100
0000
0000
0100
0000
0000
0001
0010
0100
0000
0000
0100
0000
0000
0000
0000
,
2002
0000
0000
0000
3003
0000
1000
0001
0100
0000
0000
0100
0000
0000
0001
1000
,
0100
0000
0000
0100
0000
0000
1000
0001
0100
0000
0000
0100
0000
0000
0000
0000
,
2002
0000
0000
0000
3003
0000
0001
1000
0010
0000
0000
0010
0000
0000
1000
0001
,
0020
0000
0030
0000
,
1001
0000
0000
0000
0110
0000
0000
0000
1001
0000
0000
0100
0000
0000
0010
0000
,
1001
0000
0001
0100
0101
0000
0001
1000
,
1001
0000
0000
0000
0110
0000
0000
0000
1001
0000
0000
0100
0000
0000
0010
0000
,
1001
0000
1000
0100
1100
0000
1000
0001
,
0100
0010
0100
0010
1000
0001
1000
0001
,
0010
0100
0010
0100
1000
0001
1000
0001
,
0200
0000
0000
0000
,
0300
0000
0000
0000
,
1001
0000
1100
0100
0010
0011
0000
1000
,
1001
0000
0101
0100
0010
2020
3030
0000
,
1001
0000
0011
0010
0100
1100
0000
0001
,
1001
0000
1010
0010
0000
0000
0000
0000
,
1002
0000
0000
0000
0103
0000
0100
0000
0010
1000
0001
0000
0000
0000
1000
0000
,
1001
0000
0000
0000
1100
0000
0100
0000
0010
0001
2000
0000
3000
0000
0000
0000
,
2001
0000
0000
0000
3100
0000
0100
0010
0001
0000
1000
0000
0000
0000
0001
0000
,
1002
0000
0000
0000
0103
0000
0100
0010
1000
0000
0002
0000
0003
0000
0000
0000
,
1000
0100
1000
0100
1000
0000
0001
0000
0100
0000
0010
0000
0100
0000
0100
0000
,
0001
1000
0001
1000
0001
0000
0010
0000
0100
0000
1100
0000
0000
0000
0000
0000
,
0001
0100
0001
0100
0001
0000
1000
0000
0100
0000
0010
0000
0100
0000
0100
0000
,
1000
0001
1000
0001
1000
0000
0010
0000
0100
0000
0001
0000
1001
0000
0000
0000
,
0001
0010
0001
0010
0100
0000
1000
0000
0001
0000
0100
0000
1000
0000
0100
0000
,
0001
1000
0001
1000
0100
0000
0010
0000
0001
0000
1000
0000
1001
0000
0000
0000
,
1000
0010
1000
0010
0100
0000
0001
0000
1000
0000
0100
0000
0001
0000
0100
0000
,
1000
0001
1000
0001
0100
0000
0010
0000
1000
0000
0001
0000
0010
0100
1000
0001
,
0100
0000
0000
0000
1001
0000
0000
0000
1100
0000
0000
0001
0000
0000
0110
0000
,
0000
1000
0000
0000
0011
0000
0000
0000
2002
0000
0000
0000
3003
0000
0000
0000
,
1000
0100
1000
0100
1000
0100
1000
0000
0101
0000
0000
1000
0000
0100
0010
0000
,
0000
0001
0000
0000
1010
0000
0000
0000
2002
0000
0000
0000
3003
0000
0000
0000
,
0001
0010
0001
0000
1010
0000
0010
0100
,
0000
0001
0000
0010
2000
0000
0000
0000
,
0000
0000
0000
0000
0000
0000
0000
0000
0000
0000
0002
0000
0000
0003
0000
0000
0000
0000
0000
0000
0000
0000
0000
0000
3010
0000
0000
0000
0000
0000
0000
0000
0000
0001
0000
0000
0000
0000
0000
0000
0000
0000
0100
0000
0000
0000
0000
0000
,
0110
0000
0010
1000
2020
0000
3030
0000
,
1001
0000
0000
0000
0110
0000
0000
0000
1002
0000
0000
0103
0000
0000
0021
0000
,
0000
0130
0000
0000
1001
0000
0000
0000
0220
0000
0000
0000
0330
0000
0000
0000
,
0001
0100
0001
0000
1000
0100
1000
0000
2001
0000
0000
3100
0000
0000
1020
0000
,
0000
0130
0000
0000
1001
0000
0000
0000
0220
0000
0000
0000
0330
0000
0000
0000
,
1000
0010
1000
0000
0001
0010
0001
0000
2100
0000
0000
3010
0000
0000
1002
0000
,
0000
0013
0000
0000
1100
0000
0000
0000
0202
0000
0000
0000
0303
0000
0000
0000
,
1001
0000
0000
0000
0110
0000
0000
0000
0101
0000
0001
0010
0000
0000
2100
0000
,
0000
3010
0000
0000
0101
0000
0000
0000
2002
0000
0000
0000
3003
0000
0000
0000
,
0220
0000
0000
0000
,
0000
0000
0330
0000
,
2000
3020
0230
0320
,
2030
3002
0023
0032
,
2003
3200
0320
0230
,
2300
3020
0032
0023
,
2030
3002
0023
0230
,
0320
0032
2003
3020
,
0230
0302
0023
0230
,
2300
3020
0230
0302
,
2003
0000
3200
0000
,
0302
0000
0203
0000
,
0320
0000
0032
0000
,
2003
0000
3020
0000
,
0230
0000
0302
0000
,
0023
0000
0230
0000
,
2300
0000
0000
0000
,
3002
0000
0000
0000
,
1003
0000
0010
0000
0100
0000
0001
1000
0001
0000
0010
0000
0100
0000
1000
0001
,
1000
0000
0010
0000
0110
0000
0100
0000
0001
0000
0101
0000
1000
0100
1000
0000
,
0001
0000
0010
0000
0100
0000
1000
0001
1000
0000
0010
0000
0100
0000
0001
1000
,
0001
0000
0000
0200
0300
0000
2000
3000
0000
0200
0300
0000
0002
0003
0000
0000
,
2002
0000
0000
0000
3003
0000
0000
0000
1000
0000
0001
0100
0000
0001
0100
0000
,
2002
3003
0110
0000
,
2020
0000
3030
0000
0001
0010
1000
0010
,
0022
0033
1001
0000
,
0201
0000
0000
0000
,
0000
0000
0000
0000
2000
3000
0000
0000
,
0320
0000
0000
0000
,
1030
0000
0000
0000
,
0110
0000
0000
0000
1001
0000
0001
0100
0010
0000
1000
0000
0001
0000
0010
0000
,
0100
0001
0100
0010
0001
0100
0010
1000
,
1100
0000
0000
0000
1001
0000
1000
0100
0010
0000
0001
0000
1000
0000
0010
0000
,
0100
1000
0100
0010
1000
0100
0010
0001
,
0101
0100
0010
1000
0001
0010
1000
0010
,
0001
1000
0010
0001
0010
0100
0001
1000
,
1100
0100
0010
0100
0001
0100
0010
0100
,
1000
0100
1000
0000
0001
0100
0001
0000
1000
0100
0010
0001
1000
0000
0000
0000
,
0001
0100
0001
0100
0001
0000
1000
0000
0100
0000
0010
0000
0100
0000
0100
0000
,
1000
0001
1000
0001
1000
0000
0010
0000
0100
0000
0001
0000
0010
0000
0100
0000
,
1000
0100
1000
0100
1000
0000
0001
0000
0100
0000
0010
0000
0100
0000
0100
0000
,
0001
1000
0001
1000
0001
0000
0010
0000
0100
0000
1000
0000
1000
0000
1000
0000
,
0010
0100
0001
0100
0010
1000
0001
1000
0100
0000
0010
0000
0011
0000
0001
0000
,
0010
0100
1000
0100
0010
0001
1000
0001
0100
0000
0001
0000
0001
0000
0001
0000
,
0100
0010
1000
0010
0100
0001
1000
0001
0010
0000
0100
0000
1100
0000
1000
0000
,
0100
0010
0001
0010
0100
1000
0001
0100
0001
0000
1000
0000
0001
0010
0100
1000
,
0010
0000
0000
0010
0000
0000
1000
0001
0010
0000
0000
0010
0000
0000
0001
0100
,
0010
0000
0000
0010
0000
0000
1000
0001
0010
0000
0000
0010
0000
0000
0000
0000
,
2002
0000
0000
0000
3003
0000
0001
1000
0010
0000
0000
0010
0000
0000
1000
0100
,
0010
0000
0000
0010
0000
0000
0001
1000
0010
0000
0000
0010
0000
0000
0000
0000
,
2002
0000
0000
0000
3003
0000
1000
0010
0100
0000
0000
0100
0000
0000
0010
1000
,
0100
0000
0000
0100
0000
0000
1000
0010
0100
0000
0000
0100
0000
0000
0000
0000
,
2002
0000
0000
0000
3003
0000
0001
0010
0100
0000
0000
0100
0000
0000
0010
0001
,
0100
0000
0000
0100
0000
0000
0001
0010
0100
0000
0000
0100
0000
0000
0010
0002
,
0000
0000
0000
0000
,
0003
0000
0000
0000
;

//---------------dance-single - TaroNuke as "ITERATION 9"----------------
#NOTEDATA:;
#CHARTNAME:TaroNuke as "ITERATION 9";
#STEPSTYPE:dance-single;
#DESCRIPTION:TaroNuke as "ITERATION 9";
#CHARTSTYLE:;
#DIFFICULTY:Hard;
#METER:17;
#RADARVALUES:0.755495,1.144389,0.533515,1.040354,0.793603,793.000000,713.000000,80.000000,156.000000,0.000000,0.000000,0.000000,0.000000,0.000000,0.755495,1.144389,0.533515,1.040354,0.793603,793.000000,713.000000,80.000000,156.000000,0.000000,0.000000,0.000000,0.000000,0.000000;
#CREDIT:TaroNuke as "ITERATION 9";
#NOTES:
0000
0000
0000
0000
,
1002
0000
0000
0103
0000
0000
0002
2003
3100
0000
0000
0100
0000
0000
2000
3002
,
0103
0000
0000
0100
0000
0000
0002
2003
3100
0000
0000
0100
0000
0000
0200
0320
,
0032
0000
0000
0013
0000
0000
0002
2003
3010
0000
0000
0010
0000
0000
2000
3002
,
0013
0000
0000
0010
0000
0000
0002
2003
3010
0000
0000
0010
0000
0000
0200
0302
,
2003
0000
0000
3100
0000
0000
2000
3002
0103
0000
0000
0100
0000
0000
0002
2003
,
3100
0000
0000
0100
0000
0000
2000
3002
0103
0000
0000
0100
0000
0000
0200
0320
,
2030
0000
0000
3010
0000
0000
2000
3002
0013
0000
0000
0010
0000
0000
0002
2003
,
3020
0000
0030
0000
,
1001
0000
0000
0000
1100
0000
0000
0000
1001
0000
0000
0101
0000
0000
1100
0000
,
1001
0000
0110
0000
1001
0000
1000
0001
,
1001
0000
0000
0000
0011
0000
0000
0000
1001
0000
0000
1010
0000
0000
0011
0000
,
1001
0000
0110
0000
1001
0000
1000
0001
,
1000
0100
1000
0100
0010
0001
0010
0001
,
1000
0010
1000
0010
0100
0001
0100
0001
,
0020
0000
0000
0000
,
0030
0000
0000
0000
0000
0000
0000
0000
0001
0100
0001
1000
0100
1000
0001
0000
,
1001
0000
0000
0000
0101
0000
0001
0000
1000
0100
0010
0000
0000
0000
0001
0000
,
1001
0000
0000
0000
1100
0000
1000
0000
0001
0100
2000
0000
3000
0000
0000
0000
,
1010
0000
0000
0000
0011
0000
0001
1000
0001
0000
0100
0000
0010
0000
1000
0000
,
1001
0000
1010
1000
0000
0000
0000
0000
,
2001
0000
0000
0000
3100
0000
1000
0000
0001
0100
0010
0000
0000
0000
1000
0000
,
1001
0000
0000
0000
0101
0000
0001
0000
1000
0100
0002
0000
0003
0000
0000
0000
,
0011
0000
0000
0000
1010
0000
1000
0001
1000
0000
0100
0000
0010
0000
0001
0000
,
1001
0000
0000
0000
0011
0000
0001
1000
0001
0000
1010
0000
0000
0000
0000
0000
,
1000
0100
1000
0100
0010
0100
0010
0100
0010
0001
0010
0001
1000
0001
1000
0001
,
0100
0001
0100
0001
0100
0010
0100
0010
1000
0001
0020
0000
0000
0000
0030
0000
,
0001
0100
0001
0100
0010
0100
0010
0100
0010
1000
0010
1000
0001
1000
0001
1000
,
0100
1000
0100
1000
0100
0010
0100
0010
0001
1000
0020
0000
0100
0000
0030
0000
,
1000
0010
1000
0010
0100
0010
0100
0010
0001
0010
0001
0010
0100
0010
0100
0010
,
1000
0010
1000
0010
1000
0001
1000
0001
0010
0100
2000
0000
0000
0000
3000
0000
,
0001
0010
0001
0010
0100
0010
0100
0010
1000
0010
1000
0010
0100
0010
0100
0010
,
0001
0010
0001
0010
0001
1000
0001
1000
0010
1000
0010
1000
0001
1000
0100
0010
,
0001
0000
0000
0000
1100
0000
0000
0000
0101
0000
0000
1100
0000
0000
0011
0000
,
0000
1010
0000
0000
0110
0000
0000
0000
2002
0000
0000
0000
3003
0000
0000
0000
,
0001
0100
0010
1000
0010
0100
0001
0000
1100
0000
0000
0101
0000
1000
0010
0000
,
0000
0011
0000
0000
0110
0000
0000
0000
2002
0000
0000
0000
3003
0000
0000
0000
,
2001
0100
3002
0100
2003
0000
3001
0100
,
0000
0000
0110
0000
0000
0000
1000
0100
0002
0000
0000
0000
0000
0000
0000
0000
,
0000
0000
0000
0000
0000
0000
0000
0000
0000
0000
2000
0000
0000
3000
0000
0000
0000
0000
0000
0000
0000
0000
0000
0000
0103
0000
0000
0000
0000
0000
0000
0000
0000
0010
0000
0000
0000
0000
0000
0000
0000
0000
0001
0000
0000
0000
0000
0000
,
1001
0000
1000
0010
2020
0000
3030
0000
,
1001
0000
0000
0000
0110
0000
0000
0000
1200
0000
0000
0001
0000
0000
0320
0000
,
0000
1000
0000
0000
0031
0000
0000
0000
2002
0000
0000
0000
3003
0000
0000
0000
,
0001
0000
0100
0000
0001
0000
0100
0000
0000
0000
0000
0000
0010
0000
1000
0000
0010
0000
1000
0000
0000
0000
0000
0000
0201
0000
0000
0000
0000
0000
0000
0000
0000
1000
0000
0000
0000
0000
0000
0000
0000
0000
0320
0000
0000
0000
0000
0000
,
0000
0001
0000
0000
1030
0000
0000
0000
2002
0000
0000
0000
3003
0000
0000
0000
,
1000
0000
0100
0000
1000
0000
0100
0000
0000
0000
0000
0000
0010
0000
0001
0000
0010
0000
0001
0000
0000
0000
0000
0000
1020
0000
0000
0000
0000
0000
0000
0000
0000
0001
0000
0000
0000
0000
0000
0000
0000
0000
0230
0000
0000
0000
0000
0000
,
0000
0000
1000
0000
0000
0000
0000
0000
0302
0003
0000
0000
0000
0000
0000
0000
0220
0000
0000
0000
0000
0000
0000
0000
0330
0000
0000
0000
0000
0000
0000
0000
,
1001
0000
0000
0000
0110
0000
0000
0000
0021
0000
0000
1000
0000
0000
0230
0000
,
0000
0001
0000
0000
0010
0000
0000
0000
2000
0000
0000
0000
3300
0000
0000
0000
,
2002
0000
0000
0000
,
0000
0000
3003
0000
,
2000
3020
0230
0302
,
0023
0100
1000
0100
,
0032
0203
0320
2030
,
3200
0010
0001
0010
,
2300
3200
0320
0032
,
0203
0010
1000
0010
,
0302
0023
0230
2300
,
3020
0100
0001
0100
,
2030
0000
3200
0000
,
0302
0000
2003
0000
,
3020
0000
0230
0000
,
2300
0000
3002
0000
,
2003
0000
3020
0000
,
0032
0000
2003
0000
,
3200
0000
0000
0000
,
0302
0000
0000
0000
,
1003
0000
0010
0000
1000
0000
0001
0010
0100
0010
0001
0000
1001
0000
1000
0010
,
0100
0010
1000
0000
1001
0000
0001
0010
0100
0000
1100
0000
1000
0010
0100
0000
,
0101
0000
0001
0000
1001
0000
1000
0001
0010
0001
1000
0000
1100
0000
0100
0010
,
0001
0000
0000
0200
0300
0000
2000
3000
0000
0020
0030
0000
0002
0003
0000
0000
,
2002
0000
0000
0000
0000
0000
3003
0000
1000
0100
1000
0100
0000
0010
0001
0000
,
2002
0000
0000
0000
3003
0000
0001
0100
2000
0000
0000
0000
3000
0000
0000
0000
,
2020
0000
0000
3030
0001
0010
1000
0010
,
0011
0000
0000
0000
0001
0010
0100
0010
0002
0000
0000
0000
0000
0000
0000
0000
,
0203
0000
0000
0000
,
0000
0000
0000
0000
0020
0030
0000
0000
,
0302
0000
0000
0000
,
1003
0000
0000
0000
,
0110
0000
0000
0000
1001
0000
1000
0100
1000
0000
0001
0100
0010
0100
0001
0000
,
1000
0100
0010
0000
0001
0000
1000
0000
0001
0000
0100
0000
0100
0000
0100
0000
,
0110
0000
0000
0000
1001
0000
0001
0100
0001
0000
1000
0100
0010
0100
1000
0000
,
0001
0100
0010
0000
1000
0000
0001
0000
1000
0000
0100
0000
0100
0000
0100
0000
,
0120
0000
0000
0000
0031
0000
1000
0001
0100
0001
1000
0000
0001
1000
0100
0000
,
0010
0000
0001
0000
0100
0010
1000
0000
0001
0000
0100
0000
0100
0000
0100
0000
,
0120
0000
0000
0000
1030
0000
0001
1000
0100
1000
0001
0000
1000
0001
0100
0000
,
0010
1000
0001
1000
0100
0010
0100
0010
0001
0010
0001
1000
0010
0000
0000
0000
,
1000
0001
1000
0001
0100
0001
0100
0001
0100
0010
0100
0010
1000
0010
1000
0010
,
1000
0001
1000
0001
0010
0100
0010
0100
1000
0000
0001
0000
0100
0000
0001
0000
,
1001
0000
0000
0000
1000
0100
1000
0100
0010
0100
0010
0100
0010
0001
0010
0001
,
1000
0001
1000
0001
0100
0001
0100
0001
1000
0000
0100
0000
0100
0000
0100
0000
,
1100
0000
0000
0000
0001
0010
0001
0010
0100
0010
0100
0010
1000
0010
1000
0010
,
0100
0010
0100
0010
0100
1000
0100
1000
0001
0000
0100
0000
0100
0000
0100
0000
,
0101
0000
0000
0000
1000
0010
1000
0010
0100
0010
0100
0010
0001
0010
0001
0010
,
0100
0010
0100
0010
0100
0001
0100
0001
1000
0001
0010
0001
1000
0010
0100
0001
,
2000
0000
0000
3100
0000
0000
2000
3002
0103
0000
0000
0100
0000
0000
0002
2003
,
3100
0000
0000
0100
0000
0000
2000
3002
0103
0000
0000
0100
0000
0000
0200
0320
,
2030
0000
0000
3010
0000
0000
2000
3002
0013
0000
0000
0010
0000
0000
0002
2003
,
3010
0000
0000
0010
0000
0000
2000
3002
0013
0000
0000
0010
0000
0000
0200
2300
,
3002
0000
0000
0103
0000
0000
0002
2003
3100
0000
0000
0100
0000
0000
2000
3002
,
0103
0000
0000
0100
0000
0000
0002
2003
3100
0000
0000
0100
0000
0000
0200
0320
,
0032
0000
0000
0013
0000
0000
0002
2003
3010
0000
0000
0010
0000
0000
2000
3002
,
0013
0000
0000
0010
0000
0000
0002
2003
3010
0000
0000
0010
0000
0000
2000
3002
,
0000
0000
0000
0000
,
0003
0000
0000
0000
;

//---------------dance-single - Ama-tan as "VIRTUAL ALPHA"----------------
#NOTEDATA:;
#CHARTNAME:Ama-tan as "VIRTUAL ALPHA";
#STEPSTYPE:dance-single;
#DESCRIPTION:Ama-tan as "VIRTUAL ALPHA";
#CHARTSTYLE:;
#DIFFICULTY:Challenge;
#METER:18;
#RADARVALUES:0.881252,1.181902,0.633549,1.133719,1.047023,925.000000,830.000000,95.000000,170.000000,0.000000,0.000000,0.000000,0.000000,0.000000,0.881252,1.181902,0.633549,1.133719,1.047023,925.000000,830.000000,95.000000,170.000000,0.000000,0.000000,0.000000,0.000000,0.000000;
#CREDIT:Ama-tan as "VIRTUAL ALPHA";
#NOTES:
// measure 0
0000
0000
0000
0000
,  // measure 1
1002
0000
0000
0010
0000
0000
0103
0100
2000
0000
0000
0010
0000
0000
3100
0100
,  // measure 2
0002
0000
0000
0010
0000
0000
0103
0100
2000
0000
0000
0010
0000
0000
3001
1000
,  // measure 3
2001
0000
0000
0100
0000
0000
3010
0010
0002
0000
0000
0100
0000
0000
0013
0010
,  // measure 4
2000
0000
0000
0100
0000
0000
3010
0010
0002
0000
0000
0100
0000
0000
1003
0001
,  // measure 5
1002
0000
0000
0010
0000
0000
0103
0100
2000
0000
0000
0010
0000
0000
3100
0100
,  // measure 6
0002
0000
0000
0010
0000
0000
0103
0100
2000
0000
0000
0010
0000
0000
3001
1000
,  // measure 7
2001
0000
0000
0100
0000
0000
3010
0010
0002
0000
0000
0100
0000
0000
0013
0010
,  // measure 8
2000
0000
0000
0100
0000
0000
3010
0010
0000
0000
0000
0000
0000
0000
0000
0000
,  // measure 9
1001
0000
0001
0000
0011
0000
0010
0100
1000
0001
0100
0010
1000
0000
0010
0000
,  // measure 10
1010
0000
1001
0001
0011
0000
1100
1001
,  // measure 11
0101
0000
0100
0000
0110
0000
0010
1000
0001
1000
0100
0010
0001
0000
0010
0000
,  // measure 12
0011
0000
1001
1000
1010
0000
0001
0100
,  // measure 13
0201
0001
0001
0320
1000
1000
1000
0230
,  // measure 14
1000
1000
1000
0320
0001
0001
0001
0230
,  // measure 15
0002
0000
0000
0000
,  // measure 16
0303
0000
0000
0000
0000
0000
0000
0000
1000
0100
0100
0001
0100
0100
1000
0000
,  // measure 17
1001
0000
0000
0000
1010
0000
1000
0000
0001
0010
0200
0000
0001
0000
1300
0000
,  // measure 18
1001
0000
0000
0000
1100
0000
1000
0000
0001
0100
2000
0000
3000
0000
0100
0000
,  // measure 19
1001
0000
0000
0000
0011
0000
0001
1000
0001
0000
1020
0000
0001
0000
0130
0000
,  // measure 20
0101
0000
0000
0000
0000
0000
0000
0000
0000
0000
0000
0000
1001
0000
0000
0000
0000
0000
1000
0000
0000
0100
0000
0000
0000
0000
0000
0000
0000
0000
0000
0000
0000
0000
0000
0000
0000
0000
0000
0000
0000
0000
2000
3000
0200
0300
0020
0030
,  // measure 21
0002
0000
0000
0000
0013
0000
0001
0000
1000
0010
0200
0000
1000
0000
0301
0000
,  // measure 22
1001
0000
0000
0000
0101
0000
0001
0000
1000
0100
0002
0000
0003
0000
0100
0000
,  // measure 23
1001
0000
0000
0000
1010
0000
1000
0001
1000
0000
0021
0000
1000
0000
0130
0000
,  // measure 24
1100
0000
0000
0000
1001
0000
0001
0100
0001
0000
1010
0000
0000
0000
0000
0000
,  // measure 25
1000
0100
0010
0001
0100
1000
0100
0010
0100
0001
1000
0001
0010
0100
1000
0001
,  // measure 26
0010
0100
0001
0100
0010
0100
1000
0001
0100
0010
0100
0001
0010
0100
0010
0100
,  // measure 27
1000
0010
0100
0001
0010
1000
0010
0100
0010
0001
1000
0001
0100
0010
1000
0001
,  // measure 28
0100
0000
0000
0010
0000
0000
0001
0000
0000
0010
0000
0000
0100
0000
0000
0010
0000
0000
1000
0000
0000
0001
0000
0000
0010
0000
0000
0100
0000
0000
0002
0000
0000
0000
0000
0000
0000
0000
0000
0000
0000
0000
0203
0300
0020
0030
0002
0003
,  // measure 29
2000
3000
0000
0010
0000
0000
0100
0000
0000
1000
0000
0000
0100
0000
0000
0010
0000
0000
0100
0000
0000
0001
0000
0000
1000
0000
0000
0100
0000
0000
0010
0000
0000
0100
0000
0000
0001
0000
0000
0100
0000
0000
0010
0000
0000
0100
0000
0000
,  // measure 30
1000
0010
0001
0010
0100
0001
0010
0100
1000
0100
0010
0100
0001
0100
0010
0001
,  // measure 31
1000
0010
0100
1000
0100
0010
1000
0100
0010
0001
0100
0010
1000
0010
0100
0001
,  // measure 32
0010
0100
0001
0100
0010
0001
0100
0010
1000
0001
0010
0100
1000
0001
1000
0001
,  // measure 33
0200
0000
0300
0000
2200
0000
3300
0000
0201
0000
0000
1000
0000
0000
0001
0000
,  // measure 34
0000
0000
0000
1000
0000
0000
0000
0000
0000
0000
0000
0000
0301
0000
0000
0000
0000
0000
1000
0000
0100
0000
0010
0000
0002
0000
0000
0000
0000
0000
0000
0000
0000
0000
0000
0000
0000
0000
0000
0000
0000
0000
0000
0000
0000
0000
0000
0000
,  // measure 35
1003
0000
0001
0000
1000
0000
0010
0100
0010
0000
1000
0000
0001
0000
0000
0000
1200
0000
0000
0000
0000
0000
0001
0000
0000
0000
0320
0000
1000
0000
0000
0000
,  // measure 36
0000
0100
0000
0000
0031
0000
0000
0000
2002
0000
0000
0000
3003
0000
0000
0000
,  // measure 37
0101
0100
0110
0010
1020
0000
0001
1000
,  // measure 38
0000
0000
0000
0031
0000
0000
0000
0000
0000
1000
0001
0010
0200
0000
0000
0000
0000
0000
0000
0000
0000
0000
0000
0000
,  // measure 39
0000
0000
0000
0000
0000
0000
0000
0000
0000
0000
0002
0000
0000
0003
0000
0000
0000
0000
0000
0000
0000
0000
0000
0000
0310
0000
0000
0000
0000
0000
0000
0000
0000
0001
0000
0000
0000
0000
0000
0000
0000
0000
0100
0000
0000
0000
0000
0000
,  // measure 40
0101
0000
0000
0000
0000
0000
1000
0000
0000
0001
0000
0000
1000
0100
0010
0001
1000
0001
0200
0000
0000
0300
0000
0000
,  // measure 41
2200
0000
3300
0000
0202
0000
0303
0000
1200
0000
0000
0301
0000
0000
1020
0000
,  // measure 42
0000
0031
0000
0000
2200
0000
3300
0000
2002
0000
0000
0000
3003
0000
0000
0000
,  // measure 43
1000
0000
0100
0000
0010
0000
0001
0000
0000
1000
0000
0000
0001
0000
0000
0100
0000
0000
0010
0000
1000
0000
0010
0000
0200
0000
0000
0000
0000
0000
0000
0000
0000
1300
0000
0000
0000
0000
0000
0000
0000
0000
0021
0000
0000
0000
0000
0000
,  // measure 44
0000
0000
0000
1030
0000
0000
0000
0000
0000
0000
0000
0000
0101
0000
0000
0000
0000
0000
0001
0000
0010
0000
0200
0000
2000
0000
0000
0000
0000
0000
0000
0000
0000
0000
0000
0000
3300
0000
0000
0000
0000
0000
0000
0000
0000
0000
0000
0000
,  // measure 45
1000
0000
0010
0000
0100
0000
0001
0000
0000
0100
0000
0000
0010
0000
0000
1000
0000
0000
0001
0000
0000
0010
0000
0000
0200
0000
0000
0000
0000
0000
0000
0000
0000
0301
0000
0000
0000
0000
0000
0000
0000
0000
1020
0000
0000
0000
0000
0000
,  // measure 46
0000
0000
0032
0000
0000
0000
0000
0000
0103
0010
0100
0010
0100
0000
0000
0000
2002
0000
0000
0000
0000
0000
0000
0000
3003
0000
0000
0000
0000
0000
0000
0000
,  // measure 47
0202
0000
0000
0000
0303
0000
0000
0000
2200
0000
0000
0000
3300
0000
0000
0000
1001
0000
0000
0000
1000
0010
1000
0000
0000
0000
0000
0000
0001
0010
0001
0000
,  // measure 48
0000
0000
1000
0100
1000
0000
0000
0000
0202
0000
0000
0000
0303
0000
0000
0000
2002
0000
0000
0000
0000
0000
0000
0000
3003
0000
0000
0000
0000
0000
0000
0000
,  // measure 49
0220
0000
0000
0000
,  // measure 50
0000
0000
0330
0000
,  // measure 51
2000
3020
0230
0302
,  // measure 52
0023
0230
0302
0203
,  // measure 53
0320
0032
2003
3020
,  // measure 54
0230
2300
3200
0320
,  // measure 55
2030
3002
0023
0230
,  // measure 56
0302
2003
3020
0230
,  // measure 57
2300
3020
0230
2300
,  // measure 58
3002
0023
0230
0302
,  // measure 59
2003
0000
3200
0000
,  // measure 60
0320
0000
0032
0000
,  // measure 61
0203
0000
2300
0000
,  // measure 62
3200
0000
0320
0000
,  // measure 63
2030
0000
3002
0000
,  // measure 64
0023
0000
0230
0000
,  // measure 65
0302
0000
0000
0000
,  // measure 66
0023
0000
0000
0000
,  // measure 67
1030
0000
0001
0000
1001
0000
1000
0100
0010
0001
0010
0100
1000
0000
0001
0100
,  // measure 68
0001
1000
0100
0000
0110
0000
0100
1000
0001
0000
1001
0000
1000
0010
0100
0000
,  // measure 69
0101
0000
0001
0000
1001
0000
0001
0100
0010
1000
0010
0100
0001
0000
1000
0001
,  // measure 70
0010
0000
0000
2020
3030
0000
0202
0303
0000
2200
3300
0000
0220
0330
0000
0000
,  // measure 71
2001
0000
0000
0000
0000
0000
0010
0000
0000
0000
0000
0000
3002
0000
0000
0000
0000
0000
0010
0000
0000
0000
0000
0000
1003
0000
0100
0000
1000
0000
0100
0000
0000
0010
0000
0000
0000
0000
0000
0001
0000
0000
1000
0000
0000
0000
0000
0000
,  // measure 72
1002
0000
0000
0000
0000
0000
0010
0000
0000
0000
0000
0000
1003
0000
0000
0000
0000
0000
0002
0003
0200
0300
0020
0030
2000
0000
0000
0000
0000
0000
0000
0000
0000
0000
0000
0000
3000
0000
0000
0000
0000
0000
0000
0000
0000
0000
0000
0000
,  // measure 73
2001
0100
3002
0103
0201
0010
1000
0010
,  // measure 74
0301
1000
0100
0010
0001
0010
0100
1000
0002
0000
0000
0000
0003
0000
0000
0000
,  // measure 75
1200
0000
0000
0000
,  // measure 76
0000
0000
0000
0000
0000
0000
0000
0000
0002
0003
0000
0000
0000
0000
0000
0000
,  // measure 77
0320
0000
0000
0000
,  // measure 78
0031
0000
0000
0000
,  // measure 79
0110
0000
0000
0000
1001
0000
1000
0100
0100
0001
1000
0100
0100
0001
0010
0001
,  // measure 80
1000
0010
0100
0010
1000
0001
0010
0100
1000
0000
1100
0000
1001
0000
0101
0000
,  // measure 81
0110
0000
0000
0000
1001
0000
0001
0100
0100
1000
0001
0100
0100
1000
0010
1000
,  // measure 82
0001
0010
0100
0010
0001
1000
0010
0100
0001
0000
0101
0000
1001
0000
1100
0000
,  // measure 83
0110
0000
0000
0000
0000
0000
0002
0003
0200
0300
0020
0030
2000
3000
0000
0000
0000
0000
0001
0000
0000
0010
0000
0000
0010
0000
0000
1000
0000
0000
0001
0000
0000
0010
0000
0000
0010
0000
0000
1000
0000
0000
0001
0000
0000
0100
0000
0000
,  // measure 84
1000
0100
0010
1000
0001
1000
0100
0010
0001
0000
0011
0000
1001
0000
1010
0000
,  // measure 85
1000
0010
0100
0001
0100
0010
1000
0010
0010
0001
1000
0010
0010
0001
1000
0100
,  // measure 86
0001
0100
0010
0100
1000
0001
1000
0010
0100
1000
0100
0010
1000
0000
0000
0000
,  // measure 87
0001
0100
0010
1000
0100
0001
0100
0010
0100
1000
0001
1000
0100
0100
0001
1000
,  // measure 88
0010
0100
1000
0100
0010
0100
0001
1000
0100
0010
0100
1000
0010
0100
0010
0100
,  // measure 89
0001
0010
0100
1000
0010
0001
0010
0100
0010
1000
0001
1000
0100
0100
0001
1000
,  // measure 90
0100
0010
1000
0010
0100
0010
0001
1000
0001
0000
0101
0000
1001
0000
1100
0000
,  // measure 91
1000
0010
0100
1000
0100
0010
0100
0001
1000
0100
0010
0100
0001
0100
0010
0100
,  // measure 92
1000
0010
0001
0010
0100
0001
0010
0100
1000
0000
1100
0000
1001
0000
0101
0000
,  // measure 93
0001
0010
0100
0001
0100
0010
0001
0100
0010
1000
0100
0010
0001
0010
0100
1000
,  // measure 94
0010
0000
0000
0100
0000
0000
1000
0000
0000
0100
0000
0000
0010
0000
0000
1000
0000
0000
0001
0000
0000
0010
0000
0000
0100
0000
0000
0010
0000
0000
0001
0000
0000
1000
0000
0000
0010
0000
0000
1000
0000
0000
0002
0003
0020
0030
0200
0300
,  // measure 95
2000
0000
0000
0010
0000
0000
3100
0100
0002
0000
0000
0010
0000
0000
0103
0100
,  // measure 96
2000
0000
0000
0010
0000
0000
3100
0100
0002
0000
0000
0010
0000
0000
1003
0001
,  // measure 97
1002
0000
0000
0100
0000
0000
0013
0010
2000
0000
0000
0100
0000
0000
3010
0010
,  // measure 98
0002
0000
0000
0100
0000
0000
0013
0010
2000
0000
0000
0100
0000
0000
3001
1000
,  // measure 99
2001
0000
0000
0010
0000
0000
3100
0100
0002
0000
0000
0010
0000
0000
0103
0100
,  // measure 100
2000
0000
0000
0010
0000
0000
3100
0100
0002
0000
0000
0010
0000
0000
1003
0001
,  // measure 101
1002
0000
0000
0100
0000
0000
0013
0010
2000
0000
0000
0100
0000
0000
3010
0010
,  // measure 102
0002
0000
0000
0100
0000
0000
0013
0010
2000
0000
0000
0100
0000
0000
3010
0020
,  // measure 103
0000
0000
0000
0000
,  // measure 104
0000
0030
0000
0000
;

//---------------dance-double - TaroNuke----------------
#NOTEDATA:;
#CHARTNAME:TaroNuke;
#STEPSTYPE:dance-double;
#DESCRIPTION:TaroNuke;
#CHARTSTYLE:;
#DIFFICULTY:Medium;
#METER:14;
#RADARVALUES:0.547805,0.652555,0.540184,0.573528,0.176727,575.000000,494.000000,81.000000,86.000000,0.000000,0.000000,0.000000,0.000000,0.000000,0.547805,0.652555,0.540184,0.573528,0.176727,575.000000,494.000000,81.000000,86.000000,0.000000,0.000000,0.000000,0.000000,0.000000;
#CREDIT:TaroNuke;
#NOTES:
00000000
00000000
00000000
00000000
,
00011000
00000000
00000000
00001000
00000000
00000000
00010000
00000000
00100000
00000000
00000000
00100000
00000000
00000000
01000000
00000000
,
00010000
00000000
00000000
00010000
00000000
00000000
10000000
00000000
01000000
00000000
00000000
01000000
00000000
00000000
00010000
00000000
,
00011000
00000000
00000000
00010000
00000000
00000000
00001000
00000000
00000010
00000000
00000000
00000010
00000000
00000000
00000100
00000000
,
00001000
00000000
00000000
00001000
00000000
00000000
00000001
00000000
00000100
00000000
00000000
00000100
00000000
00000000
00001000
00000000
,
00011000
00000000
00000000
00001000
00000000
00000000
00010000
00000000
01000000
00000000
00000000
01000000
00000000
00000000
00100000
00000000
,
00010000
00000000
00000000
00010000
00000000
00000000
10000000
00000000
00100000
00000000
00000000
00100000
00000000
00000000
00010000
00000000
,
00011000
00000000
00000000
00010000
00000000
00000000
00001000
00000000
00000100
00000000
00000000
00000100
00000000
00000000
00000010
00000000
,
00002000
00000000
00003000
00000000
,
00001100
00000000
00000000
00000000
00011000
00000000
00000000
00000000
02010000
00000000
00000000
00100000
00000000
00000000
03010000
00000000
,
01010000
00000000
00011000
00000000
00110000
00000000
10000000
00010000
,
01010000
00000000
00000000
00000000
00011000
00000000
00000000
00000000
00001200
00000000
00000000
00000010
00000000
00000000
00001300
00000000
,
00001100
00000000
00011000
00000000
00001010
00000000
00000001
00000100
,
00001000
00010000
00001000
00010000
00100000
10000000
01000000
01000000
,
00010000
00001000
00010000
00001000
00000010
00000001
00000100
00000100
,
00002000
00000000
00000000
00000000
,
00013000
00000000
00000000
00000000
,
00001000
00000000
00011000
00010000
00000010
00001010
00000000
00000010
,
00010000
00000000
00011000
00001000
00100000
00220000
00330000
00000000
,
00001000
00000000
00011000
00010000
00000100
00001100
00000000
00000100
,
00010000
00000000
00011000
00001000
00000000
00000000
00000000
00000000
,
00101000
00000000
00110000
00010000
10000000
10100000
00100000
00010000
,
00001000
00000000
00001010
00001000
00000001
00000022
00000033
00000000
,
00010100
00000000
00001100
00001000
00000001
00000101
00000100
00001000
,
00010000
00000000
01010000
00010000
10000000
11000000
00000000
00000000
,
00010000
01000000
00010000
10000000
00010000
00100000
00010000
00001000
,
00010000
00000000
00001000
00000000
00000100
00000000
00001000
00000000
00000001
00000000
00001000
00000000
00000010
00000100
00000010
00000000
,
00001000
00000100
00001000
00000001
00001000
00000010
00001000
00010000
,
00001000
00010000
01000000
00010000
10000000
00010000
00200000
00000000
,
00310000
00100000
01000000
00010000
01000000
00100000
00010000
00001000
,
00010000
00000000
00001000
00000000
00000100
00000000
00000010
00000000
00001000
00000000
00000010
00000000
00000100
00000010
00000100
00000000
,
00001000
00000010
00000100
00001000
00000100
00000010
00001000
00010000
,
00001000
00010000
01000000
00100000
00010000
00100000
01000000
00100000
,
20200000
00000000
30300000
00000000
00220000
00000000
00330000
00000000
00021000
00000000
00000000
00000100
00000000
00000000
00001000
00000000
,
00000000
00000010
00000000
00000000
00031000
00000000
00000000
00000000
00010200
00000000
00000000
00000000
00000000
00000000
00000000
00000000
,
00000310
00000000
00000001
00000000
00000100
00000000
00001000
00000000
00012000
00000000
00000000
01000000
00000000
00000000
00010000
00000000
,
00000000
00100000
00000000
00000000
00013000
00000000
00000000
00000000
02001000
00000000
00000000
00000000
00000000
00000000
00000000
00000000
,
03100000
10000000
00010000
00000000
00011000
00000000
00001000
00000100
,
00000000
00000001
00000000
00000010
00000200
00000000
00000000
00000000
,
00000000
00000000
00000000
00000000
00000000
00000000
00000000
00000000
00000000
00000000
02000000
00000000
00000000
03000000
00000000
00000000
00000000
00000000
00000000
00000000
00000000
00000000
00000000
00000000
00000310
00000000
00000000
00000000
00000000
00000000
00000000
00000000
00000000
00000001
00000000
00000000
00000000
00000000
00000000
00000000
00000000
00000000
00000100
00000000
00000000
00000000
00000000
00000000
,
00000101
00000000
00000100
00001000
00011000
00000000
00000000
00000000
,
00020020
00000000
00030030
00000000
00202000
00000000
00303000
00000000
00012000
00000000
00000000
01003000
00000000
00000000
00021000
00000000
,
00000000
00030100
00000000
00000000
00011000
00000000
00000000
00000000
00002020
00000000
00003030
00000000
00000000
00000000
00000000
00000000
,
00010000
00000000
00000010
00000000
00000100
00000000
00001000
00000000
00021000
00000000
00000000
00030100
00000000
00000000
00012000
00000000
,
00000000
01003000
00000000
00000000
00011000
00000000
00000000
00000000
00220000
00000000
00330000
00000000
00000000
00000000
00000000
00000000
,
00001000
00000000
00100000
00000000
01000000
00000000
00010000
00000000
00021000
00000000
00000000
00030010
00000000
00000000
00012000
00000000
,
00000000
00103000
00000000
00000000
00011000
00000000
00000000
00000000
00002200
00000000
00003300
00000000
00000000
00000000
00000000
00000000
,
00202000
00000000
00303000
00000000
00020020
00000000
00030030
00000000
00012000
00000000
00000000
00103000
00000000
00000000
00021000
00000000
,
00000000
00030010
00000000
00000000
00011000
00000000
00000000
00000000
02020000
00000000
03030000
00000000
00000000
00000000
00000000
00000000
,
20020000
00000000
00000000
00000000
,
00000000
00000000
30030000
00000000
,
20000000
00000000
00000000
00000000
,
00000000
00000000
00000000
00000000
,
30020000
00000000
00000000
00000000
,
00000000
00000000
00000000
00000000
,
00032000
00000000
00000000
00000000
,
00000000
00000000
00000000
00000000
,
00003002
00000000
00000000
00000000
,
00000000
00000000
00000000
00000000
,
00000203
00000000
00002300
00000000
,
00023000
00000000
00230000
00000000
,
20300000
00000000
30200000
00000000
,
00320000
00000000
00032000
00000000
,
00003020
00000000
00002030
00000000
,
00023000
00000000
02030000
00000000
,
03200000
00000000
00000000
00000000
,
00302000
00000000
00000000
00000000
,
00013000
00000000
00110000
00000000
00100000
01000000
10000000
00000000
,
00100000
01000000
10000000
01000000
00010000
00100000
00001000
00000000
,
00011000
00000000
00001010
00000000
00000010
00000100
00000001
00000010
,
00000100
00000000
00000000
00002200
00003300
00000000
00022000
00033000
00000000
02020000
03030000
00000000
02200000
03300000
00000000
00000000
,
20200000
00000000
30000000
00000000
00000000
00000000
00000000
00000000
01300000
00000000
00000000
00001000
00000000
00000000
00010000
00000000
,
00022000
00030000
00000000
00000000
00003010
00000000
00000000
00000000
,
00000202
00000003
00000000
00000000
00000310
00001000
00010000
01000000
,
00200000
20300000
30020000
20030000
32000000
00000000
00000000
00000000
,
03020000
00000000
00000000
00000000
,
00000000
00000000
00000000
00000000
00002000
00003000
00000000
00000000
,
00030020
00000000
00000000
00000000
,
00000130
00000000
00000000
00000000
,
00001010
00000000
00010000
00001000
00000010
00000100
00010000
00000000
,
00000010
00001000
00010000
00001000
00000010
00010000
00001000
00100000
,
00110000
00000000
00001000
00010000
00100000
01000000
00001000
00000000
,
00100000
00010000
00001000
00010000
00100000
00001000
00010000
00000010
,
00001010
00000000
00000001
00000010
00001000
00010000
00001000
00000100
,
00000010
00000100
00001000
00010000
00001000
00100000
01000000
00100000
,
00110000
00000000
10000000
00100000
00010000
00001000
00010000
01000000
,
00100000
00000000
01000000
00000000
00010000
00000000
00001000
00000000
00010000
00000000
00000010
00001000
00000010
00000000
00000000
00000000
,
00001000
00000100
00001000
00000001
00001000
00000010
00001000
00010000
,
00001000
00000000
00010000
00000000
01000000
00000000
00010000
00000000
10000000
00000000
00010000
00000000
00100000
01000000
00100000
00000000
,
00010000
01000000
00010000
10000000
00010000
00100000
00010000
00001000
,
00010000
00001000
00000100
00001000
00000001
00001000
00000010
00000010
,
00001000
00000100
00000010
00001000
00010000
01000000
00100000
00100000
,
00010000
01000000
00100000
00010000
00001000
00000100
00000010
00000010
,
00001000
00000010
00000100
00001000
00010000
00100000
01000000
01000000
,
00010000
00100000
01000000
00010000
00001000
00000010
00000100
00010000
,
00011000
00000000
00000000
00010000
00000000
00000000
00001000
00000000
00000010
00000000
00000000
00000010
00000000
00000000
00000100
00000000
,
00001000
00000000
00000000
00001000
00000000
00000000
00000001
00000000
00000100
00000000
00000000
00000100
00000000
00000000
00001000
00000000
,
00011000
00000000
00000000
00001000
00000000
00000000
00010000
00000000
00100000
00000000
00000000
00100000
00000000
00000000
01000000
00000000
,
00010000
00000000
00000000
00010000
00000000
00000000
10000000
00000000
01000000
00000000
00000000
01000000
00000000
00000000
00010000
00000000
,
00011000
00000000
00000000
00010000
00000000
00000000
00001000
00000000
00000100
00000000
00000000
00000100
00000000
00000000
00000010
00000000
,
00001000
00000000
00000000
00001000
00000000
00000000
00000001
00000000
00000010
00000000
00000000
00000010
00000000
00000000
00001000
00000000
,
00011000
00000000
00000000
00001000
00000000
00000000
00010000
00000000
01000000
00000000
00000000
01000000
00000000
00000000
00100000
00000000
,
00010000
00000000
00000000
00010000
00000000
00000000
10000000
00000000
00100000
00000000
00000000
00100000
00000000
00000000
02000000
00000000
,
03000000
00000000
00000000
00000000
;

//---------------dance-double - TaroNuke as "THE VOID"----------------
#NOTEDATA:;
#CHARTNAME:TaroNuke as "THE VOID";
#STEPSTYPE:dance-double;
#DESCRIPTION:TaroNuke as "THE VOID";
#CHARTSTYLE:;
#DIFFICULTY:Hard;
#METER:17;
#RADARVALUES:0.688806,0.832283,0.520177,0.580197,0.493501,723.000000,645.000000,78.000000,87.000000,0.000000,0.000000,0.000000,0.000000,0.000000,0.688806,0.832283,0.520177,0.580197,0.493501,723.000000,645.000000,78.000000,87.000000,0.000000,0.000000,0.000000,0.000000,0.000000;
#CREDIT:TaroNuke as "THE VOID";
#NOTES:
00000000
00000000
00000000
00000000
,
00011000
00000000
00000000
00010000
00000000
00000000
00000100
00000010
00000001
00000000
00000000
00000001
00000000
00000000
00000100
00000010
,
00010000
00000000
00000000
00010000
00000000
00000000
00000100
00000010
00001000
00000000
00000000
00001000
00000000
00000000
00010000
00000000
,
00011000
00000000
00000000
00001000
00000000
00000000
01000000
00100000
10000000
00000000
00000000
10000000
00000000
00000000
01000000
00100000
,
00001000
00000000
00000000
00001000
00000000
00000000
01000000
00100000
00010000
00000000
00000000
00010000
00000000
00000000
00001000
00000000
,
00011000
00000000
00000000
00010000
00000000
00000000
00000100
00000010
00000001
00000000
00000000
00000001
00000000
00000000
00000100
00000010
,
00010000
00000000
00000000
00010000
00000000
00000000
00000100
00000010
00001000
00000000
00000000
00001000
00000000
00000000
00010000
00000000
,
00011000
00000000
00000000
00001000
00000000
00000000
01000000
00100000
10000000
00000000
00000000
10000000
00000000
00000000
01000000
00100000
,
00002000
00000000
00003000
00000000
,
00011000
00000000
00010000
00000000
00010100
00000000
00000100
00000000
00000110
00000000
00000010
00000001
00000000
00000001
00000100
00000000
,
00000110
00000010
00010010
00010000
00011000
00000000
00001000
00100000
,
00001000
00000000
00001000
00000000
01001000
00000000
01000000
00000000
01100000
00000000
00100000
10000000
00000000
10000000
01000000
00000000
,
01100000
00100000
00101000
00001000
00011000
00000000
00001000
00000100
,
00000001
00000010
00000001
00000010
00000100
00010000
00000100
00010000
,
00001000
01000000
00001000
01000000
00100000
10000000
00100000
10000000
,
02000000
00000000
00000000
00000000
,
03000000
00000000
00000000
00000000
00000000
00000000
00000000
00000000
10000000
01000000
10000000
00010000
01000000
00010000
10000000
00000000
,
10010000
00000000
00000000
00000000
11000000
00000000
01000000
00000000
00100000
00001000
00010000
00000000
00000100
00000000
00000010
00000000
,
00001001
00000000
00000000
00000000
00000101
00000000
00000001
00000000
00000010
00000100
00000002
00000000
00000003
00000000
00000000
00000000
,
00001100
00000000
00000000
00000000
00001010
00000000
00000010
00010000
00001000
00000000
01000000
00000000
10000000
00000000
01000000
00000000
,
01010000
00000000
00110000
00010000
00000000
00000000
00000000
00000000
,
10010000
00000000
00000000
00000000
10100000
00000000
00100000
00000000
01000000
00001000
00010000
00000000
00000010
00000000
00000100
00000000
,
00001001
00000000
00000000
00000000
00000011
00000000
00000001
00000000
00000100
00000010
00000002
00000000
00000003
00000000
00000000
00000000
,
00001010
00000000
00000000
00000000
00001100
00000000
00000100
00010000
00001000
00000000
00100000
00000000
10000000
00000000
00100000
00000000
,
00110000
00000000
01010000
00010000
01000000
20200000
30300000
00000000
,
10000000
00100000
01000000
00100000
10000000
00000000
01000000
00000000
00010000
00000000
00001000
00000000
00000010
00000000
00000001
00000000
,
00000100
00000010
00001000
00000010
00000100
00000000
00001000
00000000
00010000
00000000
00100000
00000000
01000000
00000000
00010000
00000000
,
10000000
01000000
00100000
01000000
10000000
00000000
00100000
00000000
00010000
00000000
00001000
00000000
00000100
00000000
00000001
00000000
,
00000010
00000100
00001000
00000100
00000010
00000000
00001000
00000000
00010000
00000000
01000000
00100000
00010000
10000000
00010000
10000000
,
00001000
01000000
00001000
01000000
00100000
00000000
10000000
00000000
01000000
00000000
00010000
00000000
00001000
00000000
00000100
00000000
,
00000010
00010000
00001000
00010000
00000010
00000000
00000100
00000000
00001000
00000000
00010000
00000000
01000000
00000000
00100000
00000000
,
00001000
01000000
00100000
00010000
00001000
00000000
00010000
00000000
00000100
00000000
00000010
00000000
00000001
00000000
00000100
00000000
,
00001000
00010000
00100000
01000000
00010000
00000000
10000000
00000000
01000000
00000000
00100000
00000000
00010000
10000000
00010000
10000000
,
00010000
00000000
00000000
00000000
01010000
00000000
00000000
00000000
00012000
00000000
00000000
00100000
00000000
00000000
01000000
00000000
,
00000000
00100000
00000000
00000000
00013000
00000000
00000000
00000000
00020200
00000000
00000000
00000000
00030300
00000000
00000000
00000000
,
00001000
00000100
00001000
00000100
00001000
00000100
00010000
00000000
00021000
00000000
00000000
00000010
00000000
00000000
00000100
00000000
,
00000000
00000010
00000000
00000000
00031000
00000000
00000000
00000000
02002000
00000000
00000000
00000000
03003000
00000000
00000000
00000000
,
01000000
00100000
00010000
00000000
00012000
00000000
01000000
00010000
,
00000000
00100000
00000000
01000000
00023000
00000000
00000000
00000000
,
00000000
00000000
00000000
00000000
00000000
00000000
00000000
00000000
00000000
00000000
20000000
00000000
00000000
30000000
00000000
00000000
00000000
00000000
00000000
00000000
00000000
00000000
00000000
00000000
00031000
00000000
00000000
00000000
00000000
00000000
00000000
00000000
00000000
00000010
00000000
00000000
00000000
00000000
00000000
00000000
00000000
00000000
00000001
00000000
00000000
00000000
00000000
00000000
,
00000011
00000000
00000100
00000010
00020020
00000000
00030030
00000000
,
00000200
00000000
00000300
00000000
02000000
00000000
03000000
00000000
01002000
00000000
00000000
00100000
00000000
00000000
00000010
00000000
,
00000000
00100000
00000000
00000000
00013000
00000000
00000000
00000000
02000200
00000000
00000000
00000000
03000300
00000000
00000000
00000000
,
00001000
01000000
00001000
00000000
00010000
00000100
00010000
00000000
00020100
00000000
00000000
00000010
00000000
00000000
00100000
00000000
,
00000000
00000010
00000000
00000000
00031000
00000000
00000000
00000000
00200020
00000000
00000000
00000000
00300030
00000000
00000000
00000000
,
00000100
00001000
00000100
00000000
01000000
00010000
01000000
00000000
01002000
00000000
00000000
00100000
00000000
00000000
00000010
00000000
,
00000000
00100000
00000000
00000000
00013000
00000000
00000000
00000000
00020002
00000000
00000000
00000000
00030003
00000000
00000000
00000000
,
00010100
00000000
00000000
00000000
01001000
00000000
00000000
00000000
00020100
00000000
00000000
00000010
00000000
00000000
00100000
00000000
,
00000000
00000010
00000000
00000000
00031000
00000000
00000000
00000000
20002000
00000000
00000000
00000000
30003000
00000000
00000000
00000000
,
02200000
00000000
00000000
00000000
,
00000000
00000000
03300000
00000000
,
20000000
30200000
00320000
00032000
,
00023000
02030000
03200000
00320000
,
20030000
32000000
03020000
00032000
,
00023000
00230000
00320000
00030200
,
00000320
00000032
00000203
00002300
,
00023000
00032000
00003020
00000230
,
00000302
00000203
00000320
00000032
,
00000203
00002300
00023000
00230000
,
20300000
00000000
32000000
00000000
,
03020000
00000000
00032000
00000000
,
00003200
00000000
00000302
00000000
,
00000023
00000000
00002030
00000000
,
00023000
00000000
00230000
00000000
,
20300000
00000000
32000000
00000000
,
03020000
00000000
00000000
00000000
,
00030020
00000000
00000000
00000000
,
00000130
00000000
00000000
00000000
00001001
00000000
00001000
00000010
00010000
00000010
00010000
00000010
00001000
00000000
00000001
00000010
,
00000100
00000000
00010000
00000000
00001000
00000000
01000000
00000000
00100000
00000000
10000000
00000000
01000000
00100000
00010000
00000000
,
01000000
00000000
00000000
00000000
10010000
00000000
00010000
00100000
00001000
00100000
00001000
00100000
00010000
00000000
00100000
01000000
,
10000000
00000000
00000000
10100000
00000000
00000000
01001000
00000000
00000000
00011000
00000000
00000000
00010100
00000000
00000000
00000000
,
00000021
00000000
00000000
00000000
00001000
00000000
00000000
00000000
00000031
00000000
00001000
00000010
00000000
00010000
00001000
00000000
,
00201000
00010000
01300000
00000000
,
10200000
00000000
00010000
00000000
10300000
01000000
00010000
01000000
,
10000000
00100000
10000000
00100000
01000000
00001000
01000000
00001000
00020000
00000000
00000000
00000000
00000000
00000000
00000000
00000000
,
00032000
00000000
00000000
00000000
,
00000000
00000000
00000000
00000000
00000000
00000000
00000000
00000000
00000020
00000030
00000000
00000000
00000000
00000000
00000000
00000000
,
00023000
00000000
00000000
00000000
,
00130000
00000000
00000000
00000000
,
01100000
00000000
10010000
10000000
01000000
00010000
00001000
00010000
,
00100000
01000000
10000000
01000000
00010000
01010000
01001000
00011000
,
00010100
00000000
00001001
00000001
00000100
00001000
00010000
00001000
,
00000010
00000100
00000001
00000100
00001000
00001100
00010100
00011000
,
01001000
01000000
00100000
10000000
01000000
00010000
01000000
10000000
,
00100000
00010000
00001000
00000010
00000001
00000011
00000110
00001100
,
00010100
00000100
00000010
00000001
00000100
00001000
00010000
00001000
,
00000100
00000000
00000001
00000000
00000010
00000000
00000100
00000000
00001000
00000001
00000100
00000001
00001000
00000000
00000000
00000000
,
00000001
00000010
00000100
00000010
00000001
00000000
00000100
00000000
00001000
00000000
00010000
00000000
00100000
00000000
10000000
00000000
,
01000000
00100000
00010000
00100000
01000000
00000000
00010000
00000000
00001000
00000000
00000010
00000000
00000100
00000000
00001000
00000000
,
00000001
00000100
00000010
00000100
00000001
00000000
00000010
00000000
00001000
00000000
00010000
00000000
01000000
00000000
10000000
00000000
,
00100000
01000000
00010000
01000000
00100000
00000000
00010000
00000000
00001000
00000000
00000100
00000010
00001000
00000001
00001000
00000001
,
00010000
00000100
00010000
00000100
00000010
00000000
00000001
00000000
00000100
00000000
00001000
00000000
00010000
00000000
01000000
00000000
,
00100000
00001000
00010000
00001000
00100000
00000000
01000000
00000000
00010000
00000000
00001000
00000000
00000100
00000000
00000010
00000000
,
00001000
00000100
00000010
00001000
00010000
00000000
00001000
00000000
01000000
00000000
00100000
00000000
10000000
00000000
01000000
00000000
,
00010000
00001000
00000010
00000100
00001000
00000000
00000010
00000000
00010000
00000000
00001000
00000000
01000000
00000000
00100000
10000000
,
00010000
00000000
00000000
00010000
00000000
00000000
01000000
00100000
10000000
00000000
00000000
10000000
00000000
00000000
01000000
00100000
,
00001000
00000000
00000000
00001000
00000000
00000000
01000000
00100000
00010000
00000000
00000000
00010000
00000000
00000000
00001000
00000000
,
00011000
00000000
00000000
00010000
00000000
00000000
00000100
00000010
00000001
00000000
00000000
00000001
00000000
00000000
00000100
00000010
,
00010000
00000000
00000000
00010000
00000000
00000000
00000100
00000010
00001000
00000000
00000000
00001000
00000000
00000000
00010000
00000000
,
00011000
00000000
00000000
00001000
00000000
00000000
01000000
00100000
10000000
00000000
00000000
10000000
00000000
00000000
01000000
00100000
,
00001000
00000000
00000000
00001000
00000000
00000000
01000000
00100000
00010000
00000000
00000000
00010000
00000000
00000000
00001000
00000000
,
00011000
00000000
00000000
00010000
00000000
00000000
00000100
00000010
00000001
00000000
00000000
00000001
00000000
00000000
00000100
00000010
,
00010000
00000000
00000000
00010000
00000000
00000000
00000100
00000010
00001000
00000000
00000000
00001000
00000000
00000000
00010000
00002000
,
00000000
00000000
00000000
00000000
,
00003000
00000000
00000000
00000000
;

//---------------dance-double - Ama-tan as "THE ABYSS"----------------
#NOTEDATA:;
#CHARTNAME:Ama-tan as "THE ABYSS";
#STEPSTYPE:dance-double;
#DESCRIPTION:Ama-tan as "THE ABYSS";
#CHARTSTYLE:;
#DIFFICULTY:Challenge;
#METER:19;
#RADARVALUES:0.842191,1.181902,0.600204,0.880299,0.997006,884.000000,794.000000,90.000000,132.000000,71.000000,0.000000,0.000000,0.000000,0.000000,0.842191,1.181902,0.600204,0.880299,0.997006,884.000000,794.000000,90.000000,132.000000,71.000000,0.000000,0.000000,0.000000,0.000000;
#CREDIT:Ama-tan as "THE ABYSS";
#NOTES:
00000000
00000000
00000000
00000000
00000000
0000MMMM
0000MMMM
0000MMMM
,
10020000
00000000
00000000
20030000
00000000
00000000
31000000
01000000
00001000
00000000
00000000
00002000
00000000
00000000
00013000
00010000
,
00100000
00000000
00000000
00200000
00000000
00000000
00301000
00001000
00000010
00000000
00000000
00000020
00000000
00000000
00000130
00000000
,
00000201
00000000
00000000
00000302
00000000
00000000
00000103
00000100
00010000
00000000
00000000
00020000
00000000
00000000
00031000
00001000
,
00000010
00000000
00000000
00000020
00000000
00000000
00010030
00010000
00100000
00000000
00000000
00200000
00000000
00000000
01300000
00000000
,
12000000
00000000
00000000
23000000
00000000
00000000
31000000
01000000
00001000
00000000
00000000
00002000
00000000
00000000
00013000
00010000
,
00100000
00000000
00000000
00200000
00000000
00000000
00301000
00001000
00000010
00000000
00000000
00000020
00000000
00000000
00000130
00000000
,
00000201
00000000
00000000
00000302
00000000
00000000
00000103
00000100
00010000
00000000
00000000
00020000
00000000
00000000
00031000
00001000
,
00000020
00000000
00000030
00000000
,
00000101
00000000
00000000
00000000
00001001
00000000
00001000
00000100
00010000
00001000
00010000
00000010
00000100
00000000
00001000
00000000
,
00011000
00000000
01010000
01000000
01100000
00000000
10100000
10010000
,
11000000
00000000
00000000
00000000
10010000
00000000
00010000
01000000
00001000
00010000
00001000
00100000
01000000
00000000
00010000
00000000
,
00011000
00000000
00001100
00000100
00000110
00000000
00000011
00001001
,
00002100
00000001
00000100
00000001
00003200
00010000
01000000
00010000
,
02000300
00001000
00010000
00001000
03020000
10000000
01000000
10000000
,
0203000M
0000000M
0000000M
000000MM
000000MM
000000MM
00000MMM
00000MMM
00000MMM
0000MMMM
0000MMMM
0000MMMM
000MMMMM
000MMMMM
00MMMMMM
00MMMMMM
,
M3MMMMMM
00000000
00000000
00000000
00000000
00000000
00000000
00000000
00010000
01000000
00100000
10000000
01000000
00100000
00010000
01000000
,
01100000
00000000
00000000
00000000
10010000
00000000
10000000
00000000
01000000
00100000
00001000
00000000
00000100
00000000
00000010
00000000
,
00000110
00000000
00000000
00000000
00001001
00000000
00000001
00000000
00000100
00001000
02000000
00000000
03000000
00000000
00000000
00000000
,
01001000
00000000
00000000
00000000
11000000
00000000
00100000
00001000
00010000
00000000
00010100
00000000
00000100
00000000
00000010
00000000
,
00000101
00000000
00000000
00000000
00010100
00000000
00010000
00001000
00000000
00000000
00000000
00000000
00000000
00000000
00000000
00000000
,
00000110
00000000
00000000
00000000
00001001
00000000
00000001
00000000
00000100
00000010
00010000
00000000
01000000
00000000
00100000
00000000
,
01100000
00000000
00000000
00000000
10010000
00000000
10000000
00000000
01000000
00010000
00000200
00000000
00000300
00000000
00000000
00000000
,
00010100
00000000
00000000
00000000
00000101
00000000
00000010
00010000
00001000
00000000
01001000
00000000
01000000
00000000
00100000
00000000
,
11000000
00000000
00000000
00000000
01001000
00000000
00001000
00010000
00001000
00000000
00202000
00000000
00303000
00000000
00000000
00000000
,
00001000
01000000
00010000
01000000
00100000
01000000
10000000
01000000
00100000
01000000
00010000
01000000
00001000
00010000
00000100
00001000
,
00000100
00010000
00000100
00001000
00000100
00000010
00000100
00000001
00000100
00000010
00000100
00001000
00000100
00010000
00000100
00010000
,
00001000
00100000
00010000
00100000
01000000
00100000
10000000
00100000
01000000
00100000
00010000
00100000
00001000
00010000
00000010
00001000
,
00000010
00010000
00000010
00001000
00000010
00000100
00000010
00000001
00000020
00000000
00002030
00000000
00023000
00000000
02030000
00000000
,
03010000
00100000
01000000
00010000
01000000
00100000
00001000
00010000
00000100
00001000
00000010
00000100
00001000
00000100
00000010
00010000
,
00000100
00000010
00001000
00000010
00000100
00010000
00001000
00100000
00010000
01000000
00100000
00010000
00100000
01000000
00010000
10000000
,
01000000
00100000
01000000
00010000
01000000
00001000
00010000
00001000
00000100
00001000
00000001
00001000
00000010
00000100
00000001
00000010
,
00000001
00000100
00000010
00001000
00000100
00010000
00001000
00100000
00010000
01000000
00100000
10000000
01000000
00100000
00010000
10000000
,
00100000
00000000
00000000
00000000
00011000
00000000
00000000
00000000
00002100
00000000
00000000
00000001
00000000
00000000
00000010
00000000
,
00000000
00023000
00000000
00000000
01000000
00000000
00000000
00000000
20030000
00000000
00000000
00000000
00000000
00000000
00000000
00000000
,
31000000
00100000
00010000
00001000
00000100
00000010
00000001
00000000
00000021
00000000
00000000
00000100
00000000
00001030
00020000
00000000
,
00000000
00100000
00000000
00000000
10030000
00000000
00000000
00000000
01100000
00000000
00000000
00000000
00000000
00000000
00000000
00000000
,
10000000
01000000
00010000
00001000
00000021
00000000
00001000
00000001
,
00000000
00000000
00000000
00002030
00000000
00000000
00000000
00000000
00000000
00013000
00100000
01000000
00020000
00000000
00000000
00000000
00000000
00000000
00000000
00000000
00000000
00000000
00000000
00000000
,
00000000
00000000
00000000
00000000
00000000
00000000
00000000
00000000
00000000
00000000
00000002
00000000
00000000
00000003
00000000
00000000
00000000
00000000
00000000
00000000
00000000
00000000
00000000
00000000
00130000
00000000
00000000
00000000
00000000
00000000
00000000
00000000
00000000
00001000
00000000
00000000
00000000
00000000
00000000
00000000
00000000
00000000
00010000
00000000
00000000
00000000
00000000
00000000
,
00010010
00000000
00001000
00000001
00000202
00000000
00000003
00000000
,
00010300
00001000
00000010
00000100
00010000
00001000
00000010
00000100
00002000
00000000
00000000
00000100
00000000
00000000
01000000
00000000
,
00000000
00010000
00000000
00000000
00103000
00000000
00000000
00000000
22000000
00000000
00000000
00000000
30000000
00000000
00000000
00000000
,
03001000
00010000
00100000
01000000
00001000
00010000
00100000
01000000
00020000
00000000
00000000
01000000
00000000
00000000
00000100
00000000
,
00000000
00001000
00000000
00000000
00030010
00000000
00100000
00001000
00020000
00000000
00000000
00000000
00000000
00000000
00000000
00000000
,
00030010
00000100
00001000
00010000
00000010
00000100
00001000
00010000
00002000
00000000
00000000
00100000
00000000
00000000
00000010
00000000
,
00000000
00100000
00000000
00000000
01003000
00001000
01000000
00000000
01100000
00000000
00000000
00000000
00000000
00000000
00000000
00000000
,
11000000
00000000
00000000
00000000
00000000
00000000
00000000
00000000
01010000
00000000
00000000
00000000
00000000
00000000
00000000
00000000
00101000
00000000
00000000
00000000
00010000
00001000
00010000
00000000
00000000
00000000
00000000
00000000
00001000
01000000
00001000
00000000
,
00000000
00000000
00010000
00000100
00010000
00000000
00000000
00000000
00001100
00000000
00000000
00000000
00000000
00000000
00000000
00000000
00000101
00000000
00000000
00000000
00000000
00000000
00000000
00000000
00000000
00000000
00000000
00000000
00000000
00000000
00000000
00000000
,
00022000
00000000
00000000
00000000
,
00000000
00000000
00033000
00000000
,
00020000
00230000
00320000
00032000
,
00003020
00000230
00000001
00020300
,
00032000
00003020
00002030
00023000
,
00230000
00001000
20300000
30002000
,
00023000
02030000
03020000
00032000
,
00003200
00000320
00000001
00020030
,
00032000
00003200
00002300
00023000
,
02030000
00001000
23000000
30002000
,
02003000
00000000
03020000
00000000
,
00032000
00000000
00003020
00000000
,
00000230
00000000
00002300
00000000
,
00023000
00000000
00230000
00000000
,
20300000
00000000
30020000
00000000
,
00032000
00000000
00003002
00000000
,
00002003
00000000
00000000
00000000
,
00023000
00000000
00000000
00000000
,
10030000
00000000
00010000
00000000
01010000
00000000
01000000
00001000
00100000
00010000
00100000
00001000
01000000
00000000
00001000
00010000
,
00000100
00010000
00001000
00000000
00001100
00000000
00000100
00000010
00000001
00000000
00000101
00000000
00000100
00000010
00001000
00000000
,
00001001
00000000
00001000
00000000
00001100
00000000
00000100
00010000
00000010
00001000
00000010
00010000
00000100
00000000
00010000
00001000
,
01000000
00000000
00000000
20200000
30300000
00000000
00202000
00303000
00000000
00020020
00030030
00000000
00000022
00000033
00000000
00000000
,
00002020
00000000
00003000
00000000
00000000
00000000
00000030
00000000
00001000
00000100
00010000
00001000
00000000
01000000
00010000
00000000
,
00220000
00000000
00000000
00300000
00000000
00000000
00030000
00000000
00000000
10000000
00010000
01000000
00002000
00000000
00000000
00000000
00000000
00000000
00003010
00000000
00000000
00000000
00000000
00000000
,
00000202
00000003
00000000
00000000
00000310
00001000
00010000
00001000
,
00000010
00000100
00001000
00010000
00100000
01000000
00010000
00100000
02000000
00000000
00000000
00000000
00000000
00000000
00000000
00000000
,
03020000
00000000
00000000
00000000
,
00000000
00000000
00000000
00000000
00000002
00000003
00000000
00000000
,
00032000
00000000
00000000
00000000
,
00003010
00000000
00000000
00000000
,
00001001
00000000
00000000
00000000
00000101
00000000
00000001
00000100
00000010
00001000
00000100
00000010
00001000
00010000
00000010
00010000
,
00001000
00100000
00001000
00010000
00100000
01000000
00010000
00100000
01000000
00000000
01100000
00000000
11000000
00000000
10010000
00000000
,
01010000
00000000
00000000
00000000
11000000
00000000
10000000
01000000
00100000
00010000
01000000
00100000
00010000
00001000
00100000
00001000
,
00010000
00000010
00010000
00001000
00000010
00000100
00001000
00000010
00000100
00000000
00000110
00000000
00000101
00000000
00001001
00000000
,
00001100
00000000
00000000
00000000
00000101
00000000
00000001
00000010
00000100
00001000
00000010
00000100
00001000
00010000
00000100
00010000
,
00001000
01000000
00001000
00010000
01000000
00100000
00010000
01000000
00100000
00000000
10100000
00000000
10010000
00000000
00110000
00000000
,
00100000
00010000
01000000
00100000
10000000
00010000
10000000
00100000
01000000
00010000
00100000
01000000
00010000
00001000
01000000
00001000
,
00010000
00000100
00010000
00001000
00000100
00000010
00001000
00000100
00000010
00000001
00000100
00000010
00010000
00001000
00010000
00001000
,
00010000
00000100
00001000
00000100
00000010
00000100
00000001
00000100
00000010
00000100
00001000
00000100
00010000
00001000
01000000
00010000
,
01000000
00001000
01000000
00010000
01000000
00100000
01000000
10000000
01000000
00100000
01000000
00010000
01000000
00001000
01000000
00001000
,
00010000
00000010
00001000
00000010
00000100
00000010
00000001
00000010
00000100
00000010
00001000
00000010
00010000
00001000
00100000
00010000
,
00100000
00001000
00100000
01000000
00100000
10000000
00100000
01000000
00100000
00000000
00101000
00000000
00011000
00000000
00001010
00000000
,
00001000
00000010
00000100
00001000
00000100
00000010
00010000
00001000
01000000
00010000
00100000
01000000
00010000
01000000
00100000
00001000
,
01000000
00100000
00010000
00100000
01000000
00001000
00010000
00000010
00001000
00000000
00001010
00000000
00000110
00000000
00000101
00000000
,
00000100
00000010
00000100
00001000
00000100
00010000
00001000
00010000
01000000
00010000
10000000
00010000
00100000
01000000
10000000
00100000
,
10000000
01000000
00100000
00010000
01000000
00001000
00010000
00000010
00001000
00000100
00000010
00000001
00000100
00000010
00001000
00000001
,
00002001
00000000
00000000
00003002
00000000
00000000
00000103
00000100
00010000
00000000
00000000
00020000
00000000
00000000
00031000
00001000
,
00000010
00000000
00000000
00000020
00000000
00000000
00010030
00010000
00100000
00000000
00000000
00100000
00000000
00000000
01000000
00000000
,
02100000
00000000
00000000
23000000
00000000
00000000
31000000
01000000
00001000
00000000
00000000
00002000
00000000
00000000
00013000
00010000
,
00100000
00000000
00000000
00200000
00000000
00000000
00301000
00001000
00000010
00000000
00000000
00000020
00000000
00000000
00000130
00000000
,
00000210
00000000
00000000
00000302
00000000
00000000
00000103
00000100
00010000
00000000
00000000
00020000
00000000
00000000
00031000
00001000
,
00000010
00000000
00000000
00000020
00000000
00000000
00010030
00010000
00100000
00000000
00000000
00200000
00000000
00000000
01300000
00000000
,
02100000
00000000
00000000
23000000
00000000
00000000
31000000
01000000
00001000
00000000
00000000
00002000
00000000
00000000
00013000
00010000
,
00100000
00000000
00000000
00200000
00000000
00000000
00301000
00001000
00000010
00000000
00000000
00000020
00000000
00000000
00000130
00000200
,
00000000
00000000
00000000
00000000
,
00000000
00000300
00000000
00000000
;
