#TITLE:Fog in 55°F;
#SUBTITLE:;
#ARTIST:dj VERTICAI;
#TITLETRANSLIT:;
#SUBTITLETRANSLIT:;
#ARTISTTRANSLIT:;
#GENRE:;
#CREDIT:;
#BANNER:Fog in 55°F.png;
#BACKGROUND:Fog in 55°F-bg.png;
#LYRICSPATH:;
#CDTITLE:;
#MUSIC:Fog in 55°F.ogg;
#OFFSET:-0.016277;
#SAMPLESTART:12.415009;
#SAMPLELENGTH:15.000000;
#SELECTABLE:YES;
#DISPLAYBPM:155.000000;
#BPMS:0.000000=155.000000
,110.000000=75.500000
,110.250000=155.000000
,110.500000=310.000000
,111.000000=155.000000
;
#STOPS:61.500000=0.194000,
62.000000=0.194000,
126.500000=0.387000,
149.250000=0.194000,
155.750000=0.194000,
163.250000=0.194000,
165.750000=0.194000,
169.500000=0.194000,
170.000000=0.194000,
282.750000=0.387000
;
#BGCHANGES:;
#KEYSOUNDS:;
#ATTACKS:;

//---------------dance-single - ----------------
#NOTES:
     dance-single:
     :
     Beginner:
     3:
     0.182444,0.269502,0.118985,0.055526,0.000000,161.000000,146.000000,15.000000,7.000000,0.000000,0.000000,0.182444,0.269502,0.118985,0.055526,0.000000,161.000000,146.000000,15.000000,7.000000,0.000000,0.000000:
0000
0000
0000
0000
,
0000
0000
0000
0000
,
0000
0000
0000
0000
,
0000
0000
0000
0000
,
1001
0000
0000
0000
,
1000
0000
0001
0000
,
1001
0000
0000
0000
,
0010
0000
0100
0000
,
1001
0000
0001
0000
,
0000
0000
0001
0000
,
1001
0000
1000
0000
,
0000
0000
1000
0000
,
1001
0000
0001
0000
,
0000
0000
0001
0000
,
1001
0000
1000
0000
,
0020
0000
0000
0030
0000
0000
1001
0000
,
0000
0010
0000
0000
,
0000
0010
0000
1001
,
0000
0100
0000
0000
,
0000
0100
0000
1001
,
0000
0010
0000
0000
,
0000
0010
0000
1001
,
0000
0100
0000
0001
,
1000
1000
0001
1001
,
0000
0000
0000
0000
,
0000
0000
0000
0000
,
0000
0000
0000
0010
,
0010
0020
0030
1000
,
0000
0000
1000
0000
0000
0100
1000
0000
,
0000
0000
1000
0000
0000
0001
1000
0000
,
0000
0000
1000
0000
0000
0010
1000
0000
,
0000
1000
0000
0000
,
0001
0000
0000
0100
0001
0000
0000
0000
,
0001
0000
0000
1000
0001
0000
0000
0000
,
0001
0000
0000
0010
0001
0000
1000
0000
,
0002
0003
1000
0000
,
1000
0000
1000
0010
,
0200
0000
0300
0001
0000
0000
0000
0001
,
0000
0000
0000
0001
0000
0010
0000
0100
,
0000
1000
0000
1000
,
0000
1000
1000
0001
,
0000
0001
0000
1000
0000
0000
1000
0000
,
0001
0000
0000
1001
0000
0000
0001
0000
,
0000
0100
0000
0010
,
0000
1000
0000
0010
,
0000
0100
0000
0001
,
0001
0001
0000
1000
,
0000
0100
0000
0010
,
0000
0001
0000
0010
,
0000
0100
0000
1000
,
1000
1000
0000
1001
,
0000
0000
0000
0000
,
0000
0000
0000
0000
,
0000
0000
0000
0000
,
0000
0000
0000
0001
,
0000
0001
0000
0100
,
0000
0100
0000
0000
,
0000
0010
0000
1000
,
0000
1000
0000
0001
,
0000
0001
0000
0010
,
0000
0010
0000
0100
,
0000
0100
0000
1000
,
1000
0001
0000
0000
,
1000
1000
0000
0100
,
0000
0100
0000
0010
,
0000
0010
0000
0001
,
0000
0001
0000
1000
,
0000
1000
0000
0010
,
0000
0010
0000
0100
,
0000
0100
0000
0001
,
0001
2000
3000
2002
,
0000
3003
0001
0100
,
0001
0000
1000
0100
,
1000
0000
0001
0010
,
0001
0000
1000
0010
,
1000
0010
1001
0000
;

//---------------dance-single - ----------------
#NOTES:
     dance-single:
     :
     Easy:
     7:
     0.281032,0.333754,0.071391,0.301429,0.071391,248.000000,239.000000,9.000000,38.000000,0.000000,0.000000,0.281032,0.333754,0.071391,0.301429,0.071391,248.000000,239.000000,9.000000,38.000000,0.000000,0.000000:
0000
0000
0000
0000
,
0000
0000
0000
0000
,
0000
0000
0000
0000
,
0000
0000
0000
0000
,
1000
0000
0001
0000
0010
0000
0000
0010
,
0000
0000
0010
0000
0000
0010
0000
0000
,
0001
1000
0010
0100
,
0200
0000
0000
0300
,
0001
0000
0100
0000
0010
0000
0000
1000
,
0000
0000
1000
0000
0000
0010
0000
0000
,
1000
0000
0100
0000
0010
0000
0000
0001
,
0000
0000
0001
0000
0000
0010
0000
0000
,
0001
0000
0100
0000
0010
0000
0000
1000
,
0000
0000
1000
0000
0000
0001
0000
0000
,
1000
0100
0010
0001
,
0002
0000
0000
1003
1000
1000
0001
0000
,
0100
0000
0020
0030
0000
0000
1000
0000
,
0010
0000
0200
0300
0000
0000
0001
0000
,
0100
0000
0020
0030
0000
0000
1000
0000
,
0010
0001
0010
1000
,
0100
0000
0020
0030
0000
0000
0001
0000
,
0010
0000
0200
0300
0000
0000
1000
0000
,
0100
0000
0020
0030
0000
0000
0001
0000
,
0010
1000
0010
0200
,
0000
0000
0000
0000
,
0000
0000
0300
0000
,
1000
0000
0001
1000
,
0001
0000
0000
0000
0100
0000
0000
0000
0020
0030
0000
0000
1000
0000
0000
0000
,
0100
0000
0000
0000
1000
0000
0000
2000
0000
0000
3000
0000
0001
0000
0000
0000
,
0100
0000
0000
0000
0001
0000
0000
0002
0000
0000
0003
0000
1000
0000
0000
0000
,
0100
0000
0000
0000
1000
0000
0000
2000
0000
0000
3000
0000
0001
0000
0000
0000
,
0101
0000
1000
0000
2200
3300
0100
0000
,
0010
0000
0000
0020
0000
0000
0030
0000
0001
0000
0000
0000
0100
0000
0000
0000
,
0010
0000
0000
0020
0000
0000
0030
0000
1000
0000
0000
0000
0100
0000
0000
0000
,
0010
0000
0000
0100
0000
0000
0010
0000
0001
0000
0000
0000
1000
0000
0000
0000
,
0001
1001
1000
0100
,
1000
0100
0010
0001
,
0010
0000
0000
0000
0002
0003
0000
0000
0000
0000
0100
0000
0000
0000
0001
0000
,
0000
0000
0100
0000
0000
0000
0010
0000
0000
0000
1000
0000
0000
0000
0020
0030
,
0000
1000
0100
0010
,
0001
0000
0000
0000
0010
0000
0000
0000
0100
0000
0000
0000
2000
3000
0000
0000
,
0000
0000
1000
0000
0000
0000
0002
0003
0000
0000
0000
0000
0001
0000
0000
0000
,
1000
0000
0000
0010
0010
0010
1000
0000
,
0100
1000
0001
1000
,
0010
0100
0001
0001
,
0100
0001
1000
0001
,
0010
0100
1000
1000
,
0010
1000
0001
1000
,
0100
0010
0001
0001
,
0010
0001
1000
0001
,
0100
0010
0110
2002
,
0000
0000
0000
0000
,
0000
0000
0000
3003
,
0000
0000
0000
0000
,
0000
0000
0000
0001
,
0100
0010
0100
0001
,
0010
0000
0100
0000
0020
0030
0000
0000
,
0001
1000
0010
1000
,
0100
0000
0000
0100
0000
0000
1000
0000
,
0010
0100
0001
0100
,
0010
1000
0100
0100
,
1000
0001
0010
0001
,
0100
0000
0000
0200
0000
0000
0300
0000
,
1001
0001
0100
0010
,
1000
0001
0010
0200
,
0300
0020
0030
0100
,
1000
0001
0200
0300
,
0010
1000
0100
1000
,
0001
0100
0001
0010
,
0010
0100
1000
0010
,
0010
0000
0000
0000
0000
0000
0000
0000
0100
0000
0000
0000
0000
0000
0000
0000
0001
0000
0000
0000
2000
3000
0000
0000
2002
0000
0000
0000
0000
0000
0000
0000
,
0000
3003
1000
0100
,
0010
0000
0000
0020
0000
0000
0030
0000
0001
0000
0000
0000
0100
0000
0000
0000
,
0010
0000
0000
0020
0000
0000
0030
0000
1000
0000
0000
0000
0100
0000
0000
0000
,
0010
0000
0000
0022
0000
0033
0000
0000
0001
0000
0000
0000
0100
0000
0000
0000
,
0010
0000
0000
2020
0000
3030
0000
0000
0002
0000
0000
0000
0000
0000
0000
0000
,
0000
0000
0003
0000
;

//---------------dance-single - ----------------
#NOTES:
     dance-single:
     :
     Medium:
     12:
     0.444212,0.552389,0.269700,0.245903,0.237971,392.000000,358.000000,34.000000,31.000000,0.000000,0.000000,0.444212,0.552389,0.269700,0.245903,0.237971,392.000000,358.000000,34.000000,31.000000,0.000000,0.000000:
0000
0000
0000
0000
,
0000
0000
0000
0000
,
0000
0000
0000
0000
,
0000
0000
0000
0000
,
1000
0000
0100
0000
0020
0000
0000
0000
0031
0000
0000
0010
0000
0000
0001
0000
,
0000
0100
0000
0000
0001
0000
0000
0001
1000
0000
0000
0000
1000
0001
0000
0000
,
0001
0000
0100
0000
0020
0000
0000
0000
1030
0000
0000
0010
0000
0000
0100
0000
,
2002
0000
0000
3003
,
0001
0000
0100
0000
0010
0000
1000
0000
0001
0000
0000
0001
0000
0000
0010
0000
,
0000
0010
0000
0000
0100
0000
0000
0100
0000
0000
1000
0000
0000
0001
0000
0000
,
1000
0000
0100
0000
0010
0000
0001
0000
1000
0000
0000
1000
0000
0000
0010
0000
,
0000
0010
0000
0000
0100
0000
0000
0100
0000
0000
0001
0000
0000
1000
0000
0000
,
0001
0000
0010
0000
0100
0000
1000
0000
0010
0000
0000
0010
0000
0000
0100
0000
,
0000
0100
0000
0000
0001
0000
0000
0001
0000
0000
1000
0000
0000
0001
0000
0000
,
1000
0000
0100
0000
0010
0000
0001
0000
0100
0000
0000
0100
0000
0000
0100
0000
,
0010
0000
0000
0010
0000
0000
0110
0000
1001
0000
0001
0000
1000
0000
0000
0000
,
1000
0100
0020
0030
0000
0010
0001
0000
,
0001
0100
0020
0030
0000
0010
0100
0000
,
0001
0010
0200
0300
0000
0100
1000
0000
,
1000
0000
0010
0000
0100
0000
0010
0000
0000
0010
0000
0000
1000
0000
0000
0000
,
0010
0100
2000
3000
0000
0100
0001
0000
,
0010
0100
0002
0003
0000
0100
0010
0000
,
0100
0000
1000
0000
0001
0000
0000
0000
0100
0000
0001
0000
0010
0000
0000
0010
,
0000
0000
0001
0000
0000
0001
0000
0000
1000
0000
0010
0000
0200
0000
0000
0000
,
0000
0000
0000
0000
,
0000
0000
0000
0301
,
0100
0000
1000
0000
0100
0000
0001
0100
,
0001
0000
1000
0000
0100
0000
1000
0000
0020
0030
0000
0000
1000
0000
0000
0000
,
1100
0000
0000
0000
1001
0000
0000
1010
0000
0000
1000
0000
0001
0000
0000
0000
,
0101
0000
0000
0000
1001
0000
0000
0011
0000
0000
0001
0000
1000
0000
0000
0000
,
1100
0000
0000
0000
0110
0000
0000
1001
0000
0000
0001
0000
0100
0000
0000
0000
,
0100
0010
1000
0001
0010
0200
0300
0000
,
1100
0000
0000
0011
0000
0000
0001
0000
0100
0000
0000
0000
0110
0000
0000
0000
,
0101
0000
0000
1010
0000
0000
1000
0000
0200
0000
0000
0000
0320
0000
0000
0000
,
0032
0000
0000
0203
0000
0000
0320
0000
1030
0000
0000
0000
1000
0000
0000
0000
,
1000
0010
0100
0001
1000
0000
1000
0100
,
0000
1000
0010
0000
0100
0000
0100
0000
,
0001
0000
1000
0000
0002
0003
0000
0000
0000
0000
0001
0000
0100
0000
0000
0000
,
0001
0000
0010
0000
0000
0000
0100
0000
0000
0000
1000
0000
0001
0000
2000
3000
,
0000
0000
0001
0000
0100
0010
0000
1000
,
0100
0000
0000
0000
0100
0000
0000
0000
0010
0000
0001
0000
0020
0030
0000
0000
,
0001
0000
1000
0000
0010
0000
2000
3000
0000
0000
1000
0000
0001
0000
0010
0000
,
0001
0000
0010
0100
0100
0100
1000
0000
,
1000
0001
0000
0010
0000
0000
0001
0000
0000
1000
0000
0100
0000
0000
1000
0000
,
0000
0001
0000
0010
0000
0000
0001
0000
0000
0000
0001
0000
1000
0000
0000
0000
,
0001
1000
0000
0010
0000
0000
1000
0000
0000
0001
0000
0100
0000
0000
0001
0000
,
0000
1000
0000
0010
0000
0000
1000
0000
0000
0000
0001
0000
0100
0000
0000
0000
,
0100
0010
0000
0100
0000
0000
0010
0000
0000
1000
0000
0001
0000
0000
1000
0000
,
0000
0100
0000
0010
0000
0000
0100
0000
0000
0000
0100
0000
1000
0000
0000
0000
,
0001
0010
0000
0100
0000
0000
0010
0000
0000
0001
0000
1000
0001
0000
0100
0000
,
0010
0100
0001
1000
0100
0010
0002
0000
,
0000
0000
0000
0000
,
0000
0000
0000
1003
,
0000
0000
0000
0000
,
0000
0000
0000
1000
,
0001
0010
0000
0100
0010
0000
0002
0000
,
0100
0000
0000
1000
2003
3000
0000
1001
,
0000
0001
0100
0000
0010
0000
2000
0000
,
0100
0000
0000
3001
0000
0001
0010
0000
,
0010
0100
1000
0000
0001
0100
0020
0000
,
0230
0000
0301
0001
0000
1000
0001
0000
,
0010
0000
0100
1000
0100
0000
1000
0001
,
0100
0010
0000
0010
0000
1000
0001
0000
,
1001
1000
1100
0001
,
0101
0000
0100
0010
0000
0100
0001
0000
,
0001
1000
0000
0001
0010
0000
0100
0000
,
0100
1000
0001
1000
0001
0000
0010
0000
,
0100
0100
0000
0010
0100
0000
1000
0000
,
0100
0010
0001
0100
0000
0100
0010
0000
,
1000
0010
0000
0100
0001
0000
0001
0000
,
0010
0000
0001
0000
0000
0000
1000
0000
0100
0000
0020
0030
2002
0000
0000
0000
,
0000
3003
0001
0101
,
1010
0000
0000
0101
0000
0000
0001
0000
1000
0000
0000
0000
1100
0000
0000
0000
,
0011
0000
0000
1100
0000
0000
1000
0000
0001
0000
0000
0000
0101
0000
0000
0000
,
0110
0000
0000
1010
0000
0000
0010
0000
1000
0000
0000
0000
1100
0000
0000
0000
,
0110
0000
0000
0011
0000
0000
0001
0000
2000
0000
0000
0000
0000
0000
0000
0000
,
0000
0000
0000
0000
,
0000
0000
0000
3000
0000
0000
0000
0000
;

//---------------dance-single - ----------------
#NOTES:
     dance-single:
     :
     Hard:
     14:
     0.677650,0.797896,0.277632,0.404550,0.579062,598.000000,563.000000,35.000000,51.000000,0.000000,0.000000,0.677650,0.797896,0.277632,0.404550,0.579062,598.000000,563.000000,35.000000,51.000000,0.000000,0.000000:
0000
0000
0000
0000
,
0000
0000
0000
0000
,
0000
0000
0000
0000
,
0000
0000
0000
0000
,
1000
0000
0100
0000
1000
0000
0010
0000
0100
0000
0000
0101
0000
0000
1001
0000
,
0000
1100
0000
0000
0100
0010
0000
0010
0001
0000
1000
0000
1000
0010
0000
0000
,
0110
0000
0001
0000
0100
0000
0010
0000
1000
0000
0000
1001
0000
0000
0001
0000
,
0010
0000
0000
0010
0000
0000
0010
0000
0100
1000
0000
0001
0000
1000
0000
0001
,
0200
0000
0010
0000
0302
0000
1000
0000
0013
0000
0100
0010
0000
0000
0010
0000
,
0001
0010
0000
0000
0010
0000
1000
0010
0000
0000
0011
0000
0000
1100
0000
0000
,
0001
1000
0002
0000
0010
0000
1000
0000
0103
0000
0001
0100
0000
0000
0100
0000
,
0010
0100
0000
0000
0100
0000
1000
0100
0000
0000
0210
0000
0000
0302
0000
0000
,
0023
0000
0100
0000
0032
0000
1000
0000
0103
0000
0001
1000
0000
0000
0100
0000
,
1000
0001
0000
0000
0100
0000
0001
1000
0000
0000
1010
0000
0000
0101
0000
0000
,
0100
0010
0200
0000
1000
0000
0010
0000
0302
0000
0000
1003
0000
0000
1000
0000
,
1010
0000
0000
0100
0000
0000
1001
0000
0110
0000
1001
0000
0001
0000
0100
0000
,
0010
0000
0100
0000
0001
0000
1000
0100
0000
0000
0010
0000
0001
0100
0000
0000
,
0001
0000
0010
0100
0000
0000
0110
0000
0000
0011
0000
0000
1000
0000
0010
0000
,
0100
0000
0010
0000
1000
0000
0100
0010
0000
0000
0100
0000
0100
0000
1000
0000
,
0001
0100
0001
0100
0010
0000
0110
0000
0000
1010
0000
0000
1000
0000
0002
0000
,
0103
0020
1030
0002
0103
0020
1030
0200
,
0310
0000
0002
0000
1003
0000
0200
0000
0310
0001
0000
0001
1000
0000
1000
0000
,
0001
0000
0001
0000
0100
0000
0010
1000
0000
0001
0010
0000
0011
0000
0000
1000
,
0000
0000
1010
0000
0000
0001
0000
0000
1000
0001
1000
0010
0200
0000
0000
0000
,
0000
0000
0000
0000
,
0000
0000
0000
0000
0000
0000
0310
1000
,
0100
0000
0000
0100
0000
0010
0001
0000
0100
0000
0000
0100
0010
0000
0000
0100
,
0010
0000
0000
0010
1000
0000
0001
0000
0020
0030
0000
0000
0100
0000
1000
0000
,
0100
0000
1000
0000
0001
0000
0100
0001
0000
0100
0001
0000
0010
0000
0001
0000
,
0010
0000
0001
0000
1000
0000
0010
1000
0000
1000
0010
0000
0100
0000
0001
0000
,
0100
0000
0001
0000
1000
0000
0100
1000
0000
0100
1000
0000
0010
0000
0010
1000
,
0010
0010
0100
0001
0010
0110
0100
1000
,
0010
0000
1000
0010
0000
1000
0010
0000
0100
0000
0001
0000
1000
0000
0001
0000
,
0010
0000
0001
0010
0000
0010
0001
0000
0100
0000
0010
0000
1000
0000
0001
0000
,
0010
0000
0100
1000
0000
0001
0100
0000
0001
1000
0001
0000
0010
0000
0100
0000
,
1000
1000
2000
3001
1000
0100
0001
1000
,
0010
0000
0001
0000
1000
0000
0100
0010
0001
0000
0010
0000
1000
0000
0001
0000
,
0100
0000
0000
0000
0000
0000
0000
0000
0000
0000
0000
0000
0000
0000
0000
0000
0000
0000
0000
0000
0000
0000
0000
0000
1000
0000
0000
0000
0000
0000
0000
0000
0000
0000
0000
0000
0000
0000
0000
0000
0000
0000
0000
0000
0000
0000
0000
0000
1000
0000
0000
0000
0000
0000
0000
0000
0000
0000
0000
0001
0000
0000
0000
0000
0000
0000
0000
0000
0000
0000
0000
0000
0001
0000
0000
0000
0000
0000
0000
0000
0000
0000
0000
0000
0000
0000
0000
0000
0000
0000
0000
0000
0000
0000
0000
0000
0100
0000
0000
0000
0000
0000
0000
0000
0000
0000
0000
0000
0000
0000
0000
0000
0000
0000
0000
0000
0000
0000
0000
0000
1000
0000
0000
0000
0000
0000
0000
0000
0000
0000
0000
0000
0000
0000
0000
0000
0000
0000
0000
0000
0000
0000
0000
0000
0001
0000
0000
0000
0000
0000
0000
0000
0000
0000
0000
0000
0000
0000
0000
0000
0000
0000
0000
0000
0000
0000
0000
0000
0010
0000
0000
0000
0000
0000
0000
0000
0000
0000
0000
0000
0000
0000
0000
0000
0000
0000
0000
0000
0000
0000
0000
0000
,
1000
0000
0000
0000
0000
0000
0000
0000
0000
0000
0000
0000
0000
0000
0000
0000
0000
0000
0000
0000
0000
0000
0000
0000
0001
0000
0000
0000
0000
0000
0000
0000
0000
0000
0000
0000
0000
0000
0000
0000
0000
0000
0000
0000
0000
0000
0000
0000
0100
0000
0000
0000
0000
0000
0000
0000
0000
0000
0000
0000
0010
0000
0000
0000
0000
0000
0000
0000
0000
0000
0000
0000
1000
0000
0000
0000
0000
0000
0000
0000
0000
0000
0000
0000
0000
0000
0000
0000
0000
0000
0000
0000
0000
0000
0000
0000
0010
0000
0000
0000
0000
0000
0000
0000
0000
0000
0000
0000
0000
0000
0000
0000
0000
0000
0000
0000
0000
0000
0000
0000
0001
0000
0000
0000
0000
0000
0000
0000
0000
0000
0000
0000
0000
0000
0000
0000
0000
0000
0000
0000
0000
0000
0000
0000
1000
0000
0000
0000
0000
0000
0000
0000
0000
0000
0000
0000
0000
0000
0000
0000
0000
0000
0000
0000
0000
0000
0000
0000
0100
0000
0000
0000
0000
0000
0000
0000
0000
0000
0000
0010
0000
0000
0000
0000
0000
0000
0000
0000
0000
0000
0000
0000
,
1000
1000
1000
0100
0010
0001
0010
0100
,
1000
0000
0000
0000
0000
0000
0000
0000
0000
0000
0000
0000
0000
0000
0000
0000
0000
0000
0000
0000
0000
0000
0000
0000
0001
0000
0000
0000
0000
0000
0000
0000
0000
0000
0000
0000
1000
0000
0000
0000
0000
0000
0000
0000
0000
0000
0000
0000
0001
0000
0000
0000
0000
0000
0000
0000
0000
0000
0000
0000
0000
0000
0000
0000
0000
0000
0000
0000
0000
0000
0000
0000
0100
0000
0000
0000
0000
0000
0000
0000
0000
0000
0000
0000
0000
0000
0000
0000
0000
0000
0000
0000
0000
0000
0000
0000
0100
0000
0000
0000
0000
0000
0000
0000
0000
0000
0000
0000
0000
0000
0000
0000
0000
0000
0000
0000
0000
0000
0000
0000
0010
0000
0000
0000
0000
0000
0000
0000
0000
0000
0000
0000
1000
0000
0000
0000
0000
0000
0000
0000
0000
0000
0000
0000
0010
0000
0000
0000
0000
0000
0000
0000
0000
0000
0000
1000
0000
0000
0000
0000
0000
0000
0000
0000
0000
0000
0000
0000
0001
0000
0000
0000
0000
0000
0000
0000
0000
0000
0000
0000
0000
0000
0000
0000
0000
0000
0000
0000
0000
0000
0000
0000
,
1000
0000
0000
0000
0000
0000
0000
0000
0000
0000
0000
0000
0000
0000
0000
0000
0000
0000
0000
0000
0000
0000
0000
0000
0100
0000
0000
0000
0000
0000
0000
0000
0000
0000
0000
0000
0000
0000
0000
0000
0000
0000
0000
0000
0000
0000
0000
0000
0010
0000
0000
0000
0000
0000
0000
0000
0000
0000
0000
0000
0001
0000
0000
0000
0000
0000
0000
0000
0000
0000
0000
0000
0010
0000
0000
0000
0000
0000
0000
0000
0000
0000
0000
0001
0000
0000
0000
0000
0000
0000
0000
0000
0000
0000
0000
0000
1000
0000
0000
0000
0000
0000
0000
0000
0000
0000
0000
0000
0000
0000
0000
0000
0000
0000
0000
0000
0000
0000
0000
0000
0001
0000
0000
0000
0000
0000
0000
0000
0000
0000
0000
0000
0000
0000
0000
0000
0000
0000
0000
0000
0000
0000
0000
0000
0100
0000
0000
0000
0000
0000
0000
0000
0000
0000
0000
0000
0000
0000
0000
0000
0000
0000
0000
0000
0000
0000
0000
0000
0010
0000
0000
0000
0000
0000
0000
0000
0000
0000
0000
0000
1000
0000
0000
0000
0000
0000
0000
0000
0000
0000
0000
0000
,
0010
1000
0001
0000
0010
0000
0110
0000
1100
0000
0011
0000
0001
0000
1000
0000
,
0100
0010
0000
0100
0000
0000
1000
0000
0010
0100
0000
0010
0000
0000
1000
0000
,
0100
0000
0010
0001
0010
0000
0100
0000
1000
0000
0001
0000
0002
0000
0003
0000
,
0100
0010
0000
0100
0000
0000
0001
0000
0010
0100
0000
0010
0000
0000
0011
0000
,
0000
0000
1020
0000
0000
0000
0100
0000
1030
0000
1000
0001
2000
0000
3000
0000
,
0100
0010
0000
0001
0000
0000
0100
0000
0100
0010
0000
1000
0000
0000
0100
0000
,
0100
1000
0000
0001
0100
0000
0010
0000
0220
0000
0330
0000
0000
0000
1000
0000
,
0010
0100
0000
0001
0000
0000
0010
0000
0010
0100
0000
0100
1000
0000
0001
0000
,
1000
0000
0001
0000
1000
0010
0000
1000
0000
0001
0100
0000
0002
0000
0000
0000
,
0203
0000
0302
0000
2003
0000
0000
3200
0000
0000
0310
0000
0020
0000
0000
0000
,
0032
0000
0203
0000
0310
1000
0002
0000
,
0000
0000
0000
0003
,
0000
0000
0000
0000
0000
0010
0000
0010
0000
0100
0000
0100
0010
0000
0001
0000
,
0100
0000
0010
0000
1000
0000
0100
0000
0010
0001
0000
0001
1000
0000
0100
0000
,
1000
0000
0010
0000
0100
0000
0001
0000
0010
0100
0010
0100
0000
0000
2000
0000
,
0000
0000
3000
0001
1000
0000
0010
0000
0100
0001
0000
0001
0010
0000
0100
0000
,
1001
0000
0100
0000
0010
0000
0220
0330
0000
0000
1001
0000
1000
0000
0010
0000
,
0100
0000
0010
0000
1000
0001
0000
0010
0000
0010
0001
0000
0002
0000
0100
0000
,
2003
0000
0010
0000
3001
0000
0000
0001
0000
0100
0010
0000
0010
0000
1000
0000
,
0100
0000
0010
0000
0001
0010
0000
0001
0000
1000
0010
0000
0100
0000
0010
0000
,
1010
0000
1000
0000
0100
0000
0011
0000
0001
0010
0002
0000
0003
0000
0010
0001
,
1000
1000
0010
0100
0010
1000
0002
0000
,
0013
0000
0001
0000
1000
0100
0000
0100
0000
1000
0001
0000
0010
0000
0100
0000
,
0010
0001
0000
1000
0000
1000
0010
0000
0100
0000
0001
0000
1000
0000
0001
0000
,
0010
0100
0010
0000
0001
0000
0202
0303
0000
0000
1100
0000
0100
0000
1000
0000
,
0010
0100
0000
0020
0000
0000
0100
0000
1030
0000
1000
0000
0010
0000
1000
0000
,
0001
0000
0000
0020
0000
0000
0100
0000
0031
0000
0001
0000
0010
0000
0100
0000
,
1000
0001
0000
0100
0000
0100
0010
0000
0010
0000
1000
0010
1000
0000
0001
0010
,
0001
0000
0000
0000
0000
0000
0000
0000
0000
0000
0000
0000
0000
0000
0000
0000
0000
0000
0000
0000
0000
0000
0000
0000
0001
0000
0000
0000
0000
0000
0000
0000
0000
0000
0000
0000
0000
0000
0000
0000
0000
0000
0000
0000
0000
0000
0000
0000
1000
0000
0000
0000
0000
0000
0000
0000
0000
0000
0000
0000
0100
0000
0000
0000
0000
0000
0000
0000
0000
0000
0000
0000
0000
0000
0000
0000
0000
0000
0000
0000
0000
0000
0000
0000
0100
0000
0000
0000
0000
0000
0000
0000
0000
0000
0000
0000
1000
0000
0000
0000
0000
0000
0000
0000
0000
0000
0000
0000
0100
0000
0000
0000
0000
0000
0000
0000
0000
0000
0000
0000
0010
0000
0000
0000
0000
0000
0000
0000
0000
0000
0000
0001
0000
0000
0000
0000
0000
0000
0000
0000
0000
0000
0000
0000
2002
0000
0000
0000
0000
0000
0000
0000
0000
0000
0000
0000
0000
0000
0000
0000
0000
0000
0000
0000
0000
0000
0000
0000
0000
0000
0000
0000
0000
0000
0000
0000
0000
0000
0000
0000
0000
0000
0000
0000
0000
0000
0000
0000
0000
0000
0000
0000
,
0000
0000
3003
0000
1000
0100
0001
0100
,
1000
0000
0100
0010
0000
0000
0010
0000
0001
0000
0100
0000
1000
0000
0100
0000
,
0001
0000
0100
0010
0000
0000
0010
0000
2000
0000
0100
0000
3002
0000
0010
0000
,
1003
0000
0100
0010
0000
0000
0010
0000
0002
0000
0100
0000
2003
0000
0010
0000
,
3001
0000
0100
0010
0000
0010
0100
0001
2000
0000
0000
0000
0000
0000
0000
0000
,
0000
0000
0000
0000
,
0000
0000
0000
3000
0000
0000
0000
0000
;

//---------------dance-single - ----------------
#NOTES:
     dance-single:
     :
     Challenge:
     16:
     0.840829,0.859966,0.388685,0.325226,0.995510,742.000000,693.000000,49.000000,41.000000,0.000000,0.000000,0.840829,0.859966,0.388685,0.325226,0.995510,742.000000,693.000000,49.000000,41.000000,0.000000,0.000000:
// measure 0
0000
0000
0000
0000
,  // measure 1
0000
0000
0000
0000
,  // measure 2
0000
0000
0000
0000
,  // measure 3
0000
0000
0000
0000
,  // measure 4
1000
0000
0001
0000
0100
0000
0001
0000
0010
0001
0000
0001
0010
0000
0001
1000
,  // measure 5
0000
1000
0010
0000
0100
0010
0000
0010
1000
0000
0001
1000
0001
0010
0000
0010
,  // measure 6
0100
0010
0100
0000
1000
0000
0001
0000
0100
0000
0100
0001
0000
1000
0100
0000
,  // measure 7
0010
0000
0000
0011
0000
0000
1010
0000
0010
1000
0000
0001
0000
0010
0001
1000
,  // measure 8
0001
0000
0001
0000
2000
0000
0100
0000
3001
0000
0001
0100
0000
0100
0010
0000
,  // measure 9
1000
0100
0000
0100
0010
0000
0100
1000
0000
0000
1100
0000
0000
0011
0000
0000
,  // measure 10
0010
0001
0010
0000
0002
0000
0100
0000
1003
0000
1000
0010
0000
0010
0100
0000
,  // measure 11
0001
0010
0000
0010
0100
0000
1000
0001
0000
0000
0102
0000
0000
0013
0000
0000
,  // measure 12
2001
0000
0100
0000
3002
0000
0100
0000
1003
0000
1000
0001
0000
0010
0001
0000
,  // measure 13
0001
1000
0000
0010
1000
0000
0001
0100
0000
0000
0101
0000
0000
1010
0000
0000
,  // measure 14
0010
0100
0010
0000
2000
0000
0100
0000
3001
0000
0001
1000
0000
1000
0100
0000
,  // measure 15
0010
0000
0010
0001
0000
0000
0011
0000
0101
0000
1100
0000
1000
0000
0001
0000
,  // measure 16
0100
0010
0100
0010
1000
0000
0002
0000
0003
0000
1000
0001
1000
0000
0001
0000
,  // measure 17
0010
0100
0010
0100
1000
0000
1100
0000
0000
0101
0000
0000
0001
0000
1000
0000
,  // measure 18
0010
0100
0010
0100
0001
0000
2000
0000
3000
0000
0001
1000
0001
0000
1000
0000
,  // measure 19
0100
0010
0100
0010
0001
0000
0011
0000
0000
1010
0000
0000
1000
0000
0001
0100
,  // measure 20
0001
0000
1000
0010
1000
0000
0001
0100
0010
0000
1000
0010
0100
0000
0001
0010
,  // measure 21
0001
0000
1000
0100
1000
0000
0001
0010
0100
0000
1000
0100
0010
0000
0010
0000
,  // measure 22
0001
0000
1000
0000
0010
1000
0001
0100
0001
0010
0100
1000
0010
0000
0000
1010
,  // measure 23
0000
0000
0110
0000
0000
0101
0000
0000
0001
0100
0010
1000
0200
0000
0000
0000
,  // measure 24
0000
0000
0000
0000
,  // measure 25
0000
0000
0000
0000
0000
0000
0310
0100
,  // measure 26
0001
0000
0100
1000
0000
0001
0100
0000
1000
0000
0100
0010
1000
0000
0100
0010
,  // measure 27
0001
0000
1000
0001
1000
0010
0100
0000
2002
3003
0000
0000
0101
0000
1000
0000
,  // measure 28
1100
0000
0001
0000
0101
0000
0100
0010
0000
0100
0010
0000
1010
0000
0001
0000
,  // measure 29
0011
0000
1000
0000
1010
0000
0010
0100
0000
0010
0100
0000
0101
0000
0001
0000
,  // measure 30
1001
0000
0001
0000
0011
0000
0010
0100
0000
1000
0100
0000
0010
0001
0010
0100
,  // measure 31
0020
0230
2300
3002
0103
0110
1010
0100
,  // measure 32
0011
0000
0010
0100
0000
0100
1000
0000
1100
0000
0010
0000
0101
0000
0010
0000
,  // measure 33
1001
0000
0001
0010
0000
0010
0100
0000
1100
0000
1000
0000
1001
0000
1000
0000
,  // measure 34
1010
0000
0010
1000
0000
0001
0010
0000
0010
0100
1000
0000
0010
0000
0010
0100
,  // measure 35
0002
0000
1003
0000
2000
0000
3001
0000
1000
0000
1000
0001
0100
0000
0001
0100
,  // measure 36
0001
1000
0010
0000
1000
0000
0001
0000
1000
0000
1000
0001
0010
0000
0001
0010
,  // measure 37
0001
0000
0000
0000
0000
0000
0000
0000
0000
0000
0000
0000
1000
0000
0000
0000
0000
0000
0000
0000
0000
0000
0000
0000
0100
0000
0000
0000
0000
0000
0000
0000
0000
0000
0000
0000
0000
0000
0000
0000
0000
0000
0000
0000
0000
0000
0000
0000
0010
0000
0000
0000
0000
0000
0000
0000
0000
0000
0000
0001
0000
0000
0000
0000
0000
0000
0000
0000
0000
0000
0000
0000
0001
0000
0000
0000
0000
0000
0000
0000
0000
0000
0000
0000
0000
0000
0000
0000
0000
0000
0000
0000
0000
0000
0000
0000
0010
0000
0000
0000
0000
0000
0000
0000
0000
0000
0000
0000
0100
0000
0000
0000
0000
0000
0000
0000
0000
0000
0000
0000
1000
0000
0000
0000
0000
0000
0000
0000
0000
0000
0000
0000
0000
0000
0000
0000
0000
0000
0000
0000
0000
0000
0000
0000
0100
0000
0000
0000
0000
0000
0000
0000
0000
0000
0000
0000
0010
0000
0000
0000
0000
0000
0000
0000
0000
0000
0000
0000
0100
0000
0000
0000
0000
0000
0000
0000
0000
0000
0000
0000
0010
0000
0000
0000
0000
0000
0000
0000
0000
0000
0000
0000
,  // measure 38
0001
0000
0000
0000
0000
0000
0000
0000
0000
0000
0000
0000
0000
0000
0000
0000
0000
0000
0000
0000
0000
0000
0000
0000
1000
0000
0000
0000
0000
0000
0000
0000
0000
0000
0000
0000
0000
0000
0000
0000
0000
0000
0000
0000
0000
0000
0000
0000
0010
0000
0000
0000
0000
0000
0000
0000
0000
0000
0000
0000
0100
0000
0000
0000
0000
0000
0000
0000
0000
0000
0000
0000
0001
0000
0000
0000
0000
0000
0000
0000
0000
0000
0000
0000
0000
0000
0000
0000
0000
0000
0000
0000
0000
0000
0000
0000
1000
0000
0000
0000
0000
0000
0000
0000
0000
0000
0000
0000
0000
0000
0000
0000
0000
0000
0000
0000
0000
0000
0000
0000
0001
0000
0000
0000
0000
0000
0000
0000
0000
0000
0000
0000
0100
0000
0000
0000
0000
0000
0000
0000
0000
0000
0000
0000
0001
0000
0000
0000
0000
0000
0000
0000
0000
0000
0000
0000
0100
0000
0000
0000
0000
0000
0000
0000
0000
0000
0000
0000
0010
0000
0000
0000
0000
0000
0000
0000
0000
0000
0000
1000
0000
0000
0000
0000
0000
0000
0000
0000
0000
0000
0000
0000
,  // measure 39
1000
0000
0001
0000
0100
0000
0100
0001
1000
0000
0100
1000
0001
0100
0001
0000
,  // measure 40
0010
0000
0000
0000
0000
0000
0000
0000
0000
0000
0000
0000
0000
0000
0000
0000
0000
0000
0000
0000
0000
0000
0000
0000
0001
0000
0000
0000
0000
0000
0000
0000
0000
0000
0000
0000
0010
0000
0000
0000
0000
0000
0000
0000
0000
0000
0000
0000
0100
0000
0000
0000
0000
0000
0000
0000
0000
0000
0000
0000
0000
0000
0000
0000
0000
0000
0000
0000
0000
0000
0000
0000
0100
0000
0000
0000
0000
0000
0000
0000
0000
0000
0000
0000
0000
0000
0000
0000
0000
0000
0000
0000
0000
0000
0000
0000
1000
0000
0000
0000
0000
0000
0000
0000
0000
0000
0000
0000
0100
0000
0000
0000
0000
0000
0000
0000
0000
0000
0000
0000
1000
0000
0000
0000
0000
0000
0000
0000
0000
0000
0000
0000
0100
0000
0000
0000
0000
0000
0000
0000
0000
0000
0000
0000
0010
0000
0000
0000
0000
0000
0000
0000
0000
0000
0000
0001
0000
0000
0000
0000
0000
0000
0000
0000
0000
0000
0000
0000
0001
0000
0000
0000
0000
0000
0000
0000
0000
0000
0000
0000
0000
0000
0000
0000
0000
0000
0000
0000
0000
0000
0000
0000
,  // measure 41
1000
0000
0000
0000
0000
0000
0000
0000
0000
0000
0000
0000
0000
0000
0000
0000
0000
0000
0000
0000
0000
0000
0000
0000
0001
0000
0000
0000
0000
0000
0000
0000
0000
0000
0000
0000
0100
0000
0000
0000
0000
0000
0000
0000
0000
0000
0000
0000
0001
0000
0000
0000
0000
0000
0000
0000
0000
0000
0000
0000
0100
0000
0000
0000
0000
0000
0000
0000
0000
0000
0000
0000
0010
0000
0000
0000
0000
0000
0000
0000
0000
0000
0000
1000
0000
0000
0000
0000
0000
0000
0000
0000
0000
0000
0000
0000
1000
0000
0000
0000
0000
0000
0000
0000
0000
0000
0000
0000
0000
0000
0000
0000
0000
0000
0000
0000
0000
0000
0000
0000
0001
0000
0000
0000
0000
0000
0000
0000
0000
0000
0000
0000
0000
0000
0000
0000
0000
0000
0000
0000
0000
0000
0000
0000
1000
0000
0000
0000
0000
0000
0000
0000
0000
0000
0000
0000
0100
0000
0000
0000
0000
0000
0000
0000
0000
0000
0000
0000
1000
0000
0000
0000
0000
0000
0000
0000
0000
0000
0000
0000
0100
0000
0000
0000
0000
0000
0000
0000
0000
0000
0000
0000
,  // measure 42
0010
0000
0010
0001
0100
0000
1010
0000
1100
0000
0101
0000
0001
0000
1000
0000
,  // measure 43
0001
0100
0000
0100
0010
0000
1000
0000
0010
0100
0000
0100
0001
0000
1000
0000
,  // measure 44
1000
0100
0000
0100
0010
0000
0100
0000
2000
0000
0000
0000
3001
0000
0001
0000
,  // measure 45
1000
0100
0000
0100
1000
0000
0001
0000
0010
0100
0000
0100
2000
0000
0100
0000
,  // measure 46
3002
0000
0100
0000
1003
0000
1000
0100
0000
0010
0001
0000
1001
0000
0001
0000
,  // measure 47
1000
0010
0000
0010
0100
0000
0001
0000
0100
0010
0000
0010
1000
0000
0001
0000
,  // measure 48
0001
0010
0000
0010
0100
0000
0010
0000
0002
0000
0000
0000
1003
0000
1000
0000
,  // measure 49
0010
0100
0000
0001
1000
0000
0001
0000
0010
0100
0000
1000
0001
0000
0001
0010
,  // measure 50
0001
0000
0001
0100
0001
1000
0000
0010
0000
0100
0001
0000
0020
0000
0000
0000
,  // measure 51
0000
0000
0000
0000
0000
0000
0230
2300
,  // measure 52
3002
0000
0203
0000
0320
0000
2030
0000
3001
0010
0001
1000
0200
0000
0000
0000
,  // measure 53
0000
0000
0000
0000
,  // measure 54
0000
0000
0000
0000
0300
0010
0000
0010
0000
0100
0010
0100
1000
0000
0001
0000
,  // measure 55
0100
0001
0000
0001
0010
0000
0010
0000
0001
0100
0000
0100
0010
0100
0010
0000
,  // measure 56
1000
0010
0000
0010
1000
0000
0100
0000
0100
1000
0100
0010
0000
0000
2001
0000
,  // measure 57
0000
0000
3000
0001
1000
0000
0010
0000
0100
0001
0000
1000
0000
1000
0100
1000
,  // measure 58
0001
0010
0000
0010
0100
0000
0010
0001
1000
0010
0000
0010
0100
0000
0001
0000
,  // measure 59
1000
0000
0010
0000
1000
0100
0000
0100
0000
1000
0100
0010
0002
0000
0013
0000
,  // measure 60
2000
0000
3010
0000
0001
1000
0000
0001
0100
0010
0100
0001
1000
0000
0010
0000
,  // measure 61
0100
0001
0000
0001
1000
0100
1000
0100
0010
0001
0010
0000
0002
0000
1003
0000
,  // measure 62
0010
1000
0000
1000
0000
0010
1000
0001
0020
0000
0000
0000
0030
0000
0100
1000
,  // measure 63
0001
0000
1000
0001
0010
0001
1000
0100
0000
1000
0001
0100
0020
0000
0000
0000
,  // measure 64
0130
0000
0010
0000
0100
0001
0000
0001
1000
0001
0100
0010
1000
0000
0001
0000
,  // measure 65
1000
0100
0000
0010
0000
0001
0010
0001
1000
0010
0100
0001
0020
0000
0031
0000
,  // measure 66
0010
0100
0000
1000
0000
0001
1000
0100
0000
0100
1000
0001
0200
0000
0300
0000
,  // measure 67
0010
0100
0000
0010
0000
0100
0001
1000
0001
0000
1000
0100
0010
0001
0010
0100
,  // measure 68
1000
0001
0100
0020
0000
0130
0001
0100
0010
1000
0100
0000
0010
0000
0001
0000
,  // measure 69
0010
0100
0000
0100
0000
1000
0100
0010
0000
0100
0010
0001
1000
0000
0001
0100
,  // measure 70
0010
0000
0000
0000
0000
0000
0000
0000
0000
0000
0000
0000
0100
0000
0000
0000
0000
0000
0000
0000
0000
0000
0000
0000
0001
0000
0000
0000
0000
0000
0000
0000
0000
0000
0000
0000
1000
0000
0000
0000
0000
0000
0000
0000
0000
0000
0000
0000
0100
0000
0000
0000
0000
0000
0000
0000
0000
0000
0000
0000
0010
0000
0000
0000
0000
0000
0000
0000
0000
0000
0000
0000
0000
0000
0000
0000
0000
0000
0000
0000
0000
0000
0000
0000
0010
0000
0000
0000
0000
0000
0000
0000
0000
0000
0000
0000
0100
0000
0000
0000
0000
0000
0000
0000
0000
0000
0000
0000
1000
0000
0000
0000
0000
0000
0000
0000
0000
0000
0000
0000
0001
0000
0000
0000
0000
0000
0000
0000
0000
0000
0000
0100
0000
0000
0000
0000
0000
0000
0000
0000
0000
0000
0000
0000
2002
0000
0000
0000
0000
0000
0000
0000
0000
0000
0000
0000
0000
0000
0000
0000
0000
0000
0000
0000
0000
0000
0000
0000
0000
0000
0000
0000
0000
0000
0000
0000
0000
0000
0000
0000
0000
0000
0000
0000
0000
0000
0000
0000
0000
0000
0000
0000
,  // measure 71
0000
0000
3003
0000
0101
1000
1100
0001
,  // measure 72
0101
0000
0100
0010
0000
0010
1000
0000
1010
0000
0001
0000
0011
0000
1000
0000
,  // measure 73
1010
0000
0010
1000
0000
1000
0001
0000
0100
0001
0100
0000
0010
1000
0010
0000
,  // measure 74
0100
0000
0100
0001
0000
1000
0100
0000
1000
0100
1000
0000
0001
0010
0001
0000
,  // measure 75
0010
0000
0010
0001
0000
0001
1000
0010
0200
0000
0000
0000
0000
0000
0000
0000
,  // measure 76
0000
0000
0000
0000
0000
0000
0000
0000
0301
0000
1000
0001
0100
0000
0001
1000
,  // measure 77
0100
1000
0100
0000
0010
0000
0010
0001
0000
0000
0000
0000
0000
0000
0000
0000
;
