#VERSION:0.83;
#TITLE:Fly Away;
#SUBTITLE:;
#ARTIST:XeoN;
#TITLETRANSLIT:;
#SUBTITLETRANSLIT:;
#ARTISTTRANSLIT:;
#GENRE:VARIETY;
#ORIGIN:;
#CREDIT:MUINELIM;
#BANNER:Fly Away.png;
#BACKGROUND:Fly Away-bg.png;
#PREVIEWVID:;
#JACKET:Fly Away-jacket.png;
#CDIMAGE:;
#DISCIMAGE:;
#LYRICSPATH:;
#CDTITLE:;
#MUSIC:Fly Away.ogg;
#OFFSET:-0.081000;
#SAMPLESTART:99.517570;
#SAMPLELENGTH:15.428574;
#SELECTABLE:YES;
#DISPLAYBPM:140.000000;
#BPMS:0.000=70.000,
32.000=140.000;
#STOPS:;
#DELAYS:;
#WARPS:;
#TIMESIGNATURES:0.000=4=4;
#TICKCOUNTS:0.000=4;
#COMBOS:0.000=1;
#SPEEDS:0.000=1.000=0.000=0;
#SCROLLS:0.000=1.000;
#FAKES:;
#LABELS:0.000=Song Start;
#BGCHANGES:0.000=Fly Away.avi=1.000=0=0=0=StretchNoLoop====,
99999=-nosongbg-=1.000=0=0=0 // don't automatically add -songbackground-
;
#KEYSOUNDS:;
#ATTACKS:
;

//---------------dance-single - ----------------
#NOTEDATA:;
#CHARTNAME:;
#STEPSTYPE:dance-single;
#DESCRIPTION:;
#CHARTSTYLE:;
#DIFFICULTY:Beginner;
#METER:3;
#RADARVALUES:0.131478,0.174262,0.015088,0.000000,0.000000,122.000000,120.000000,2.000000,0.000000,0.000000,0.000000,0.000000,0.000000,0.000000,0.131478,0.174262,0.015088,0.000000,0.000000,122.000000,120.000000,2.000000,0.000000,0.000000,0.000000,0.000000,0.000000,0.000000;
#CREDIT:MUINELIM;
#DISPLAYBPM:140.000000;
#NOTES:
0000
0000
0000
0000
,
0000
0000
0000
0000
,
1000
0000
1000
0000
,
0001
0000
0001
0000
,
1000
0000
0100
0000
,
0010
0000
0001
0000
,
1000
0000
0100
0000
,
0010
0000
0001
0000
,
1001
0000
0000
0000
,
1000
0000
1000
0000
,
0001
0000
0001
0000
,
1000
0000
0001
0000
,
1000
0000
0001
0000
,
0100
0000
0100
0000
,
0010
0000
0010
0000
,
0100
0000
0010
0000
,
0100
0000
0010
0000
,
1000
0000
0000
0000
,
0100
0000
0000
0000
,
0001
0000
0000
0000
,
0010
0000
0000
0000
,
1000
0000
0000
0000
,
0100
0000
0000
0000
,
0001
0000
0000
0000
,
0010
0000
0000
0000
,
1000
0000
0001
0000
,
1000
0000
0001
0000
,
0010
0000
0100
0000
,
0010
0000
0100
0000
,
1000
0000
0001
0000
,
0010
0000
0100
0000
,
1000
0000
0010
0000
,
0100
0000
0000
0000
,
0010
0000
0010
0000
,
1000
0000
1000
0000
,
0001
0000
0001
0000
,
0100
0000
0100
0000
,
0010
0000
1000
0000
,
0001
0000
0100
0000
,
0010
0000
0100
0000
,
0001
0000
1000
0000
,
0010
0000
0100
0000
,
0001
0000
1000
0000
,
0100
0000
0010
0000
,
0001
0000
0100
0000
,
0010
0000
1000
0000
,
0001
0000
0010
0000
,
0100
0000
1000
0000
,
0010
0010
0010
0010
,
0010
0000
0000
0000
,
0100
0000
0001
0000
,
0100
0000
0001
0000
,
1000
0000
0010
0000
,
1000
0000
0010
0000
,
1000
0000
0100
0000
,
1000
0000
0100
0000
,
0010
0000
0001
0000
,
0010
0000
0001
0000
,
1000
0000
0010
0000
,
0100
0000
0001
0000
,
0010
0000
0100
0000
,
1000
0000
0001
0000
,
0100
0000
0010
0000
,
1000
0000
0100
0000
,
0010
0000
0001
0000
,
1000
0000
0001
0000
,
1001
0000
0000
0000
;

//---------------dance-single - ----------------
#NOTEDATA:;
#CHARTNAME:;
#STEPSTYPE:dance-single;
#DESCRIPTION:;
#CHARTSTYLE:;
#DIFFICULTY:Easy;
#METER:7;
#RADARVALUES:0.271577,0.307787,0.143332,0.098070,0.000000,252.000000,233.000000,19.000000,13.000000,0.000000,0.000000,0.000000,0.000000,0.000000,0.271577,0.307787,0.143332,0.098070,0.000000,252.000000,233.000000,19.000000,13.000000,0.000000,0.000000,0.000000,0.000000,0.000000;
#CREDIT:MUINELIM;
#DISPLAYBPM:140.000000;
#NOTES:
// measure 0
0000
0000
0000
0000
,  // measure 1
0000
0000
0000
0000
,  // measure 2
1000
0100
0010
0000
,  // measure 3
0001
0010
0100
0000
,  // measure 4
1000
0001
1000
0010
,  // measure 5
0100
0010
0110
0000
,  // measure 6
0100
0001
0100
0010
,  // measure 7
1000
0000
0010
0000
0100
0100
0100
0000
,  // measure 8
1001
0000
0000
0000
,  // measure 9
1000
0100
1000
0000
,  // measure 10
0001
0010
0001
0000
,  // measure 11
1000
0010
1000
0000
,  // measure 12
0001
0100
0001
0000
,  // measure 13
1000
0001
1000
0001
,  // measure 14
0100
0010
0100
0010
,  // measure 15
1000
0001
0100
0010
,  // measure 16
1001
0000
0000
0000
,  // measure 17
1000
0001
0100
0001
,  // measure 18
1000
0001
0100
0000
,  // measure 19
0001
1000
0010
1000
,  // measure 20
0001
1000
0010
0000
,  // measure 21
1000
0100
0010
0001
,  // measure 22
0010
0100
1000
0000
,  // measure 23
0010
0100
0001
1000
,  // measure 24
1001
0000
0002
0003
,  // measure 25
1000
0100
0010
0100
,  // measure 26
1000
0100
0010
0010
,  // measure 27
0001
0100
0010
0100
,  // measure 28
0001
0100
0010
0010
,  // measure 29
1000
0001
0100
0010
,  // measure 30
1000
0001
0100
0100
,  // measure 31
0001
1000
0010
0100
,  // measure 32
0002
0003
2000
3000
,  // measure 33
0001
0010
0001
0100
,  // measure 34
1000
0100
0001
0000
,  // measure 35
1000
0100
1000
0010
,  // measure 36
0001
0010
1000
0000
,  // measure 37
0001
1000
0001
0010
,  // measure 38
0100
0010
0001
0000
,  // measure 39
1000
0001
1000
0100
,  // measure 40
0010
0100
1000
1001
,  // measure 41
0001
0100
0020
1030
,  // measure 42
1000
0100
0020
0031
,  // measure 43
0001
0100
0020
1030
,  // measure 44
1000
0100
0010
1001
,  // measure 45
1000
0010
0200
0301
,  // measure 46
0001
0010
0200
1300
,  // measure 47
1000
0010
0200
0301
,  // measure 48
1001
0110
1001
0000
,  // measure 49
0220
0000
0000
0330
,  // measure 50
0001
0100
1000
0100
,  // measure 51
0001
0100
1000
0100
,  // measure 52
0001
0010
1000
0010
,  // measure 53
0001
0010
1000
0010
,  // measure 54
0001
0100
0001
0010
,  // measure 55
0001
0100
0001
0001
,  // measure 56
1000
0010
1000
0100
,  // measure 57
1000
0010
1000
1000
,  // measure 58
1001
0001
0100
0010
,  // measure 59
0110
1000
0100
0010
,  // measure 60
0110
0001
0010
0100
,  // measure 61
0110
1000
0010
0100
,  // measure 62
0110
0001
0100
0010
,  // measure 63
1010
1000
0010
0100
,  // measure 64
0101
0001
0010
0100
,  // measure 65
1100
1000
0100
0010
,  // measure 66
0011
0002
2000
0000
,  // measure 67
0000
0000
0000
0000
,  // measure 68
3003
0000
0000
0000
;

//---------------dance-single - ----------------
#NOTEDATA:;
#CHARTNAME:;
#STEPSTYPE:dance-single;
#DESCRIPTION:;
#CHARTSTYLE:;
#DIFFICULTY:Medium;
#METER:11;
#RADARVALUES:0.462328,0.512979,0.218771,0.135789,0.045263,429.000000,400.000000,29.000000,18.000000,0.000000,0.000000,0.000000,0.000000,0.000000,0.462328,0.512979,0.218771,0.135789,0.045263,429.000000,400.000000,29.000000,18.000000,0.000000,0.000000,0.000000,0.000000,0.000000;
#CREDIT:MUINELIM;
#DISPLAYBPM:140.000000;
#NOTES:
// measure 0
0000
0000
0000
0000
,  // measure 1
0000
0000
0000
0000
,  // measure 2
1000
0001
0100
0000
0001
1000
0010
0000
,  // measure 3
1000
0100
0010
0001
0010
0100
1000
0000
,  // measure 4
1001
0000
0001
0100
0010
1000
0010
0100
,  // measure 5
0001
0100
0010
1000
0100
0010
0001
0100
,  // measure 6
0110
0000
0010
1000
0001
0100
0020
0000
,  // measure 7
1030
0001
0010
0100
1000
0010
0100
0001
,  // measure 8
2002
0000
3003
0000
1000
0010
0100
0001
,  // measure 9
0011
0100
0100
0100
,  // measure 10
1010
0001
0001
0001
,  // measure 11
0110
1000
1000
1000
,  // measure 12
0101
0000
0010
0000
0010
0000
0010
0010
,  // measure 13
1000
0100
1000
0000
0001
0010
0001
0000
,  // measure 14
1000
0010
1000
0000
0001
0100
0001
0000
,  // measure 15
1000
0001
1000
0000
0010
0100
0010
0000
,  // measure 16
1000
0000
0000
0001
0000
0000
0200
0000
0000
0000
0310
0000
1000
0000
0001
0000
,  // measure 17
1001
0000
1000
0100
0000
0100
1000
0100
,  // measure 18
0010
0000
0001
0100
0000
0100
0010
0100
,  // measure 19
0001
0000
0010
0100
0000
0100
1000
0100
,  // measure 20
0010
0000
0001
1000
0000
1000
0010
0100
,  // measure 21
0101
0000
0001
0010
0000
0100
1000
0100
,  // measure 22
0010
0011
0100
1100
,  // measure 23
1000
0010
0100
0001
0000
0010
0100
1000
,  // measure 24
2002
0000
3003
0000
0001
0001
0100
0100
,  // measure 25
0010
1000
0100
0000
0100
0010
0001
0000
,  // measure 26
1000
0100
0010
0000
0010
0001
0100
0000
,  // measure 27
0010
1000
0001
0000
0001
0010
0100
0000
,  // measure 28
1000
0001
0100
0000
0100
0010
1000
0100
,  // measure 29
0010
0001
0100
0000
0010
1000
0100
0000
,  // measure 30
0100
0010
0001
0000
1000
0100
0010
0000
,  // measure 31
0010
0001
1000
0000
0100
1000
0001
0000
,  // measure 32
2002
0000
3003
0000
1000
0010
0100
0001
,  // measure 33
1000
0100
0010
0100
1000
0100
0010
0000
,  // measure 34
0001
0010
0100
0010
0001
0010
0100
0000
,  // measure 35
1000
0001
0010
0001
0100
0001
1000
0000
,  // measure 36
0001
1000
0100
1000
0010
1000
0001
0000
,  // measure 37
0010
0001
0010
0100
1000
0100
0010
0001
,  // measure 38
0100
0001
1000
0010
1000
0001
0010
0100
,  // measure 39
1000
0010
1000
0001
0100
0001
0010
0100
,  // measure 40
1000
0010
0100
0001
1000
0100
0010
0001
,  // measure 41
1000
0000
0000
0000
1020
0000
0000
0000
0000
0130
0000
0000
0100
0000
0001
0000
,  // measure 42
0010
0000
0000
0000
0110
0000
0000
0000
0100
0000
0000
1000
0000
0000
0001
0000
,  // measure 43
0100
0000
0000
0000
0120
0000
0000
0000
0000
1030
0000
0000
1000
0000
0001
0000
,  // measure 44
0100
0000
0000
0000
0110
0000
0000
0000
0010
0000
0000
1000
0000
0000
0001
0000
,  // measure 45
0010
0000
0000
0000
0210
0000
0000
0000
0000
1300
0000
0000
1000
0000
0010
0000
,  // measure 46
0100
0000
0000
0000
0101
0000
0000
0000
0001
0000
0000
1000
0000
0000
0100
0000
,  // measure 47
0010
0000
0000
0000
0012
0000
0000
0000
0000
1003
0000
0000
1000
0000
0010
0000
,  // measure 48
0100
0000
0000
0101
0000
0000
0022
0000
0033
0000
0010
0000
0000
0110
0000
0000
,  // measure 49
2200
0000
0000
3300
,  // measure 50
1001
0000
0001
0100
0000
1000
0100
0010
,  // measure 51
0100
0000
0001
0010
0000
1000
0010
0100
,  // measure 52
0010
0000
0100
1000
0000
0010
0001
0010
,  // measure 53
1000
0000
0100
0001
0000
0100
1000
0010
,  // measure 54
0110
0000
1000
0010
0000
0001
0010
0100
,  // measure 55
0001
0000
0001
0010
0000
1000
0010
0100
,  // measure 56
1000
0000
1000
0100
0000
0001
0100
0010
,  // measure 57
0001
0000
0001
0100
0000
1000
0100
0010
,  // measure 58
1010
1000
0100
0010
0001
0100
0001
1000
,  // measure 59
0010
1000
0001
0010
0100
1000
0010
1000
,  // measure 60
0001
0100
0001
0010
0100
1000
0010
0100
,  // measure 61
0001
1000
0100
0010
0001
1000
1001
0000
,  // measure 62
0001
0100
0010
1000
0001
0010
0100
0010
,  // measure 63
1000
0010
0100
0010
0001
1000
0100
0010
,  // measure 64
0100
0001
0100
0010
0100
1000
0010
0001
,  // measure 65
1000
0000
0100
0000
0001
0000
0010
0000
0100
0010
0100
0000
0010
0100
0010
0000
,  // measure 66
0100
1000
0001
2002
0000
0000
0000
0000
,  // measure 67
0000
0000
0000
0000
,  // measure 68
3003
0000
0000
0000
;

//---------------dance-single - ----------------
#NOTEDATA:;
#CHARTNAME:;
#STEPSTYPE:dance-single;
#DESCRIPTION:;
#CHARTSTYLE:;
#DIFFICULTY:Hard;
#METER:14;
#RADARVALUES:0.636913,0.718171,0.369647,0.354559,0.328156,591.000000,542.000000,49.000000,47.000000,0.000000,0.000000,0.000000,0.000000,0.000000,0.636913,0.718171,0.369647,0.354559,0.328156,591.000000,542.000000,49.000000,47.000000,0.000000,0.000000,0.000000,0.000000,0.000000;
#CREDIT:MUINELIM;
#DISPLAYBPM:140.000000;
#NOTES:
// measure 0
0000
0000
0000
0000
,  // measure 1
0000
0000
0000
0000
,  // measure 2
1000
0010
1000
0001
0010
0000
0001
0100
0001
1000
0100
1000
0000
0000
0001
0010
,  // measure 3
0001
1000
0010
1000
0100
0000
0110
0000
0010
0001
0010
0200
0000
0000
0300
0000
,  // measure 4
1001
0000
1000
0010
0100
0010
1000
0010
0100
0000
0001
0000
1000
0000
0100
0000
,  // measure 5
0010
0001
0010
0100
1000
0010
1000
0001
0100
0001
0010
0100
1000
0000
0010
0000
,  // measure 6
0110
0000
0000
0100
0001
0100
0010
1000
0010
0100
0001
0010
0000
0001
1000
0000
,  // measure 7
0010
1000
0100
0010
0001
0000
0101
0000
0100
0010
1000
0200
0000
0000
0310
0000
,  // measure 8
2002
0000
3003
0000
0001
0000
0001
0000
1000
0000
1000
0000
0010
0100
0010
0100
,  // measure 9
0020
0001
1000
0001
,  // measure 10
0230
1000
0001
1000
,  // measure 11
0302
0010
1000
0100
,  // measure 12
2003
0000
0000
0000
0010
0000
0000
0000
0001
0000
0000
0000
3100
0010
0100
0000
,  // measure 13
0010
0001
0101
0000
0100
0010
1010
0000
,  // measure 14
1000
0100
0110
0000
0010
0001
1001
0000
,  // measure 15
1000
0001
0011
0000
0010
0100
1100
0000
,  // measure 16
1010
0000
0000
0011
0000
0000
0001
0100
0000
0110
0000
0000
0010
1000
0010
0000
,  // measure 17
2000
0000
3100
0020
0000
0031
0100
0010
,  // measure 18
2000
0000
3001
0020
0000
0130
1000
0001
,  // measure 19
0100
0010
1000
0200
0000
0310
0001
1000
,  // measure 20
0020
0000
0000
0000
0130
0000
0002
0000
0000
0000
1003
0000
0100
0010
0100
0000
,  // measure 21
0020
0000
0031
0200
0000
0310
1000
0001
,  // measure 22
0020
0000
0130
1000
0020
0000
0230
0000
,  // measure 23
0301
1000
0100
0020
0000
0031
0100
0010
,  // measure 24
2010
0000
0000
0000
0001
0000
3001
0000
0100
0000
0100
0000
0010
1000
0000
0001
,  // measure 25
0100
0001
0011
0010
0100
1000
1100
0100
,  // measure 26
0010
0001
0101
0100
0010
1000
1010
0010
,  // measure 27
0100
0001
1001
1000
0100
0010
0110
0100
,  // measure 28
0010
0000
0001
0000
0101
0000
0100
0000
0010
0000
1010
0000
1000
0001
1000
0001
,  // measure 29
1000
0010
0110
0100
0001
0010
0011
0001
,  // measure 30
1000
0100
1100
1000
0010
0100
0101
0001
,  // measure 31
1000
0010
1010
1000
0100
0010
0011
0001
,  // measure 32
0200
0000
0000
0000
0320
0000
0000
0000
1030
0001
1000
0000
0010
0100
0010
0100
,  // measure 33
0010
1000
0100
0001
0100
1000
0010
0001
,  // measure 34
0010
1000
0100
0010
0100
1000
0001
0010
,  // measure 35
0100
0010
0001
0100
1000
0100
0001
0010
,  // measure 36
1000
0000
0010
0000
0001
0000
0100
0000
1000
0000
0100
0000
0001
1000
0001
0000
,  // measure 37
1001
1000
0010
0100
1000
0100
0010
0100
,  // measure 38
0001
1000
0010
0100
0010
0001
0010
0100
,  // measure 39
0010
1000
0100
0001
1000
0010
0001
0100
,  // measure 40
1000
0000
0001
0000
0010
0000
1000
0000
0100
0010
0000
0100
0010
0000
0001
0000
,  // measure 41
1001
0000
1000
0000
0020
0000
0130
0000
0100
0001
0100
0000
0001
0000
0010
0000
,  // measure 42
0100
0000
1000
0000
0020
0000
0130
0000
0020
0000
0130
0001
0000
0100
0010
0000
,  // measure 43
1000
0000
0100
0000
0020
0000
0031
0000
0001
0100
0001
0000
1000
0000
0010
0000
,  // measure 44
0100
0000
0001
0000
0020
0000
0130
0000
0020
0000
0130
1000
0000
0100
0010
0000
,  // measure 45
0110
0000
0100
0000
2000
0000
3010
0000
0010
0100
0010
0000
0100
0000
0001
0000
,  // measure 46
1000
0000
0100
0000
0020
0000
0031
0000
0020
0000
0031
0100
0000
0010
0100
0000
,  // measure 47
0110
0000
0010
0000
1000
0000
0001
0000
0010
0100
0010
0000
0100
0000
1000
0000
,  // measure 48
1010
0000
0000
0011
0000
0000
0202
0000
0303
0000
1100
0000
0000
1001
0000
0000
,  // measure 49
0100
0010
0000
1000
0001
0000
0010
0100
0000
1000
0010
1000
0010
0100
0001
0100
,  // measure 50
0001
0001
0010
1000
1000
0010
0001
0100
,  // measure 51
1010
0010
1000
0100
0001
1000
0010
0001
,  // measure 52
0110
1000
0010
0001
1000
0100
0001
0010
,  // measure 53
1100
0000
0001
0000
0020
0000
0130
0000
0100
1000
0010
0000
0110
0000
1001
0000
,  // measure 54
1000
1000
0010
0001
0001
0010
1000
0100
,  // measure 55
0011
0010
0001
0100
1000
0001
0010
1000
,  // measure 56
0110
0001
0010
1000
0001
0100
1000
0010
,  // measure 57
0101
0000
1000
0000
0020
0000
0130
0000
0100
0001
0010
0000
0011
0000
1100
0000
,  // measure 58
1000
0010
1000
0000
0100
0000
0010
0001
0010
0000
0100
0000
0020
0000
0031
0000
,  // measure 59
0001
0100
0001
0000
0010
0000
0100
1000
0100
0000
0010
0000
0200
0000
1300
0000
,  // measure 60
1000
0001
1000
0000
0100
0000
0010
0100
0010
0000
0001
0000
0200
0000
0310
0000
,  // measure 61
0010
0100
0010
0000
1000
0000
0001
1000
0001
0000
0100
0000
0110
0000
0000
0000
,  // measure 62
0010
0100
0001
0000
0010
0000
0001
0100
0010
0000
0001
0000
0020
0000
1030
0000
,  // measure 63
1000
0100
0010
0000
0100
0000
1000
0010
0100
0000
1000
0000
0200
0000
0301
0000
,  // measure 64
0001
1000
0100
0000
0001
0000
0100
1000
0001
0000
0010
0000
0200
0000
1300
0000
,  // measure 65
1000
0010
0100
0000
0001
0010
0100
0000
1000
0100
0010
0000
0001
0100
0010
1000
,  // measure 66
0002
0023
0230
2300
0000
0000
0000
0000
,  // measure 67
0000
0000
0000
0000
,  // measure 68
3000
0000
0000
0000
;
