#TITLE:Fly Above;
#SUBTITLE:-Band ver.-;
#ARTIST:Terminalcode_featZJSWF;
#TITLETRANSLIT:;
#SUBTITLETRANSLIT:;
#ARTISTTRANSLIT:;
#GENRE:;
#CREDIT:;
#BANNER:Fly Above-Band ver-.png;
#BACKGROUND:Fly Above-Band ver--bg.png;
#LYRICSPATH:Fly Above-Band ver-.lrc;
#CDTITLE:;
#MUSIC:Fly Above-Band ver-.ogg;
#OFFSET:0.793000;
#SAMPLESTART:68.029953;
#SAMPLELENGTH:12.000000;
#SELECTABLE:YES;
#BPMS:0.000000=150.000000
;
#STOPS:
;
#BGCHANGES:2.500=Fly Above -Band ver-.mp4=1.000=0=0=1=====,
99999=-nosongbg-=1.000=0=0=0 // don't automatically add -songbackground-
;
#KEYSOUNDS:;
#ATTACKS:;

//---------------dance-single - ----------------
#NOTES:
     dance-single:
     :
     Hard:
     12:
     0.598065,0.691624,0.288990,0.359285,0.312422,536.000000,499.000000,37.000000,46.000000,0.000000,0.000000,0.598065,0.691624,0.288990,0.359285,0.312422,536.000000,499.000000,37.000000,46.000000,0.000000,0.000000:
0000
0000
0000
0000
,
0000
0000
0000
0000
,
0000
0000
0000
0000
,
0000
0000
0000
0000
,
0000
0000
0000
0000
,
1000
0000
0000
1100
0000
0000
0100
0000
0000
0110
0000
0000
0001
0000
1000
0000
,
0001
0000
0000
0101
0000
0000
0100
0000
0000
0110
0000
0000
1000
0001
1000
0000
,
0001
0000
0000
0101
0000
0000
1000
0000
0000
1100
0000
0000
0001
0000
1000
0001
,
1000
0000
0100
0000
0010
0000
0001
0000
0100
0010
0100
0000
0010
0000
1000
0000
,
0002
0000
0000
0100
0000
0000
1000
0000
,
2003
0000
0000
0100
0000
0000
3001
1000
,
3002
0000
0000
0010
0000
0000
1000
0000
,
2003
0000
0000
0010
0000
0000
3001
1000
,
0001
0010
0100
2000
0000
3010
0100
0010
,
0200
0000
0301
0020
0000
0130
1000
0001
,
2000
0000
3010
0000
1000
0001
0010
0000
,
0011
0000
0000
0110
0000
0000
2001
0000
0000
0000
3010
0000
0001
0000
0010
0000
,
1000
0000
0000
0100
0000
0000
0100
0000
0110
0000
0000
0000
0001
0000
1000
0000
,
0010
0100
0000
0100
0101
0000
0001
1000
,
0001
0000
0000
0010
0000
0000
0010
0000
0110
0000
0000
0000
1000
0000
0001
0000
,
0100
0000
0010
0000
1000
0000
0100
0000
0010
0000
0001
0000
1000
0000
0010
0100
,
0020
0000
1030
0100
1100
0000
0001
1000
,
0010
0100
0000
0100
0110
0000
0001
1000
,
0002
0000
0013
0100
1000
0010
0100
0001
,
1000
0000
1200
0000
0000
0000
0310
0000
1000
0000
0010
0000
0001
0000
1000
0001
,
2000
0000
0000
0000
3001
0000
0100
0000
0010
0030
0100
0000
1000
0000
0100
0000
,
0002
0000
1003
0100
0010
0001
0100
0010
,
2000
0000
3001
0010
2000
0000
3001
0100
,
1000
0010
0100
0001
1000
0100
1100
0000
,
0012
0000
0000
0000
1003
0000
0010
0000
0100
0300
0010
0000
0001
0000
0010
0000
,
2000
0000
3001
0010
0100
1000
0010
0100
,
0002
0000
1003
0100
0002
0000
1003
0010
,
0001
0100
0010
1000
0001
0010
1000
0010
,
0002
0000
0103
0100
0010
1000
1100
0000
,
0001
0000
0000
0000
1000
0000
1000
0000
0010
0000
0100
0000
0001
0000
1000
0100
,
1000
0000
0001
0001
0100
0010
0110
0000
,
1000
0000
0000
0000
0001
0000
0001
0000
0010
0100
0010
0000
0001
0000
1000
0001
,
1000
0000
0000
0001
0100
0000
0101
0000
0000
0000
1000
0000
1100
0000
0100
0000
,
0010
0000
0001
0000
1000
0000
1010
0000
0000
0000
0001
0000
0101
0000
1000
0001
,
2000
0000
3100
0100
0001
0001
0100
0100
,
1000
1000
1000
0001
0001
0001
0110
1001
,
0000
0000
0000
0000
,
0000
0000
0001
0100
0001
0100
0000
0000
0001
1000
0001
1000
0001
0000
0000
0000
,
1001
0000
0001
0000
0100
0000
0010
1000
0000
0010
1000
0000
0001
0000
0010
0000
,
0100
0000
1000
0000
0010
0000
0100
0001
0000
0100
0001
0000
1000
0000
0100
0000
,
0010
0000
0001
0000
0200
0000
0000
0000
0310
0000
1000
0100
0000
0100
0010
0000
,
0001
1000
0010
0002
0000
0013
1000
0001
,
0010
0000
0100
0000
1000
0000
0010
0100
0000
0010
0100
0000
0001
0000
0100
0000
,
0010
0000
1000
0000
0100
0000
0010
0001
0000
0010
0001
0000
1000
0000
0010
0000
,
0200
0000
0000
0000
1300
0000
0100
0000
0010
0030
0100
0000
0001
0000
1000
0000
,
0100
0000
0000
1100
0000
0000
0001
0000
0000
0011
0000
0000
1000
0000
0001
1000
,
0001
0000
0100
0000
0010
0000
1000
0100
0000
0010
0001
0000
0100
0000
0010
0000
,
1000
0000
0001
0000
0010
0000
0001
0100
0000
0010
1000
0000
0001
0000
0010
0000
,
0100
0000
1000
0000
0020
0000
0000
0000
0130
0000
0001
0010
0000
0010
0100
0000
,
1000
0000
0001
0000
0100
0000
2000
0000
0000
0000
3100
0000
0010
0100
0010
0000
,
1000
0000
0100
0000
0010
0000
0001
0100
0000
0100
0001
0000
1000
0000
0010
0000
,
0100
0000
0001
0000
0010
0000
0100
1000
0000
1000
0100
0000
1000
0000
0001
0100
,
0001
0000
0000
0000
1001
0000
0000
1000
0100
0000
0001
0000
0100
0000
1000
0000
,
0010
0000
0100
0010
0100
0010
0100
0000
1001
0000
1001
0000
0000
0000
0000
0000
,
0201
0000
0310
1000
0200
0000
0310
0001
,
1000
0001
0100
0020
0000
0031
0010
1000
,
0001
0000
1000
0100
1000
0000
0001
0000
0100
0000
1000
0000
0100
0000
0020
0000
,
0000
0000
1030
0000
0100
0000
0020
0000
0000
0000
0031
0000
1000
0000
0010
0100
,
0010
1000
0200
0000
0001
0000
0310
0001
,
1000
0001
0100
0010
0200
0000
1000
0000
,
0301
0000
0000
0010
0000
0000
0100
0000
1000
0000
0000
0010
0000
0000
0100
0000
,
0001
0000
0000
0101
0000
0000
1000
0000
0000
1100
0000
0000
0001
0000
1000
0001
,
1000
0000
0001
0100
0000
0100
0010
0000
1000
0100
0000
0100
0010
0000
0001
0100
,
0000
0100
0010
0000
1000
0100
0000
0100
0010
0000
0001
0100
0000
0100
0010
0000
,
2000
0000
3001
0200
0000
2300
0000
3100
,
0010
0000
1000
0000
0001
0000
0020
0000
0000
0000
0031
0000
1000
0000
0001
0100
,
0001
0000
1000
0000
0010
0100
0020
0000
0000
0000
0130
0000
0001
0000
1000
0000
,
0100
0000
0001
0000
0100
0010
0200
0000
0000
0000
0310
0000
0001
0000
1000
0000
,
0001
0000
0100
0000
0010
0000
1000
0000
0100
0000
0010
0000
,
0001
0000
0100
0000
0100
0000
0001
0000
1000
0000
0100
0000
1000
0001
1000
0000
,
2020
0000
0000
0000
3030
0000
0000
0202
0000
0000
0000
0000
0303
0000
0000
0000
,
2002
0000
0000
0000
,
3003
0000
0000
0000
;

//---------------dance-single - ----------------
#NOTES:
     dance-single:
     :
     Medium:
     9:
     0.358169,0.451059,0.164021,0.429580,0.082011,321.000000,300.000000,21.000000,55.000000,0.000000,0.000000,0.358169,0.451059,0.164021,0.429580,0.082011,321.000000,300.000000,21.000000,55.000000,0.000000,0.000000:
0000
0000
0000
0000
,
0000
0000
0000
0000
,
0000
0000
0000
0000
,
0000
0000
0000
0000
,
0000
0000
0000
0000
,
1000
0000
0000
1000
0000
0000
0100
0000
0000
0100
0000
0000
0020
0000
0000
0000
,
0031
0000
0000
0001
0000
0000
0100
0000
0000
0100
0000
0000
0020
0000
0000
0000
,
1030
0000
0000
1000
0000
0000
0001
0000
0000
0001
0000
0000
0200
0000
0000
0000
,
0302
0000
2003
0000
3100
0010
0100
0000
,
2002
0000
0000
3000
,
0200
0000
0000
0003
,
0020
0000
0000
0300
,
2000
0000
0000
3030
,
1000
0001
1000
1000
,
0100
0010
0100
0100
,
0010
0001
1000
0010
,
0100
0000
0000
0100
0000
0000
0020
0000
0000
0000
0000
0000
1030
0000
0000
0000
,
0202
0000
0303
0000
1000
0000
0001
1000
,
0100
0100
0010
0000
,
0001
0000
1000
0000
0001
0100
0001
0000
,
0100
0010
1000
0001
,
0020
0030
0001
1000
,
0001
0000
0100
0010
0100
0000
0010
0000
,
1000
0000
0000
0000
0001
0010
0001
0000
,
1000
0000
0100
0000
0010
0000
0001
1000
,
0020
0000
0100
0130
,
0010
0000
1000
0100
0010
0000
0001
0100
,
0010
1000
0100
0010
,
0002
0100
2003
3010
,
0210
0000
0010
0310
,
0100
0000
0001
0010
0100
0000
1000
0010
,
0100
0001
0010
0100
,
2000
0010
3002
0103
,
0110
0000
0000
1000
0100
0000
1100
0000
,
0100
0000
0000
0010
0001
0000
0011
0000
,
1000
0000
0000
0001
0100
0000
0101
0000
,
2000
0010
3002
0010
,
1003
0000
0000
0001
0100
0000
0101
0000
,
1000
0000
0000
0001
0010
0000
0110
0000
,
1000
0100
1000
0000
0100
0010
0100
0000
,
0010
0001
0010
0000
0001
1000
0001
1000
,
0000
0000
0000
0000
,
0000
0010
0010
0100
0100
0000
0110
0000
,
2001
0000
3100
0010
0000
0010
0001
0000
,
2000
0000
3010
0100
0002
0000
0003
0000
,
2000
0000
0000
0000
3002
0000
0000
0000
0013
0000
0000
0010
0000
0000
0010
0000
,
0200
0000
1300
0020
0000
0130
0001
0000
,
2001
0000
3001
0010
0000
0010
0100
0000
,
2000
0000
3010
0100
0002
0000
1003
0000
,
2100
0000
0000
0001
0000
0001
0000
3001
,
3100
0000
0000
0100
0000
0000
0010
0000
0000
0010
0000
0000
0100
0000
0000
0000
,
2002
0000
0000
0000
3000
0003
0000
0000
0001
0000
0000
0000
1000
0000
0100
0000
,
0010
0001
1000
0000
0001
0000
0000
0000
,
0002
0000
0000
0000
0013
0000
0000
0000
0100
0000
0000
0100
0000
0000
0100
0000
,
2000
0000
3010
0200
0000
0301
1000
0000
,
1010
0000
0001
0100
0000
0100
0010
0000
,
2000
0000
3100
0010
0002
0000
1003
0000
,
1100
0000
0101
0000
1000
0001
0010
0000
,
0011
0000
1001
0000
0010
0010
0000
0000
,
2000
0100
3002
0100
,
1003
0020
0000
0230
0000
0000
0310
0000
,
1000
0100
0010
0000
0001
0100
0010
0000
,
0200
0000
0320
0000
,
1030
0000
0100
0000
2000
0000
0000
0000
0000
3000
0000
0000
0001
0000
0100
0000
,
0001
0100
0002
0000
0000
0000
1003
0000
,
0001
0100
0010
1000
,
0100
0000
0000
0100
0000
0000
0010
0000
0000
0010
0000
0000
0001
0000
0000
0000
,
1000
0000
0000
0100
0000
0000
1000
0000
0000
0100
0000
0000
0010
0000
0000
0001
,
0000
0000
0010
0000
0000
0001
0000
0000
1000
0000
0000
0010
0000
0000
1000
0000
,
0020
0000
0000
0100
0000
0130
0000
0000
,
0100
0002
0000
2003
0000
0000
3100
0000
,
1000
0001
1000
0200
0000
0000
0310
0000
,
0001
1000
0001
0200
0000
0000
0310
0000
,
1000
1000
0001
0001
,
1000
0100
0010
0000
0001
0100
0010
1000
,
0001
0000
0000
0000
0000
0000
0000
0110
0000
0000
0000
0000
0000
0000
0000
0000
,
2002
0000
0000
0000
,
3003
0000
0000
0000
;

//---------------dance-single - ----------------
#NOTES:
     dance-single:
     :
     Easy:
     5:
     0.225390,0.300706,0.093727,0.257748,0.003905,202.000000,190.000000,12.000000,33.000000,0.000000,0.000000,0.225390,0.300706,0.093727,0.257748,0.003905,202.000000,190.000000,12.000000,33.000000,0.000000,0.000000:
0000
0000
0000
0000
,
0000
0000
0000
0000
,
0000
0000
0000
0000
,
0000
0000
0000
0000
,
0000
0000
0000
0000
,
0001
0000
0000
0001
0000
0000
0000
0000
,
0100
0000
0000
0100
0000
0000
0000
0000
,
0010
0000
0000
0010
0000
0000
0000
0000
,
1000
0100
0010
0000
,
2002
0000
0000
3003
,
2000
0000
0000
3000
,
0020
0000
0000
0030
,
0200
0000
0000
0300
,
0001
0001
0000
0000
,
1000
1000
0000
0000
,
0100
0000
0100
0000
,
1001
0000
0000
2002
0000
0000
3003
0000
,
0001
0100
0010
0000
,
1000
0100
0010
0000
,
0001
0001
0100
0000
,
0010
0010
1000
0000
,
0020
0030
1000
0100
,
0010
0000
0010
0001
,
1000
0000
0001
1000
,
0020
0030
0200
0300
,
2002
0000
3003
0000
,
1000
0100
0010
0001
,
0100
0000
0100
0000
,
0010
0000
0010
1000
,
0002
0000
0000
0003
,
1000
0001
0010
0100
,
2000
3000
0001
0000
,
1000
0010
0100
0000
,
0001
0000
0001
0100
,
0010
0000
0010
1000
,
0100
0000
0100
0010
,
0001
0000
1000
0000
,
1000
0001
0100
0000
,
0001
1000
0100
0000
,
0010
0010
0100
0100
,
1000
0001
0100
1001
,
0000
0000
0000
0000
,
0000
0001
1000
0110
,
2002
3003
0001
0100
,
0010
0010
2000
3000
,
0001
1000
0100
0000
,
1000
0100
0010
0000
,
0002
0003
0010
0001
,
1000
0001
0100
0000
,
0020
0030
0010
0010
,
0110
0000
0000
1001
0000
0000
0000
0000
,
0001
0100
0010
0000
,
1000
0100
0010
0000
,
0100
0100
0010
0010
,
0001
1000
0001
0000
,
1000
0010
0100
0000
,
0001
0010
0100
0000
,
1000
1000
0001
0001
,
0100
0110
1001
0000
,
0002
0003
2000
3000
,
0001
0010
0200
0300
,
1000
1000
0010
0010
,
0200
0300
0020
0030
,
1000
0200
0300
0010
,
0010
0002
0003
1000
,
0010
0100
0001
0010
,
0200
0000
0000
0300
,
1000
0100
1000
0100
,
0010
0001
0010
0001
,
2000
3000
0002
0003
,
0100
0001
1000
0000
,
0001
0020
0030
0100
,
1000
0020
0030
0100
,
0100
0000
0001
0000
,
1000
0100
0010
0000
,
0001
0000
0000
0000
0000
0000
0000
1000
0000
0000
0000
0000
0000
0000
0000
0000
,
2002
0000
0000
0000
,
3003
0000
0000
0000
;

//---------------dance-single - ----------------
#NOTES:
     dance-single:
     :
     Beginner:
     2:
     0.119390,0.148889,0.039053,0.000000,0.000000,107.000000,102.000000,5.000000,0.000000,0.000000,0.000000,0.119390,0.148889,0.039053,0.000000,0.000000,107.000000,102.000000,5.000000,0.000000,0.000000,0.000000:
0000
0000
0000
0000
,
0000
0000
0000
0000
,
0000
0000
0000
0000
,
0000
0000
0000
0000
,
0000
0000
0000
0000
,
1000
0000
0000
0000
,
0010
0000
0000
0000
,
0100
0000
0000
0000
,
0001
0000
0001
0000
,
0001
0000
0000
0000
,
0000
0000
0000
0000
,
1000
0000
0000
0000
,
0000
0000
0000
0000
,
0100
0000
0100
0000
,
0100
0000
0000
0000
,
0010
0000
0010
0000
,
0010
0000
0000
0000
,
1001
0000
0000
0000
,
0001
0000
0001
0000
,
0001
0000
0000
0000
,
0100
0000
0000
0000
,
0010
0000
0000
0000
,
1000
0000
1000
0000
,
1000
0000
0000
0000
,
0100
0000
0000
0000
,
1001
0000
0000
0000
,
1000
1000
0000
0000
,
1000
0000
0000
0000
,
0010
0000
0010
0000
,
0010
0000
0000
0000
,
0100
0100
0000
0000
,
0100
0000
0000
0000
,
0001
0000
0001
0000
,
0001
0000
0000
0000
,
1000
1000
0000
0000
,
1000
0000
0000
0000
,
0100
0000
0100
0000
,
0100
0000
0000
0000
,
0010
0010
0000
0000
,
0010
0000
0010
0000
,
0010
0000
0010
0010
,
0000
0000
0000
0000
,
0000
0000
0000
0000
,
1001
0000
0001
0000
,
0001
0000
0000
0000
,
0100
0100
0000
0000
,
0100
0000
0100
0000
,
0100
0000
0000
0000
,
0010
0010
0000
0000
,
0010
0000
0010
0000
,
0010
0000
0000
0000
,
1001
0000
1000
0000
,
1000
0000
0000
0000
,
0100
0100
0000
0000
,
0100
0000
0100
0000
,
0100
0000
0000
0000
,
0010
0010
0000
0000
,
0010
0000
0010
0000
,
0010
0010
0000
0000
,
0001
0000
0000
0000
,
1000
0000
0000
0000
,
0010
0000
0010
0000
,
0010
0000
0000
0000
,
0100
0100
0000
0000
,
0100
0100
0000
0000
,
0001
0000
0001
0000
,
0001
0000
0000
0000
,
1000
0000
0000
0000
,
0100
0000
0000
0000
,
0010
0000
0010
0000
,
0010
0000
0000
0000
,
0001
0001
0000
0000
,
1000
1000
0000
0000
,
0010
0000
0010
0000
,
0010
0000
0000
0000
,
0100
0000
0000
0000
,
1001
3003
0000
0000
;

//---------------dance-double - ----------------
#NOTES:
     dance-double:
     :
     Hard:
     12:
     0.572402,0.661553,0.265559,0.421770,0.296801,513.000000,479.000000,34.000000,54.000000,0.000000,0.000000,0.572402,0.661553,0.265559,0.421770,0.296801,513.000000,479.000000,34.000000,54.000000,0.000000,0.000000:
00000000
00000000
00000000
00000000
,
00000000
00000000
00000000
00000000
,
00000000
00000000
00000000
00000000
,
00000000
00000000
00000000
00000000
,
00000000
00000000
00000000
00000000
,
00001000
00000000
00000000
00101000
00000000
00000000
00001000
00000000
00000000
01001000
00000000
00000000
00010000
00000000
00001000
00000000
,
00010000
00000000
00000000
00010010
00000000
00000000
00010000
00000000
00000000
00010100
00000000
00000000
00010000
00001000
00010000
00000000
,
00001000
00000000
00000000
00101000
00000000
00000000
00100000
00000000
00000000
01100000
00000000
00000000
10000000
00000000
00010000
10000000
,
00010000
01000000
00100000
00010000
00001000
00000100
00000010
00001000
,
00000002
00000000
00000000
00000010
00000000
00000000
00000010
00000000
,
00002003
00000000
00000000
00000010
00000000
00000000
00000010
00000000
,
00003200
00000000
00000000
00001000
00000000
00000000
00001000
00000000
,
00020300
00000000
00000000
00001000
00000000
00000000
00031000
01000000
,
00200000
00000000
10300000
00020000
00000000
10030000
01000000
00100000
,
00020000
00000000
01030000
00200000
00000000
00310000
00001000
00000100
,
00000020
00000000
00001030
00000000
00000001
00000010
00000200
00000000
,
00010300
00000000
00000000
00010100
00000000
00000000
00102000
00000000
00000000
00000000
00013000
00000000
00100000
00000000
10000000
00000000
,
01000000
00000000
00000000
00100000
00000000
00000000
00100000
00000000
00010000
00000000
00000000
00000000
01000000
00000000
00001000
00000000
,
00010000
00000010
00000000
00000010
00001010
00000000
00000001
00000010
,
00000100
00000000
00000000
00001000
00000030
00000000
00001000
00000000
00000100
00000000
00010000
00000000
00001000
00000000
00100000
00000000
,
00020000
00000000
01030000
00001000
00011000
00000000
00010100
00000000
,
00001020
00000300
00000000
00000000
00000130
00000000
00000001
00000000
00002000
00030000
00000000
00000000
00003100
00000000
00010000
00000000
,
00001000
00010000
00000000
00001000
01001000
00000000
01000000
00010000
,
10000000
00000000
00000000
01000000
30000000
00000000
01000000
00000000
00100000
00000000
00010000
00000000
01000000
00000000
00001000
00000000
,
00020000
00000000
00130000
00010000
00002000
00000000
00003010
00001000
,
00020000
00000000
00030100
00000010
00000100
00000001
00000100
00001000
,
00000020
00000000
00000130
00001000
00000100
00001000
00010000
00100000
,
20000000
00000000
31000000
00010000
02000000
00000000
03100000
00001000
,
00020000
00000000
00130000
00010000
00001000
00100000
00010000
00000000
,
00102000
00000000
00103000
01000000
00100000
10000000
00100000
00010000
,
02000000
00000000
03100000
00010000
00100000
00010000
00001000
00000100
,
00000002
00000000
00000013
00001000
00000020
00000000
00000130
00010000
,
00002000
00000000
00003100
00001000
00010000
00000100
00000010
00000001
,
00001001
00000000
00001000
00000100
00000100
00010000
00011000
00000000
,
00001000
00000000
00000000
00000000
01000000
00000000
00010000
00000000
00010000
00000000
10000000
00000000
01000000
00000000
10000000
00010000
,
10000000
00000000
00010000
00100000
00100000
00001000
00011000
00000000
,
00010020
00000000
00000000
00000000
00000130
00000000
00001000
00000000
00000100
00000010
00000100
00000000
00000010
00000000
00001000
00000001
,
00001000
00000300
00000000
00000001
00003010
00000000
00001000
00000000
00010000
00000000
00000000
00000000
00011000
00000000
00000000
00000000
,
00001000
00000000
01000000
00000000
00010000
00000000
01010000
00000000
00000000
00000000
10000000
00000000
00010000
00000000
00100000
01000000
,
00200000
00000000
13300000
10000000
00100000
00100000
00010000
00010000
,
01000000
01000000
01000000
00001000
00001000
00001000
00011000
00011000
,
00000000
00000000
00000000
00000000
,
00000000
00000000
00001000
00100000
00001000
00100000
00000000
00000000
00001000
00010000
00001000
00010000
00001000
00000000
00000000
00000000
,
00010000
00000000
00000010
00000000
00000100
00000000
00000001
00000010
00000000
00000001
00000010
00000000
00000100
00000000
00001000
00000000
,
00000010
00000000
00010000
00000000
00001000
00000000
01000000
00010000
00000000
01000000
00010000
00000000
10000000
00000000
01000000
00000000
,
00200000
00000000
00000000
00000000
20300000
00000000
00000000
00000000
30100000
00000000
00010000
01000000
00000000
01000000
10000000
00000000
,
01000000
00100000
01000000
00002000
00000000
00103000
00010000
00001000
,
00000100
00000000
00010000
00000000
00000010
00000000
00000100
00000001
00000000
00000100
00000001
00000000
00000010
00000000
00000100
00000000
,
00010000
00000000
00001000
00000000
01000000
00000000
00010000
10000000
00000000
00010000
10000000
00000000
00100000
00000000
00010000
00000000
,
00002000
00000000
00003010
00001000
00010000
00001000
00100000
00001000
,
01000000
00000000
00000000
01010000
00000000
00000000
00001000
00000000
00000000
00011000
00000000
00000000
00001000
00000000
00100000
01000000
,
00200000
00000000
00030000
00000000
00310000
00000000
10000000
00100000
00000000
01000000
00010000
00000000
00100000
00000000
00001000
00000000
,
00010000
00000000
00000100
00000000
00001000
00000000
00000010
00000100
00000000
00000001
00001000
00000000
00000001
00000000
00000010
00000000
,
00000200
00000000
00000000
00000000
00000302
00000000
00000000
00000000
00000103
00000000
00001000
00000010
00000000
00000010
00000001
00000000
,
00000010
00000100
00000010
00020000
00000000
00030100
00001000
00010000
,
00100000
00000000
01000000
00000000
10000000
00000000
00010000
01000000
00000000
01000000
00010000
00000000
00100000
00000000
00001000
00000000
,
00010000
00000000
00000010
00000000
00000100
00000000
00000001
00001000
00000000
00001000
00000001
00000000
00000010
00000000
00000100
00000000
,
00010100
00000000
00000000
00000000
00101000
00000000
00000000
00010000
00001000
00000000
00010000
00000000
00001000
00000000
01000000
00000000
,
00100000
00000000
10000000
00010000
10000000
00010000
10000000
00000000
01100000
00000000
01100000
00000000
00000000
00000000
00000000
00000000
,
10020000
00000000
01030000
00100000
00020000
00000000
00031000
00100000
,
00001000
00000010
00000001
00000200
00000000
00000310
00001000
00000001
,
00000010
00000000
00000100
00001000
00000100
00000000
00010000
00000000
00001000
00000000
01000000
00000000
00100000
00000000
00200000
00000000
,
00000000
00000000
10300000
00000000
01000000
00000000
00200000
00000000
00000000
00000000
00310000
00000000
01000000
00000000
00001000
00010000
,
00001000
00010000
00000020
00000000
00000001
00000000
00001030
00000100
,
00001000
00000000
00000100
00000300
00010000
00000000
00001000
00000000
00200000
00000000
00000000
00000000
10000000
00000000
00000000
00000000
,
00310000
00000000
00000000
01000000
00000000
00000000
00100000
00000000
00100000
00000000
00000000
10000000
00000000
00000000
00010000
00000000
,
00100000
00000000
00000000
00101000
00000000
00000000
00001000
00000000
00000000
00011000
00000000
00000000
00010000
00000000
00000010
00000000
,
00010000
00000000
00001000
00100000
00000000
00100000
00001000
00000000
00010000
00000010
00000000
00000010
00010000
00000000
00001000
01000000
,
00000000
01000000
00001000
00000000
00010000
00000100
00000000
00000100
00010000
00000000
00001000
00100000
00000000
01000000
10000000
00000000
,
00200000
00000000
00310000
00002000
00000000
00003100
00000010
00001000
,
00000100
00000001
00000100
00020000
00000000
00031000
01000000
00100000
,
10000000
00000000
00010000
00000000
00100000
00001000
00200000
00000000
00000000
00000000
00301000
00000000
00010000
00000000
00000010
00000000
,
00000100
00000000
00000010
00000000
00001000
00000001
00002000
00000000
00000000
00000000
00003001
00000000
00000100
00000000
00000000
00000000
,
00000001
00000000
00000010
00000000
00001000
00000000
00010000
00000000
01000000
00000000
10000000
00000000
,
00100000
00000000
01000000
00000000
01000000
00000000
03000000
00000000
00010000
00000000
10000000
00000000
01000000
00100000
00000000
00000000
,
20020000
00000000
00000000
00000000
30030000
00000000
00000000
00022000
00000000
00000000
00000000
00033000
00000000
00000000
00000000
00000000
,
00002002
00000000
00000000
00000000
,
00003003
00000000
00000000
00000000
;

//---------------dance-double - ----------------
#NOTES:
     dance-double:
     :
     Medium:
     9:
     0.376022,0.420989,0.242127,0.695139,0.078105,337.000000,306.000000,31.000000,89.000000,0.000000,0.000000,0.376022,0.420989,0.242127,0.695139,0.078105,337.000000,306.000000,31.000000,89.000000,0.000000,0.000000:
// measure 0
00000000
00000000
00000000
00000000
,  // measure 1
00000000
00000000
00000000
00000000
,  // measure 2
00000000
00000000
00000000
00000000
,  // measure 3
00000000
00000000
00000000
00000000
,  // measure 4
00000000
00000000
00000000
00000000
,  // measure 5
00010000
00000000
00000000
00010000
00000000
00000000
00001000
00000000
00000000
00001000
00000000
00000000
02000000
00000000
00000000
00000000
,  // measure 6
03001000
00000000
00000000
00001000
00000000
00000000
00010000
00000000
00000000
00010000
00000000
00000000
00000200
00000000
00000000
00000000
,  // measure 7
00010300
00000000
00000000
00010000
00000000
00000000
00001000
00000000
00000000
00001000
00000000
00000000
00200000
00000000
00000000
00000000
,  // measure 8
00310000
10000000
00010000
00000000
01000000
00001000
00010000
00000000
,  // measure 9
00022000
00000000
00000000
00003000
,  // measure 10
00000200
00000000
00000000
00030000
,  // measure 11
00000020
00000000
00000000
00000300
,  // measure 12
00000002
00000000
00000000
00000033
,  // measure 13
00000002
00000000
00000103
00000010
00000000
00000010
00001000
00000000
,  // measure 14
00000200
00000000
00010300
00002000
00000000
00000000
00103000
00010000
,  // measure 15
02000000
00000000
03100000
00000000
10000000
00010000
00100000
00000000
,  // measure 16
10010000
00000000
00000000
01100000
00000000
00000000
20020000
00000000
00000000
00000000
00000000
00000000
30030000
00000000
00000000
00000000
,  // measure 17
20000000
00000000
01000000
00000000
00010000
00000000
30100000
01000000
,  // measure 18
00200000
00000000
00000000
00320000
00000000
00000000
00031000
00000000
,  // measure 19
00022000
00000000
00033000
00000000
00010000
00000100
00000010
00000000
,  // measure 20
00000002
00002003
00003010
00000100
,  // measure 21
00000020
00000030
00000100
00000100
,  // measure 22
00000002
00000000
00000013
00002000
00000000
00000000
00013000
00001000
,  // measure 23
00020000
00000000
00031000
00000000
01000000
00100000
10000000
00000000
,  // measure 24
00020000
00000000
00100000
00000000
20030000
00000000
30100000
01000000
,  // measure 25
02020000
00000000
03030000
10000000
02000000
00000000
03000000
00100000
,  // measure 26
00002000
00000000
00013000
00000010
00000000
00000010
00000100
00000000
,  // measure 27
00000002
00000000
00000013
00000100
00002000
00000000
00003010
00000000
,  // measure 28
00001020
00000000
00000000
00010000
00000000
00000000
00001030
00000000
,  // measure 29
00002020
00000000
00003030
00000001
00000020
00000000
00000030
00000100
,  // measure 30
00020000
00000000
00031000
01000000
00000000
01000000
00100000
00000000
,  // measure 31
20000000
00000000
31000000
00100000
00020000
00000000
01030000
00000000
,  // measure 32
02010000
00000000
00000000
00001000
00000000
00000000
03010000
00000000
,  // measure 33
20020000
00000000
30030000
10000000
01000000
00000000
11000000
00000000
,  // measure 34
00100000
00000000
00000000
00001000
00010000
00000000
00011000
00000000
,  // measure 35
00010000
00000000
00000000
00000010
00000100
00000000
00000110
00000000
,  // measure 36
00000002
00000000
00000013
00000100
00000000
00000100
00001000
00000000
,  // measure 37
00000002
00000000
00000103
00000010
00000100
00000000
00000010
00000000
,  // measure 38
00002000
00000000
00003100
00010000
00000100
00000000
00010000
00000000
,  // measure 39
00001000
01000000
00001000
00000000
01000000
00100000
01000000
00000000
,  // measure 40
00100000
10000000
00100000
10000000
00010000
10000000
00010000
00010000
,  // measure 41
00000000
00000000
00000000
00000000
,  // measure 42
00000000
10000000
01000000
00000000
00010000
00000000
00011000
00000000
,  // measure 43
00102000
00000000
00013000
00000010
00000000
00000010
00000100
00000000
,  // measure 44
00000002
00000000
00000013
00000100
00002000
00000000
00003001
00000000
,  // measure 45
00001100
00000000
00000000
00000000
00001100
00000000
00000000
00000000
00000001
00000000
00000000
00000100
00000000
00000000
00000010
00000000
,  // measure 46
00020000
00000000
00031000
00200000
00000000
01300000
10000000
00010000
,  // measure 47
02000000
00000000
03100000
20000000
00000000
00000000
30020000
00000000
,  // measure 48
00230000
00000000
00301000
00010000
00000010
00000000
00000100
00000000
,  // measure 49
00000202
00000000
00000333
00000230
00000000
00002300
00000000
00013000
,  // measure 50
00001000
00000000
00000000
00100000
00000000
00000000
00001000
00000000
00000000
00010000
00000000
00000000
00000010
00000000
00010000
00000000
,  // measure 51
00022000
00000000
00000000
00033000
00001000
00100000
01000000
10000000
,  // measure 52
00100000
00000000
01000000
00000000
00010000
10000000
00100000
00000000
,  // measure 53
20000000
00000000
00000000
00000000
32000000
00000000
00000000
00000000
03100000
00000000
00000000
00100000
00000000
00000000
00100000
00000000
,  // measure 54
00002000
00000000
00013000
00000010
00000200
00000000
00000310
00000000
,  // measure 55
00001002
00000000
00000013
00000100
00000000
00000100
00020000
00000000
,  // measure 56
00032000
00000000
01003000
00100000
10000000
00000000
00010000
00000000
,  // measure 57
00110000
00000000
00101000
00000000
00001000
00010000
00000000
00000010
,  // measure 58
00000100
00000000
00000010
00000000
00001001
00001001
00000000
00000000
,  // measure 59
00000002
00000000
00000013
00000200
00000000
00000000
00001300
00000000
,  // measure 60
00000010
00020000
00000000
00032000
00000000
00000000
00103000
00000000
,  // measure 61
00010000
01000000
00010000
00000000
10000000
01000000
10000000
00000000
,  // measure 62
00020000
00000000
02030000
00000000
,  // measure 63
03001000
00022000
00033000
00010000
,  // measure 64
00000010
00022000
00033000
00010000
,  // measure 65
00000100
00000000
00001000
00000000
00000001
00000100
00000010
00000000
,  // measure 66
00001000
00000000
00000000
00001000
00000000
00000000
00000100
00000000
00000000
00000100
00000000
00000000
00010000
00000000
00000000
00000000
,  // measure 67
00001000
00000000
00000000
00001000
00000000
00000000
00100000
00000000
00000000
00100000
00000000
00000000
01000000
00000000
00000000
01000000
,  // measure 68
00000000
00000000
10000000
00000000
00000000
10000000
00000000
00000000
00010000
00000000
00000000
00010000
00000000
00000000
01000000
00000000
,  // measure 69
00002000
00000000
00000000
00010000
00000000
00013000
00000000
00010000
,  // measure 70
00000020
00000000
00000000
00000230
00000000
00000000
00000331
00000000
,  // measure 71
00001000
00000100
00020000
00000000
00000000
00000000
00031000
00000000
,  // measure 72
00001000
01000000
00020000
00000000
00000000
00000000
10030000
00000000
,  // measure 73
10100000
00010000
00110000
01000000
,  // measure 74
00001000
00010000
00001000
00000000
00010000
00000100
00000010
00000000
,  // measure 75
00002002
00000000
00000000
00000000
00003003
00000000
00000000
00000220
00000000
00000000
00000000
00000330
00000000
00000000
00000000
00000000
,  // measure 76
00002002
00000000
00000000
00000000
,  // measure 77
00003003
00000000
00000000
00000000
;

//---------------dance-double - ----------------
#NOTES:
     dance-double:
     :
     Easy:
     5:
     0.224274,0.360847,0.093727,0.445201,0.000000,201.000000,189.000000,12.000000,57.000000,0.000000,0.000000,0.224274,0.360847,0.093727,0.445201,0.000000,201.000000,189.000000,12.000000,57.000000,0.000000,0.000000:
// measure 0
00000000
00000000
00000000
00000000
,  // measure 1
00000000
00000000
00000000
00000000
,  // measure 2
00000000
00000000
00000000
00000000
,  // measure 3
00000000
00000000
00000000
00000000
,  // measure 4
00000000
00000000
00000000
00000000
,  // measure 5
00001000
00000000
00000000
00002000
00000000
00000000
00003000
00000000
,  // measure 6
00010000
00000000
00000000
00020000
00000000
00000000
00030000
00000000
,  // measure 7
00000010
00000000
00000000
00000020
00000000
00000000
00000030
00000000
,  // measure 8
00000100
00000100
00000010
00000010
,  // measure 9
00002002
00000000
00000000
00003003
,  // measure 10
00002000
00000000
00000000
00003000
,  // measure 11
00000200
00000000
00000000
00000300
,  // measure 12
00020000
00000000
00000000
00030000
,  // measure 13
00001000
00000000
00001000
00000000
,  // measure 14
01000000
00000000
01000000
00000000
,  // measure 15
00100000
00000000
00100000
00000000
,  // measure 16
10000000
00010000
10000000
00000000
,  // measure 17
00020000
00030000
00010000
00100000
,  // measure 18
00002000
00003000
00001000
00010000
,  // measure 19
00000020
00000030
00000010
00001000
,  // measure 20
00000001
00000000
00001000
00000000
,  // measure 21
00000020
00000030
00001000
00000100
,  // measure 22
00020000
00030000
00001000
00100000
,  // measure 23
00020000
00030000
10000000
00010000
,  // measure 24
02000000
03000000
00200000
00300000
,  // measure 25
20020000
00000000
30030000
00000000
,  // measure 26
00010000
00100000
00001000
00010000
,  // measure 27
00000200
00000300
00000200
00000300
,  // measure 28
00001000
00000010
00000100
00000000
,  // measure 29
00002002
00000000
00003003
00000000
,  // measure 30
00001000
00000100
00010000
00001000
,  // measure 31
00200000
00300000
00200000
00300000
,  // measure 32
00010000
01000000
00100000
00000000
,  // measure 33
10000000
00010000
01000000
01000000
,  // measure 34
00001000
00000000
00010000
00000000
,  // measure 35
00001000
00010000
00000100
00000100
,  // measure 36
00001000
00000000
00000001
00000000
,  // measure 37
00001000
00000010
00000100
00000000
,  // measure 38
00000001
00000010
00000100
00000000
,  // measure 39
00010000
00010000
00001000
00001000
,  // measure 40
00100000
00100000
01000000
10010000
,  // measure 41
00000000
00000000
00000000
00000000
,  // measure 42
00000000
01100000
10010000
01100000
,  // measure 43
20020000
30030000
10000000
00100000
,  // measure 44
00010000
00001000
00000200
00000300
,  // measure 45
00000010
00000010
00001000
00000001
,  // measure 46
00000020
00000030
00000200
00000300
,  // measure 47
00002000
00003000
00000100
00000100
,  // measure 48
00010000
00010000
00001000
00000000
,  // measure 49
02000000
03000000
00002000
00003000
,  // measure 50
00010000
00000100
00000010
00000000
,  // measure 51
00002002
00003003
00000001
00000100
,  // measure 52
00001000
00010000
00200000
00300000
,  // measure 53
01000000
01000000
00010000
10000000
,  // measure 54
02000000
03000000
00200000
00300000
,  // measure 55
00020000
00030000
00100000
00100000
,  // measure 56
00001000
00001000
00010000
00000000
,  // measure 57
00001000
00001000
00010000
00010000
,  // measure 58
00000010
00000100
00001001
00000000
,  // measure 59
00000002
00000003
00002000
00003000
,  // measure 60
00000100
00000100
00020000
00030000
,  // measure 61
00001000
01000000
00010000
10000000
,  // measure 62
00200000
00300000
02000000
03000000
,  // measure 63
00010000
00200000
00300000
00001000
,  // measure 64
00010000
00002000
00003000
00000000
,  // measure 65
00010000
00010000
00000010
00000010
,  // measure 66
00000200
00000000
00000000
00000300
,  // measure 67
00000001
00000010
00000100
00001000
,  // measure 68
00010000
00100000
01000000
10000000
,  // measure 69
00200000
00300000
02000000
03000000
,  // measure 70
00010000
00010000
00200000
00300000
,  // measure 71
00001000
00020000
00030000
00001000
,  // measure 72
00010000
00002000
00003000
00010000
,  // measure 73
00000020
00000030
00000200
00000300
,  // measure 74
00000001
00000010
00000100
00000000
,  // measure 75
00000220
00000000
00000000
00000330
,  // measure 76
00002002
00000000
00000000
00000000
,  // measure 77
00003003
00000000
00000000
00000000
;
