#VERSION:0.83;
#TITLE:Flechette;
#SUBTITLE:;
#ARTIST:awfuless meets PODA;
#TITLETRANSLIT:;
#SUBTITLETRANSLIT:;
#ARTISTTRANSLIT:;
#GENRE:;
#CREDIT:;
#MUSIC:Flechette.ogg;
#BANNER:BR2024-bn.png;
#BACKGROUND:BR2024-bg.png;
#CDTITLE:;
#SAMPLESTART:81.357;
#SAMPLELENGTH:10.667;
#SELECTABLE:YES;
#OFFSET:-0.024;
#BPMS:0.000=180.000;
#STOPS:;
#JACKET:;
#DISCIMAGE:;
#CDIMAGE:;
#BGCHANGES:;
#FGCHANGES:;

//--------------- dance-single - SJ XO ----------------
#NOTEDATA:;
#STEPSTYPE:dance-single;
#DESCRIPTION:SJ XO;
#DIFFICULTY:Hard;
#METER:13;
#RADARVALUES:0,0,0,0,0;
#CHARTNAME:;
#CHARTSTYLE:;
#CREDIT:Talkion;
#METERF:13;
#NOTES:
0000
0000
0000
0000
,
0000
0000
0000
0000
,
0000
0000
0000
0000
,
0000
0000
0000
0000
,
1010
0001
0000
0011
1000
0010
0100
0001
,
0020
0000
0031
1000
0000
0010
0100
0001
,
1000
0000
0001
0020
0230
2300
3200
0320
,
0031
1000
0000
0010
0100
0010
1000
0000
,
0200
0000
0310
0001
0010
0001
1000
0000
,
1010
0000
0010
0100
0001
0000
0100
0010
,
1000
0000
0001
0010
0100
1000
0100
0010
,
0001
0000
1000
0010
0100
0001
0010
0011
,
0000
1010
0000
0000
2001
0000
0000
0000
,
3100
1000
0001
1000
0010
0100
0002
0000
,
0013
0001
1000
0001
0100
0010
2000
0000
,
3100
0010
0001
0100
0010
1000
0100
0010
,
0001
0100
0001
1000
0100
1000
0010
0000
,
0100
0000
0100
0000
0100
0001
0010
0001
,
0100
0000
0100
0000
0100
0010
2000
0000
,
3001
0010
0100
0010
0001
0100
0010
0100
,
2000
3000
0000
0000
0001
0000
0010
0000
0100
0000
0001
0000
0010
0000
0000
0000
,
0110
0000
0100
1002
0103
0010
2000
0000
,
3100
0010
0100
1002
0103
0010
0001
0000
,
0010
0100
0010
1002
0013
0100
0001
0000
,
0101
0000
1100
1000
0010
0100
0002
0000
,
1003
0000
0010
1002
0013
0100
2000
0000
,
3010
0100
0010
1002
0013
0100
0001
0000
,
0100
0000
0100
1002
0103
0010
0001
0000
,
0011
0000
0000
1010
0000
0000
1002
0000
0000
0000
0000
0000
0013
0000
0000
0000
,
0100
0000
0010
2001
3010
0100
0001
0000
,
0010
0100
0010
2001
3010
0100
1000
0000
,
0100
0010
0100
2001
3100
0010
1000
0000
,
1010
0000
0011
0001
0100
0010
2000
0000
,
3100
0000
0000
0000
1000
0000
0001
0000
0000
0100
0000
0000
0010
0000
1000
0000
,
0010
0000
0000
0100
0000
0000
0001
0000
1000
0000
0100
0000
0010
0000
0001
0000
,
1000
0010
0100
0010
1000
0100
0010
0100
,
0002
0003
0000
0000
1000
0000
0010
0000
0100
0000
1000
0000
0010
0000
0000
0000
,
0110
0000
0000
0000
1001
0000
0002
0000
0010
0000
0000
1000
0000
0000
0103
0000
,
0101
0000
0000
0000
1001
0000
2000
0000
0100
0000
0000
0001
0000
0000
3010
0000
,
1010
0000
0000
0000
1001
0000
0002
0000
0010
0000
0000
1000
0000
0000
0103
0000
,
0010
0000
1000
0000
0100
0000
0020
0000
0001
0000
0000
0130
0000
0000
0100
0000
,
1000
0000
0001
0000
0100
0000
0020
0000
0001
0000
0000
0100
0000
0000
1030
0000
,
0001
0010
0100
0010
0001
1000
0100
1000
,
0010
0000
0100
0001
0000
0000
1000
0100
,
0010
0100
0000
1000
0010
0100
0001
0000
,
1001
0000
0000
0000
,
0000
0000
1000
0000
0000
0100
0000
0020
,
0130
0000
0000
0000
,
1000
0000
0001
0100
0100
0010
0100
0001
,
0010
0000
0001
0000
1000
0010
0100
0000
,
0001
0000
1000
0000
0100
0010
0001
0020
,
0130
0000
1000
0010
0100
0001
0100
0010
,
1000
0100
1000
0001
0100
0001
0020
0000
,
0031
0000
1000
0000
0010
0000
0000
0010
0000
0000
0100
0000
0001
0000
0000
0000
,
1000
0000
0001
0000
0010
0000
0000
0010
0000
0000
0100
0000
1000
0000
0010
0000
,
0100
0000
0000
0000
0100
0000
0000
0001
0000
0000
1000
0000
1000
0000
0100
0000
,
0010
0000
0010
0000
1001
0001
0100
0010
,
1000
0001
0010
0100
0010
0001
0100
0010
,
1000
0001
0100
0001
0010
0100
1000
0001
,
0100
0010
0100
0001
0010
0100
0010
0001
,
0200
0000
0000
0000
0000
0300
1001
0000
,
1010
0000
0000
0000
0021
0000
0000
0130
0000
0000
0010
0000
0001
0000
0100
0000
,
0010
0000
1000
0000
0020
0000
0000
0130
0000
0000
0001
0000
0010
0000
1000
0000
,
0010
0000
0100
0000
2000
0000
0000
3001
0000
0000
0100
0000
0010
0000
1000
0000
,
0100
0000
0010
0000
0200
0000
0000
1300
0000
0000
0001
0000
0100
0000
0010
0000
,
1000
0000
1000
0000
0002
0000
0000
0013
0000
0000
0001
0000
0100
0000
0010
0000
,
1000
0000
0001
0000
2000
0000
0000
3100
0000
0000
1000
0000
0010
0000
0100
0000
,
0002
0000
0000
0010
0000
0000
1003
0000
1010
0000
0000
0011
0000
0000
0001
0000
,
0101
0000
0000
1100
0000
0000
2001
0000
0000
3200
0000
0000
0301
0000
0100
0000
,
1000
0000
0000
0000
1020
0000
0000
0130
0000
0010
0000
0100
0000
0000
0001
0000
,
0010
0000
0100
0000
0020
0000
0000
0031
0000
0000
1000
0000
0010
0000
0001
0000
,
0010
0000
0100
0000
0002
0000
0000
1003
0000
0100
0000
1000
0000
0000
0010
0000
,
0110
0000
0000
0000
0110
0000
0000
0101
0000
1100
0000
0000
1002
0000
0000
0000
,
0013
0000
0000
0000
0010
0000
0000
0100
0000
0000
1000
0000
0001
0000
0100
0000
,
0010
0000
0000
0000
0010
0000
0000
1000
0000
0001
0000
1000
0000
0000
0100
0000
,
0020
0000
0000
0100
0000
0000
0031
0000
1000
0000
0010
0000
0100
0000
0020
0000
,
0002
0003
0000
0100
0000
0000
1030
0000
0002
0000
0010
0000
2003
0000
0000
0000
,
3100
0000
1001
0001
0100
0010
0000
1000
,
0100
0010
0000
1000
0010
0100
0010
0002
,
1000
0000
0010
0000
1003
0001
0100
0010
,
0100
0001
0000
1000
0100
0010
0100
2000
,
0001
0000
0100
0000
3001
1000
0010
0200
,
0000
0310
0001
0020
0000
1030
0100
0010
,
2000
0000
3010
0001
0100
0010
0100
1000
,
0002
0000
0000
0000
0013
0000
0100
0000
0001
0000
0000
0001
0000
0000
0001
0000
,
0000
0000
1001
1000
0100
0010
0100
2000
,
0001
0000
0100
0000
3001
0100
0010
2000
,
0000
3100
0010
2000
0000
3010
0100
0020
,
0001
0000
0230
0000
1300
0010
0100
1000
,
0001
0010
0100
0002
0000
0013
0100
0010
,
0001
0100
0010
2000
0000
3100
0010
0100
,
1000
0010
0100
0001
0010
0001
0100
0010
,
0002
0003
1000
0000
0100
0000
0010
0000
0100
0000
0001
0000
0010
0000
0000
0000
,
0110
0000
0000
0000
;

//--------------- dance-single - FS XO GH- KS- ----------------
#NOTEDATA:;
#STEPSTYPE:dance-single;
#DESCRIPTION:FS XO GH- KS-;
#DIFFICULTY:Challenge;
#METER:17;
#RADARVALUES:0,0,0,0,0;
#CHARTNAME:;
#CHARTSTYLE:;
#CREDIT:Talkion;
#METERF:17;
#NOTES:
0000
0000
0000
0000
,
0000
0000
0000
0000
,
0000
0000
0000
0000
,
0000
0000
0000
0000
,
1010
0000
0001
0000
0000
0000
0011
0000
1000
0000
0010
0100
0001
0100
0010
1000
,
0100
1000
0001
0010
0000
0001
0100
0010
,
1000
0000
0001
0020
0230
2300
3200
0320
,
0031
1000
0000
0010
0100
0010
1000
0100
,
0020
0000
0000
0000
0031
1000
0100
1000
0001
0100
0010
1000
0001
0000
0010
0001
,
0100
0001
0010
0001
1000
0000
0010
1000
,
0100
0000
1000
0001
0100
0010
1000
0100
,
0010
0000
0000
0000
0001
0000
1000
0000
0010
0000
0100
0000
0010
1000
0100
0000
,
0000
0110
0000
0000
1002
0000
0000
0000
,
0013
0001
1000
0010
1000
0100
0010
0001
,
0100
0010
1000
0001
0010
0001
0100
0010
,
1000
0001
0010
0001
1000
0000
0010
0100
0001
0100
0010
0000
1000
0000
0001
0000
,
0010
0100
1000
0100
0010
0001
1000
0001
0100
0010
0100
0001
1000
0000
0000
0000
,
0100
0000
0000
0000
0100
0000
0000
0000
0100
0000
1000
0001
0100
0010
1000
0001
,
0010
0000
0000
0000
0010
0000
0000
0000
0010
0000
0001
1000
0010
0100
0001
1000
,
0100
0000
1000
0000
0001
0000
0200
0000
0310
1000
0001
0010
0001
1000
0010
0100
,
2000
3000
0000
0000
0100
0001
0010
0M00
0010
1000
0001
1000
0100
0000
0000
0000
,
0110
0000
0000
0010
0001
0000
MMM0
0000
0010
0100
0010
0000
2000
0000
0000
0000
,
3001
0010
0200
0300
1000
0000
0MMM
0000
0100
0010
1000
0000
0011
0000
0000
0000
,
0001
0100
0020
0030
1000
0000
0MMM
0000
0010
0100
1000
0000
0101
0000
0000
0000
,
1001
0000
0000
0000
0001
0010
0100
1000
0001
0100
0010
1000
0002
0000
0003
0000
,
0011
0000
0000
0010
0100
0000
M0MM
0000
0001
0010
0001
0000
2000
0000
0000
0000
,
3010
0100
0002
0003
1000
0000
0MMM
0000
0010
0100
1000
0000
0101
0000
0000
0000
,
1001
0000
0000
0000
1000
0000
0MMM
0000
0100
0010
1000
0000
0011
0000
0000
0000
,
0110
0000
0000
1002
0000
0000
0103
0010
0100
0010
0100
0010
1000
0000
0000
0000
,
1001
0000
0000
0001
0010
0000
MM0M
0000
0100
0010
0100
0000
0002
0000
0000
0000
,
1003
0100
0020
0030
0100
0000
M0MM
0000
0010
0100
0001
0000
1100
0000
0000
0000
,
1000
0000
1020
0030
0010
0000
MM0M
0000
0100
0010
0001
0000
1010
0000
0000
0000
,
1001
0000
0000
0000
1000
0100
0010
0001
1000
0010
0100
0001
2000
0000
3000
0000
,
1100
0000
0000
0000
0100
0000
0010
0000
0000
0001
0000
0000
0100
0000
0010
0000
,
1000
0000
0001
0010
0000
0010
0100
0000
0010
0000
0001
0000
0100
0010
0100
0000
,
0001
0000
1000
0000
0100
0000
1000
0000
0001
0100
0010
1000
0001
0010
0100
1000
,
0010
0000
0000
0000
0100
0001
0010
0M00
0010
1000
0100
0000
1001
0000
0000
0000
,
1010
0000
0000
0000
0011
0000
0010
0200
1000
0000
M300
0100
0004
0003
0010
0000
,
0011
0000
0000
0000
1010
0000
0010
0200
0001
0000
030M
0100
4000
3000
0010
0000
,
1010
0000
0000
0000
0011
0000
0010
0200
1000
0000
M300
0100
0004
0003
0010
0000
,
0100
0000
0010
0000
0001
0000
1000
0010
0100
0000
0000
0004
0003
0000
4000
3000
,
0100
0000
0010
0000
1000
0000
0010
0200
1000
0000
M300
0100
0004
0003
1000
0000
,
0010
0100
0001
0000
1000
0100
0010
0000
0001
1000
0100
1000
0001
0100
0010
1000
,
0100
0000
0000
0000
1000
0000
0001
0000
0000
0000
0000
0000
0100
0000
0010
1000
,
0010
0000
0200
0300
0000
0000
0001
0000
1000
0000
0100
0010
0001
0000
0000
0000
,
1001
0000
0000
0000
,
0000
0000
0000
0000
1000
0000
0000
0000
0000
0000
0010
0000
0000
0000
0100
0010
,
1000
0000
0000
0000
,
0001
0000
0000
0000
1000
0000
0100
0000
0100
0000
1000
0001
1000
0010
0100
0001
,
0010
0000
0001
0000
1000
0010
0100
0000
,
0001
0000
0000
0000
1000
0000
0000
0000
0100
0000
1000
0000
0001
0000
0100
0010
,
1000
0000
0001
0010
0100
0010
0001
1000
,
0010
0100
0001
0000
1000
0100
0010
0000
0001
1000
0010
0100
0001
1000
0001
1000
,
0100
0000
1000
0000
0001
0000
0100
0010
0100
0000
0001
0000
1000
0100
0000
0010
,
0001
0000
1000
0000
0010
0000
0100
0001
0100
0000
0010
0000
1000
0000
0001
0010
,
0100
0000
1000
0000
0001
0000
0100
0010
0100
0000
0001
0000
0001
0000
1000
0000
,
0100
0000
1000
0000
0001
0000
0100
0001
0010
0000
0001
0000
1000
0010
0100
0001
,
1000
0000
0001
0000
0010
0000
0100
1000
0100
0000
0010
0000
0001
1000
0000
0010
,
0100
0000
0001
0000
1000
0000
0100
0010
0100
0000
1000
0001
0100
0010
1000
0001
,
0010
0000
0001
0000
1000
0000
0010
0100
0010
0000
1000
0000
2000
0000
0001
0000
,
3200
0000
0310
0100
0010
0001
0000
1000
0010
0100
0010
0100
0001
0000
0000
0000
,
0011
0000
0000
0000
1010
0000
0010
0100
000M
0100
1000
0000
0001
0000
0010
0000
,
0100
0000
1000
0001
0100
0000
0010
0100
000M
0100
1000
0000
0100
0000
0001
0000
,
0100
0000
0010
0100
1000
0000
0100
0010
000M
0010
1000
0000
0001
0000
0100
0000
,
0010
0000
1000
0001
0010
0000
0100
0010
M000
0010
0100
0000
0001
0000
1000
0000
,
0100
0000
0100
0000
0100
0000
0010
0100
M000
0100
0001
0000
0010
0000
0100
0000
,
1000
0000
0001
0100
0001
0000
0010
0100
M000
0100
0001
0000
0010
0000
0100
0000
,
1000
0000
0001
0010
0M00
0010
1000
0000
1010
0000
0000
0101
0000
0000
0004
0000
,
0013
0000
0000
0110
0000
0000
2001
0000
0000
3010
0000
1000
0100
0010
0001
0100
,
0010
0000
0000
0000
0011
0000
0010
0100
M000
0100
0000
0001
0000
1000
0010
0000
,
0100
0000
0001
1000
0100
0000
0010
0100
M000
0100
0001
1000
0000
0010
0100
0010
,
0001
0000
0010
0100
0001
0000
0100
0010
M000
0010
0000
0001
1000
0000
0100
0000
,
0110
0000
0000
0000
1001
0000
0000
0101
0000
1100
0000
1000
0001
0100
0010
0100
,
0001
0000
0000
0000
0001
0000
1000
0100
00M0
0100
0001
0000
0010
0000
0100
0000
,
1000
0000
0000
0000
1000
0000
0001
0100
00M0
0100
0000
1000
0000
0010
0100
0000
,
0002
0000
0000
2003
0000
0000
3100
0000
0010
0000
0100
0000
1000
0001
0100
0010
,
0002
0003
0000
0010
0000
0000
0010
0000
1000
0001
0000
0010
0100
1000
0010
0100
,
0001
0000
0000
0000
1001
0000
1000
0000
0100
0010
0100
0000
1000
0000
0001
0000
,
0100
0010
0100
1000
0100
0010
1000
0100
,
0010
0001
1000
0001
0100
0010
1000
0100
,
0010
0001
0010
0000
0100
0000
1000
0000
0010
0000
0100
0000
0001
0000
1000
0000
,
0100
0010
0100
1000
0001
0100
0010
1000
,
0001
0010
0100
0001
0100
0010
0100
1000
,
0001
0100
0010
0100
0002
0000
0100
0000
1003
0100
0010
0000
0001
1000
0100
1000
,
0020
0000
0000
0000
1030
0001
0100
0001
0010
0000
0000
0110
0000
0000
1001
0000
,
0001
1000
0001
1000
0010
0000
0100
0000
1000
0000
0100
0000
0001
1000
0001
0000
,
0010
0100
1000
0001
0100
0010
0001
0010
,
0100
0001
0010
1000
0010
0100
1000
1000
,
0010
0100
1000
0100
0001
0010
1000
0001
,
0100
1000
0010
0100
0001
0010
0100
1000
,
0010
1000
0100
0010
0001
0100
0010
1000
,
0002
0000
0010
0000
2003
0000
0100
0000
3001
0100
0010
1000
0001
1000
0100
0010
,
2000
3000
0010
0100
0010
0001
0000
1000
0000
0001
0010
0001
0100
0000
0000
0000
,
0110
0000
0000
0000
;

//--------------- dance-single - BXF KS- SJ- ----------------
#NOTEDATA:;
#STEPSTYPE:dance-single;
#DESCRIPTION:BXF KS- SJ-;
#DIFFICULTY:Edit;
#METER:18;
#RADARVALUES:0,0,0,0,0;
#CHARTNAME:;
#CHARTSTYLE:;
#CREDIT:Talkion;
#METERF:18;
#NOTES:
0000
0000
0000
0000
,
0000
0000
0000
0000
,
0000
0000
0000
0000
,
0000
0000
0000
0000
,
1010
0000
0001
0000
0000
0000
0011
0000
1000
0000
0010
0100
0001
0100
0010
1000
,
0100
1000
0001
0010
0000
0001
0100
0010
,
1000
0000
0000
0000
0001
0000
0010
0100
1000
0100
0010
0001
1000
0001
0100
0010
,
1000
0000
0001
0010
0000
0000
0001
0000
1000
0000
0010
0000
0100
0000
0001
0000
,
0020
0000
0000
0000
0031
1000
0100
1000
0001
0100
0010
1000
0001
0000
0010
0001
,
0100
0001
0010
0001
1000
0000
0010
1000
,
0100
0000
1000
0001
0100
0010
1000
0100
,
0010
0000
0000
0000
0001
0000
1000
0000
0010
0000
0100
0000
0001
1000
0101
0000
,
0000
0000
1010
0000
0000
0000
0000
0000
0012
0000
1003
0001
0100
0010
0100
0001
,
0010
0001
1000
0010
1000
0100
0010
0001
,
0100
0010
1000
0001
0010
0001
0100
0010
,
1000
0001
0010
0100
0010
0001
1000
0001
0100
0010
0100
0001
1000
0100
0010
0001
,
1000
0010
0100
0010
1000
0001
1000
0100
0010
0001
0100
0010
1000
0000
0000
0000
,
0100
0000
0000
0000
0100
0000
0000
0000
0100
0000
1000
0001
0100
0010
1000
0001
,
0010
0000
0000
0000
0010
0000
0000
0000
0010
0000
0001
1000
0010
0100
0001
1000
,
0100
0000
1000
0000
0001
0000
0010
0100
1000
0001
0100
0010
1000
0001
0010
0100
,
0002
0003
0000
0000
0100
0100
0001
0000
0010
0010
1000
0001
1100
0000
0000
0000
,
0110
0000
0000
0010
1000
0000
M011
0000
0001
0010
0100
0000
2000
0000
0000
0000
,
3001
0100
0200
0300
1000
0000
M101
0000
0001
0100
0010
0000
1001
0000
0000
0000
,
1000
0100
0200
0300
0001
0000
110M
0000
1000
0100
0010
0000
2001
0000
0000
0000
,
3011
0000
0000
0000
1100
0001
1000
0100
1010
0001
1000
0010
0100
0001
0100
0001
,
1000
0000
0000
0100
1000
0000
M101
0000
0001
0100
0010
0000
2000
0000
0000
0000
,
3001
0010
0020
0030
1000
0000
M011
0000
0001
0010
0100
0000
1002
0000
0000
0000
,
1013
0000
0000
0000
0001
0000
101M
0000
1000
0010
0100
0000
2001
0000
0000
0000
,
3101
1000
0001
1100
0000
0000
0011
1000
0010
1000
0010
1000
0100
0000
0000
0000
,
0110
0000
0000
0010
0001
0000
101M
0000
1000
0010
0100
0000
0002
0000
0000
0000
,
1003
0100
0200
0300
0001
0000
110M
0000
1000
0100
0010
0000
1001
0000
0000
0000
,
0001
0000
0220
0330
1000
0000
M101
0000
0001
0100
0010
0000
2001
0000
0000
0000
,
3101
0000
0000
0000
1010
0001
1000
0010
1100
0001
1000
0100
0010
0001
0010
0001
,
1000
0000
0000
0000
0010
0000
0100
0000
0000
0001
0000
0000
0010
0000
0001
0000
,
1000
0000
0010
1000
0000
1000
0100
0000
0010
0000
0001
0000
0010
0100
1000
0000
,
0001
0000
0100
0000
0010
0000
1000
0000
0001
0010
0100
1000
0001
0100
0010
1000
,
0100
0000
0000
0000
0010
0010
1000
0000
0100
0100
0001
1000
0011
0000
0000
0000
,
1000
0000
0010
0100
1000
0000
0100
0020
1100
0000
0M30
1010
0000
0000
0101
0000
,
1000
0000
0100
0010
1000
0000
0010
0200
1010
0000
03M0
1100
0000
0000
0011
1000
,
0001
0000
0100
0010
0001
0000
0010
0200
0011
0000
03M0
0101
0000
0000
1010
0000
,
0100
0000
1000
0000
0010
0000
0100
0020
1100
0000
0M30
0010
0000
0000
0001
0000
,
1000
0000
0100
0000
0001
0000
0100
0020
0101
0000
0M30
0011
0000
0000
1100
0000
,
0001
1000
0100
0010
0001
1000
0010
0100
0001
1000
0100
1000
0001
0100
0010
1000
,
0100
0000
0000
0000
1000
0000
0001
0000
0000
0000
0000
0000
0100
0000
0010
1000
,
0010
0000
0200
0300
0000
0000
0001
0000
1000
0000
0100
0010
0001
0000
0000
0000
,
1001
0000
0000
0000
,
0000
0000
0000
0000
1000
0000
0000
0000
0000
0000
0010
0000
0000
0000
0100
0010
,
1000
0000
0000
0000
,
0001
0000
0000
0000
1000
0000
0100
0010
0100
0000
1000
0001
1000
0010
0100
0001
,
0010
0000
0001
0000
1000
0010
0100
0000
,
0001
0000
0000
0000
1000
0000
0000
0000
0100
0000
1000
0000
0001
0000
0100
0010
,
1000
0000
0001
0010
0100
0010
0001
1000
,
0010
0100
0001
0100
0010
1000
0001
0010
0001
1000
0010
0100
0001
1000
0001
1000
,
0100
0000
1000
0000
0001
0000
0100
0010
0100
0000
0001
0000
1000
0100
0000
0010
,
0001
0000
1000
0000
0010
0000
0100
0001
0100
0000
0010
0000
1000
0000
0001
0010
,
0100
0000
1000
0000
0001
0000
0100
0010
0100
0000
0001
0000
0001
0000
1000
0000
,
0100
0000
1000
0000
0001
0000
0100
0001
0010
0000
0001
0000
1000
0010
0100
0001
,
1000
0000
0001
0000
0010
0000
0100
1000
0100
0000
0010
0000
0001
1000
0000
0010
,
0100
0000
0001
0000
1000
0000
0100
0010
0100
0000
1000
0001
0100
0010
1000
0001
,
0010
0100
0010
0001
1000
0010
1000
0001
0010
0001
1000
0010
0100
0001
0010
0100
,
2000
0000
3100
0010
0001
0100
0010
1000
0001
0010
0001
0010
0101
0000
0000
0000
,
1010
0000
0001
0100
0011
0000
1000
0010
0M00
0010
0001
0000
0010
0000
1000
0000
,
0010
0000
0001
0100
0010
0000
1000
0100
000M
0100
0010
0000
0001
0000
1000
0000
,
0100
0000
0010
0100
0001
0000
1000
0010
0M00
0010
0001
0000
0010
0000
1000
0000
,
0010
0000
0001
0100
0010
0000
1000
0100
00M0
0100
0001
0000
0010
0000
0100
0000
,
1000
0000
1000
0000
1000
0000
0001
0100
M000
0100
0010
0000
1000
0000
0010
0000
,
0001
0000
1000
0010
0100
0000
0001
0010
M000
0010
0100
0000
1000
0000
0100
0000
,
0001
0000
1000
0010
0M00
0010
0001
0000
1100
0010
0000
1100
0000
0001
0020
0000
,
0131
0000
0000
1010
0000
0000
0012
0000
0000
0203
0000
1300
0001
0010
0100
0010
,
1000
0000
0001
0010
0101
0000
1000
0100
00M0
0100
0000
0001
0000
0100
1000
0000
,
0100
0000
0001
0010
0100
0000
1000
0010
000M
0010
0100
1000
0000
0001
0100
0010
,
0001
0000
1000
0100
0010
0000
1000
0010
0M00
0010
0000
0001
0010
0000
1000
0M00
,
1010
0000
0001
1000
0011
0000
0000
1100
0000
0011
0000
1000
0100
0010
0100
1000
,
0001
0000
0100
0000
0001
0000
1000
0010
0M00
0010
0001
0000
0100
0000
0001
0000
,
1000
0000
0100
0000
1000
0000
0001
0010
0M00
0010
0000
1000
0000
0010
0100
0000
,
0001
0000
1000
0010
0M00
0010
0001
0000
1000
0100
0010
0001
1000
0001
0100
0010
,
0002
0003
0000
0010
0000
0000
0010
0000
1000
0001
0010
0001
0100
0010
1000
0100
,
0010
0000
0000
0000
1001
0000
0001
0000
0100
0010
0100
0000
0001
0000
1000
0000
,
0100
0010
0100
0001
0100
0010
0001
0100
,
0010
1000
0001
1000
0100
0010
0001
0100
,
0010
1000
0010
0000
0100
0000
0001
0000
0010
0000
0100
0000
1000
0000
0001
0000
,
0100
0010
0100
0001
1000
0100
0010
0001
,
1000
0010
0100
1000
0100
0010
0100
0001
,
1000
0100
0010
0001
1000
0001
0100
0010
1000
0100
0010
0100
1000
0010
0100
0001
,
0020
0000
0000
0000
0031
1000
0010
0100
0011
0000
0000
1100
0000
0000
0101
0000
,
1000
0001
1000
0001
0010
0000
0100
0000
0001
0000
0100
0000
1000
0001
1000
0000
,
0010
0100
0001
1000
0100
0010
1000
0010
,
0100
1000
0010
0001
0010
0100
0001
0001
,
0010
0100
0001
0100
1000
0010
0001
1000
,
0100
0001
0010
0100
1000
0010
0100
0001
,
0010
0001
0100
0010
1000
0100
0010
0001
,
2000
0000
0010
0000
3002
0000
0100
0000
1003
0100
0010
0001
1000
0001
0100
0010
,
0002
0003
0010
0100
0001
1000
0100
1000
0001
0100
0010
1000
0100
0000
0000
0000
,
0110
0000
0000
0000
;
